<?xml version="1.0" standalone="no"?>
<!DOCTYPE svg PUBLIC "-//W3C//DTD SVG 1.1//EN" "http://www.w3.org/Graphics/SVG/1.1/DTD/svg11.dtd" >
<svg xmlns="http://www.w3.org/2000/svg">
<metadata></metadata>
<defs>
<font id="impact_label_reversedregular" horiz-adv-x="1226" >
<font-face units-per-em="2048" ascent="1536" descent="-512" />
<missing-glyph horiz-adv-x="1236" />
<glyph horiz-adv-x="2048" />
<glyph horiz-adv-x="2048" />
<glyph unicode="&#xd;" horiz-adv-x="1024" />
<glyph unicode=" "  horiz-adv-x="1236" />
<glyph unicode="&#x09;" horiz-adv-x="1236" />
<glyph unicode="&#xa0;" horiz-adv-x="1236" />
<glyph unicode="!" horiz-adv-x="1239" d="M537 297q0 16 14 37q4 10 14 18q-12 -12 -6 -57t-4 -62q-2 -10 -8 -24q-4 -8 -4 -12q-4 12 -4 22v31q0 8 -1 19.5t-1 27.5zM555 814v126v64q10 27 38 54t44 27q20 0 25.5 -22.5t11.5 -38.5q-4 -115 -4 -209q-2 -78 -2 -147.5v-75.5q0 -8 -16.5 -19.5t-38 -12.5t-37 6 t-15.5 32q0 20 -3 82.5t-3 133.5zM561 184q0 16 31 35q16 12 31 23q0 6 -5.5 10t-15.5 9t-17 11.5t-7 18.5q6 29 10 56.5t24 27.5q4 0 25.5 -8.5t41 -22.5t35 -39.5t9.5 -62.5q-4 -72 -45 -89.5t-66 -13.5q-51 10 -51 45zM645 1118q6 10 22.5 16t12.5 -6q-6 -8 -25.5 -14 t-9.5 4zM709 1081q0 -2 6 -2q6 -8 6 -10q0 -14 -6 0q-6 8 -6 12zM717 748.5q-2 44.5 2 64.5q0 16 1 51t1 74v94q0 -80 2 -145q0 -57 3 -107.5t3 -58.5v-135q0 -4 -3 -10.5t-3 -14.5v-10h-4v108q0 45 -2 89.5z" />
<glyph unicode="&#x22;" horiz-adv-x="915" d="M209 1124.5q0 36.5 27 53.5q25 12 55.5 18t42.5 -4q16 -12 18 -26.5t0 -26.5q-4 -16 10.5 -32.5t14.5 -31.5q0 -6 -6 -14t-12.5 -18.5t-11.5 -18.5t-5 -14l-8 -103l-8 -12t-9 -14q-6 -23 0.5 -36.5t4.5 -29.5q-2 -6 -15.5 -18.5t-30 -22.5t-32 -17t-21.5 -1q-6 4 -6 23.5 t1 44t3 50t2 41.5q0 35 -1 75t-9 69q-4 29 -4 65.5zM295 1231q2 -2 16.5 -1t31.5 -1t34.5 -9.5t25.5 -25.5q16 -35 23.5 -61.5t-14.5 -30.5q-6 -2 -10.5 10t-5.5 27.5t-2 30t-1 18.5q-4 4 -24.5 21.5t-34.5 17.5q-12 0 -29.5 4t-9.5 0zM381 799l22 319l15 -8q0 -2 -2 -7.5 t-4 -17.5q-4 -14 -9.5 -60t-9.5 -97q-6 -59 -12 -129zM506 1106q-2 14 0 29.5t10 27.5q16 18 35.5 31.5t38.5 9.5q23 -4 38 -17t17 -30q8 -12 15.5 -23.5t11.5 -0.5q2 4 6 17t3 28.5t-7 27t-25 13.5q-33 8 -57 8q-12 0 -21 -2q29 4 52 4q20 0 37.5 -2t21.5 -10 q4 -10 6 -22.5t4 -23.5q2 -12 2 -24q-4 2 -6 6q-6 6 -4 23q20 27 31 -7q4 -18 -8.5 -30.5t-22.5 -28.5q-4 -12 -20.5 -24.5t-26.5 -65.5q-8 -55 -6 -86t4 -60q0 -14 3 -34.5t0 -40t-14.5 -35.5t-37.5 -21q-29 -4 -38 14.5t-10 43t-2 48t-10 32.5l-10 129q10 27 4 51 q-4 6 -8 18.5t-6 26.5zM715 1169q6 -72 10 -133q4 -53 4 -100t-6 -64z" />
<glyph unicode="#" horiz-adv-x="1146" d="M287 492q10 27 23.5 28.5t31.5 -2.5t34.5 -5t35.5 1q8 2 13 29.5t7 60.5q2 37 2 86q2 2 2 8q0 10 -14 17q-18 8 -44 5t-34 7q-4 6 -10 15.5t-9 19.5t0 18t17 13q25 10 40.5 12t31.5 4q8 2 11 8t5 12q2 8 2 17q2 63 8 115q4 43 10.5 80.5t16.5 41.5q16 10 28.5 20.5 t28.5 -11.5q16 -23 27.5 -39.5t-4.5 -32.5q-8 -8 -11.5 -6t-3.5 4t-1 -1t-7 -18q-4 -16 -7 -47.5t-7 -60.5q-4 -37 -6 -74h71q8 0 19.5 -1t21.5 -3q12 -2 25 -4l14 12q6 35 13 64q4 25 8 49t6 35q2 10 2 24.5t2 26.5q0 14 2 29q2 14 8 26q4 10 13.5 18.5t23.5 4.5 q31 -4 35 -13.5t4 -27.5q0 -10 2 -12.5t4 -2.5t1 -1t-7 -13q-14 -20 -15 -29.5t-3 -21.5q-4 -16 -9.5 -48t-5.5 -46q0 -16 -4 -31.5t-4 -28.5v-14q18 2 33 2h24.5t20.5 -4q10 -6 17.5 -20.5t9.5 -26.5q4 -14 -0.5 -23.5t-16.5 -7.5q-8 2 -22.5 4t-30.5 6q-18 4 -39 6 q-4 -10 -6 -18q-4 -20 -4 -35q0 -8 -3 -35.5t-7 -56.5q-6 -37 -11 -78v-16l6 6q4 2 10.5 4t18.5 2h39t21 -12q10 -10 14 -37t-8 -33q-14 -4 -37 -7t-37 3q-6 2 -11 4l-10 4q-6 2 -8 4q-2 -39 -6 -69q-4 -29 -6 -52.5t-4 -29.5q-4 -14 -8 -43t-4 -39q0 -6 4 -17.5t3 -22.5 t-11.5 -21.5t-36.5 -14.5q-29 -4 -39.5 -1t-12.5 10.5t0 17.5t2 18q-4 16 6.5 32.5t14.5 33.5q6 16 2 46t6 48q4 10 7 24.5t5 28.5q2 16 2 35q-18 0 -38 2q-16 0 -35 1t-29 1h-49q-8 0 -6 -13t-2 -24q0 -6 -3 -25.5t-5 -42t-4.5 -42t-2.5 -23.5t1 -16.5t2.5 -26.5t0 -28.5 t-5.5 -22.5q-8 -14 -17 -21.5t-28 -1.5q-18 6 -30.5 20.5t-8.5 39.5q6 25 18.5 46t12.5 32v135q0 14 -24.5 16t-34.5 2t-32 15.5t-11 40.5zM299 668q10 2 20 2h17.5t17.5 -2q14 -6 19 -17q2 -6 2 -10q-4 -4 -15.5 -1t-25.5 9q-16 8 -35 19zM481 385l111 -6q-6 -4 -14 -8 q-13 -6 -27 -6t-41 10q-14 4 -29 10zM489 506q6 -4 15 -8q14 -6 41 -6t51 6q14 2 29 6q6 16 12 37q4 16 9 39.5t7 48.5v45t-2 31q-2 14 -2 24q-2 2 -10 4q-6 2 -18.5 4t-28.5 4t-30.5 -3t-26.5 -9q-14 -8 -27 -14q-4 -33 -8 -60q-4 -25 -6 -48t-2 -38q0 -16 -1.5 -27.5 t-1.5 -19.5v-16zM528 627q-2 10 0 20q0 10 2 21.5t7 21.5q6 16 17 10t24 -2l18 -6l-45 -24zM559 887q-6 20 0 53q4 16 9 31.5t10 27.5q6 14 12 29l-23 -164q-6 10 -8 23zM721 211v25.5t2 23.5t6 24.5t10 28.5q6 16 15 35q-2 -12 -4 -22t-3.5 -19.5t-1.5 -15.5 q0 -16 -6 -29.5t-6 -23.5q0 -4 -2 -12.5t-4 -18.5l-4 -25q-2 14 -2 29zM791 674h45q12 0 24 8q6 4 8 10q-4 -8 -10 -16q-12 -16 -22 -17q-14 0 -29 7z" />
<glyph unicode="$" horiz-adv-x="1249" d="M347 465q11 20 29.5 26.5t38 0t23.5 -14.5q18 -16 12 -36.5t7 -71.5q2 -18 21.5 -34t43 -24t42 -11t26.5 -3q14 0 9 5t7 11q10 0 22.5 -9t33.5 -7q25 0 64.5 18.5t68.5 61.5q10 23 8 45t-12.5 44.5t-22.5 39t-16 18.5q-10 6 -56.5 6t-142.5 23t-133 79t-41 150 q0 49 23.5 79t52 51.5t55.5 32.5t33 20q4 10 4 41.5t-4 58.5q-8 25 15.5 49.5t45.5 32.5q20 6 39 -17.5t19 -44.5q0 -10 -3.5 -29.5t-7.5 -40t-5 -33.5t3 -7q8 4 27.5 -6.5t45.5 -22.5t52.5 -27.5t42.5 -27.5t29.5 -34.5t20.5 -43t9.5 -39t-2.5 -24.5q-8 -6 -16 -7.5 t-18 -9.5q-12 -10 -15 -24q-6 -12 -8 -21q2 6 2 12v25q-2 16 -15 12t-24 4q-14 6 -14 17.5t-8 27.5q-6 18 -16.5 34t-39.5 32q-16 6 -42.5 10t-54 4t-51.5 -5t-34 -9q-20 -8 -48 -28.5t-28 -80.5q0 -29 24 -44t54.5 -25t57 -13.5t36.5 -7.5q25 -6 66 -20.5t51 -14.5 q10 -4 14.5 2.5t16.5 16.5q8 8 31.5 -15.5t56.5 -58.5q37 -33 33 -98.5t-25 -159.5q-10 -47 -39.5 -67.5t-59.5 -31.5t-55.5 -11t-27.5 -5q-16 -8 -12 -43q6 -23 5 -46t-48 -29q-25 -2 -39.5 17.5t-21.5 44t-8 48t-7 29.5q-2 10 -26.5 10t-45.5 15q-16 16 -61 57t-66 119 q-12 33 -1 53zM500 772q-4 8 13 23.5t9 7.5q-10 -20 13 -21q10 -2 20 0q-2 -2 -10 -8q-16 -8 -23 -12q-6 -12 -11 -4t-11 14zM594 342l10 10l4 -22zM684 63q8 10 21.5 38t17.5 38q0 10 5 15.5t24 13.5q20 12 59 27.5t84 64.5q23 29 32 65.5t15 73.5q6 39 6 86 q12 -47 -5 -128t-52 -115q-31 -35 -79 -55.5t-69 -30.5q-16 -12 -20 -28.5t-12 -33.5q-6 -16 -19.5 -29.5t-7.5 -1.5zM834 662q8 8 18 14q18 10 29 29q8 6 11 18t11 25q8 14 10 26q8 -27 -5 -48t-29 -38q-18 -12 -45 -26z" />
<glyph unicode="%" horiz-adv-x="1339" d="M185.5 980q9.5 54 30 86t40.5 48t35 23l10 4q27 14 117 14q0 12 6 12q6 2 18.5 -3t42.5 -56q18 -25 44 -98.5t26 -143.5v-6q-2 -59 -36 -112.5t-40 -61.5q0 -2 -4 -6q-4 -8 -51 -21.5t-96 -9.5q-43 8 -86 46t-54 139q-12 92 -2.5 146zM238 911q4 -72 27.5 -106.5 t31.5 -38.5q16 -8 18 -12h-2q2 -6 25.5 -20.5t54.5 -2.5q37 12 69 47t30 121q-6 86 -38 123t-65 47q-27 6 -39 3t-18 -11l-4 -2q-92 -70 -90 -148zM274 913q6 16 11.5 32t13.5 28q25 51 47 51q6 0 6 -2t-6 -8q-8 -6 -31.5 -31t-23.5 -84v-8q8 -63 37 -90q8 -8 13 -10.5 t11 -8.5q8 -2 10 -2v-2h-2v-6q-2 0 -10 6q-10 2 -14 6t-12 11q-16 10 -27 32q-35 33 -23 86zM336 76q-25 16 16 92q10 18 33 56t47.5 78t48 77t35.5 53q10 14 59.5 85t101.5 155t104.5 167t68.5 122q41 84 63.5 99t32.5 30q12 18 17.5 17t13.5 -9q12 -8 21.5 -34.5 t9.5 -49.5q0 -18 -50 -78q-6 -8 -41.5 -58.5t-85 -121t-107.5 -150.5t-108.5 -153.5t-87 -128t-49.5 -72.5q-18 -27 -39.5 -58.5t-43 -60.5t-39 -47t-21.5 -10zM438 1186v8q6 0 43 -5t76 -48q68 -72 59 -230q-8 -117 -33.5 -174t-52.5 -82q-29 -31 -51 -34t-24 -3h-11l11 7 q0 6 38.5 30.5t53.5 38.5l6 8q2 2 7 9.5t11.5 27t13.5 57.5t17 103q6 74 -16.5 128t-55.5 89q-39 39 -92 70zM496 168q-16 -2 26.5 65.5t104.5 151.5q70 96 161 221q-68 -121 -124 -213q-51 -84 -99.5 -151.5t-68.5 -73.5zM780 393.5q8 55.5 27.5 88t42 47t35.5 22.5l12 6 q14 8 43 12t74 -2q0 9 4 15q4 0 17.5 -3.5t43.5 -52.5q20 -25 45 -101.5t25 -139.5v-9q-2 -63 -36 -116.5t-38 -59.5l-6 -8q-2 -4 -50 -19.5t-97 -4.5q-41 8 -84 46t-56 134q-10 90 -2 145.5zM834 324q2 -72 25.5 -105t31.5 -35q16 -8 20 -18l-4 2q4 -2 27.5 -16.5 t54.5 -4.5q33 12 65.5 45t28.5 125q-4 82 -35.5 120t-64.5 48q-25 8 -38 4t-21 -10l-2 -4q-94 -68 -88 -151zM868 326q12 43 25 59q14 31 26.5 43t20.5 14l6 -2v-6v-2q-2 -4 -6 -4q-8 -8 -31.5 -32.5t-23.5 -78.5v-10q6 -61 37 -92q10 -10 24 -16q8 -6 12 -6v-3l-4 3v-7 q-2 0 -10 4q-14 8 -24 19q-8 6 -15.5 13t-13.5 18q-33 37 -23 86zM1032 598v8q6 2 44 -5t77 -48q63 -68 57 -229q-8 -115 -32.5 -171.5t-53.5 -82.5q-31 -27 -51 -31t-24 -4h-11l11 8q20 14 38 27q18 12 33 23t21 20l6 2q2 2 8 12t11 29.5t12.5 57.5t17.5 103 q6 70 -17.5 123.5t-54.5 87.5q-41 39 -92 70z" />
<glyph unicode="&#x26;" horiz-adv-x="1169" d="M267 387q3 39 12.5 75t19.5 60q0 10 1 13.5t1 9.5q4 14 21.5 32.5t41 35t46 31.5t34.5 24l19 24l-4 6q-10 14 -21 27q-10 10 -19 23.5t-18 27.5q-16 25 -25 82t1 107q8 45 47 77.5t100 49.5q18 4 37 8t37 4q37 0 63.5 -21.5t38.5 -31.5q14 -6 29.5 -25.5t28 -48.5 t19.5 -62.5t5 -70.5t-25.5 -69t-50 -56.5t-48 -39.5t-21.5 -17l-10 -3l2 -8q0 -2 8 -19.5t19.5 -39t24.5 -43t26 -31.5q10 -8 21 -21.5t21.5 -25.5t17.5 -20.5t9 -8.5l10 -10l48 72q0 2 4 13t4 30q0 12 2 18t18 31q12 16 25 16q10 0 18 -2t19 -10q4 -4 7 -8t5 -10 q4 -20 -2 -45t-15.5 -47.5t-19.5 -39t-16 -22.5q-4 -8 -10.5 -18.5t-10.5 -20.5l-12 -24l-2 -3v-2q0 -4 6 -23.5t16 -29.5h2q10 -8 23.5 -21.5t30.5 -43.5q31 -53 -35 -88q-6 0 -9 -2t-10 -2q-10 0 -18 13t-12 27v5q-2 4 -8.5 16t-13.5 25.5t-13 25.5t-8 17l-8 12l-9 -8 q-4 0 -29.5 -18.5t-43.5 -41.5q-16 -23 -46 -37t-90 -28q-34 -13 -63 -13q-39 0 -91 16.5t-108 76.5q-29 31 -38 70.5t-6 78.5zM359 441.5q1 -29.5 6 -52.5q4 -18 12 -44t25.5 -49.5t44 -38.5t69.5 -15h15.5t17.5 4q47 6 75.5 18t46 25.5t23.5 27t6 23.5q4 16 -2 47t-24 62 q-4 6 -11.5 20t-7.5 18q-2 2 -17 30t-34.5 59.5t-41 57t-36.5 25.5l-45 23q-4 0 -18 -13.5t-31.5 -29.5t-33 -33.5t-21.5 -23.5q-8 -8 -12.5 -31t-5.5 -51.5t0 -58zM420 102q4 -2 12 -4q6 -2 16.5 -3t24.5 -5q14 -2 42 1t59.5 8t59.5 11.5t42 10.5q-31 -14 -58 -25 q-23 -10 -45 -18t-32 -10q-10 0 -29.5 5t-40.5 11q-23 8 -51 18zM428 420q0 2 1 2t3 2t2 12q0 27 6 67t17 60q12 18 35 10q10 -4 24 -10q0 -4 -6 -15t-14.5 -25.5t-17.5 -27t-15 -16.5q-10 -10 -12 -25.5t-2 -35.5q0 -23 -2.5 -25t-12.5 17q-6 8 -6 10zM434 332 q12 -6 23 -13q10 -4 18 -8t12 -4q8 -4 11 -8l4 -8h-25q-8 0 -22.5 15.5t-20.5 25.5zM463 891q0 -20 6 -37.5t20 -46.5q8 -12 21.5 -26.5t26 -27t21.5 -20.5l9 -8l6 -6l9 6q31 14 55 31q23 14 43 31.5t31 35.5q12 20 17 49t4 57.5t-9 52.5t-23 34q-10 6 -33.5 8t-48 1t-45 -3 t-22.5 -2q-18 0 -40 -11.5t-32 -31.5q-6 -23 -11 -44.5t-5 -41.5zM508.5 854q-12.5 39 3.5 70q8 16 18.5 27.5t20.5 17.5q10 8 20 12q6 -12 -10 -27.5t-35 -44.5q-10 -12 -8 -34.5t10 -45.5q8 -25 23 -53l-16 23q-14 16 -26.5 55zM686 641q4 -4 12 -10q4 -6 11.5 -14.5 t13.5 -20.5l6 -12t6 -10.5t10.5 -17.5t16.5 -34l-25 37q-10 14 -17 27.5t-11 17.5t-7.5 10.5t-7.5 12.5q-4 8 -8 14q16 16 33 31q14 12 26.5 24.5l22.5 22.5q18 23 21.5 32t9.5 33q4 25 6 35q2 8 4 10q0 -6 2 -12q4 -12 4 -20q0 -4 -5 -18.5t-11 -30t-13.5 -29.5t-13.5 -21 q-6 -6 -19.5 -14t-27.5 -17.5t-25.5 -16.5t-13.5 -9zM745 1098q6 0 15 -4q14 -6 31 -27q14 -23 26 -37q8 -8 14 -18l7 -94q-2 -2 -7 2q-8 8 -8 34q-2 16 -14 41t-27 47q-17 27 -37 56z" />
<glyph unicode="'" horiz-adv-x="573" d="M196 1133.5q1 15.5 9 25.5q16 18 37.5 32.5t40.5 12.5q18 -6 33.5 -20.5t19.5 -26.5q6 -12 14 -24.5t10 -2.5q2 4 6.5 17.5t3.5 28t-7.5 26.5t-24.5 17q-16 4 -30.5 4h-24.5q-12 0 -23 -2q29 2 51 4q20 0 39 -1t23 -10q4 -10 5 -22t3 -23q2 -12 2 -24q-4 0 -6 4l-4 8 t2 12q8 16 16 16.5t15 -18.5q2 -18 -10.5 -30.5t-20.5 -26.5q-2 -6 -8.5 -12t-13.5 -15.5t-14 -24t-9 -40.5q-8 -55 -8 -86t2 -60q2 -14 5 -34.5t0 -41t-15.5 -36t-39.5 -19.5t-36 14.5t-11 43t-2 48t-10 32.5l-10 131q6 12 7 25.5t-1 23.5q-4 6 -8 18.5t-6 26.5t-1 29.5z M406 1167q6 -72 10 -133q4 -53 4 -102t-4 -66z" />
<glyph unicode="(" horiz-adv-x="755" d="M238 408q-20 225 5 356t68 202.5t87 97.5t67 42q25 16 72 21.5t86 9.5q12 -4 20 -13q14 -12 16 -39q2 -35 -2 -47t-12 -18q-10 -8 -18 -6q-51 14 -79 -0.5t-46 -26.5q-6 -8 -42 -38.5t-77 -81t-69.5 -123t-22.5 -158.5q2 -94 21.5 -163t42 -116t43 -70.5t28.5 -25.5 q29 -20 33 -33q0 -4 14 -17.5t34.5 -26.5t48 -22.5t62.5 -7.5q4 8 17 7q23 -8 24 -48q0 -39 -14 -55q-8 -6 -18 -6q-53 -8 -115.5 3t-120 54t-97.5 126t-56 223zM362 608q16 102 42 168t49.5 101.5t41 44t21.5 6.5q0 -2 -21.5 -21.5t-49 -64.5t-48 -116t-18.5 -177 q2 -111 27.5 -176.5t56.5 -100.5q35 -39 78 -61q-68 39 -111 96q-39 51 -65 125t-3 176z" />
<glyph unicode=")" horiz-adv-x="780" d="M94 1061q0 25 9.5 44t25.5 19q20 0 49 -1t29 1q-18 43 16.5 18.5t83.5 -73.5q104 -109 164 -340q18 -57 18 -130t-11 -149.5t-34.5 -152.5t-50.5 -137q-27 -72 -88 -115t-145 -49q-10 -4 -19 2q-6 8 -10 16.5t-4 38.5q-2 45 20 68q8 10 19 14q47 0 90 41t77 103.5 t50 140.5t16 151q0 63 -15 139t-47 136.5t-76 101.5t-97 49q-8 2 -15.5 1t-19.5 -1q-8 0 -23.5 17.5t-11.5 46.5zM147 -88q41 12 80 33q37 18 80 48t86 77q86 96 111.5 182t40.5 188q8 55 4 121t-12.5 134.5t-23.5 131t-30 111.5q-16 47 -57 94t-81 81t-74.5 57.5 t-43.5 23.5q-6 2 -21.5 7t-23.5 13q-16 4 -30 13q31 0 61 -10q59 -21 147 -87q45 -37 81 -96t61.5 -123.5t39 -123t15.5 -82.5q6 -27 8 -90.5t-7 -143.5t-26.5 -165t-52.5 -152q-35 -72 -90 -117t-113 -74q-63 -31 -129 -51z" />
<glyph unicode="*" horiz-adv-x="1079" d="M213 829q6 8 14.5 16.5t1.5 16.5q-8 6 1.5 4t27.5 8h32.5t55.5 1.5t57.5 5.5t36.5 12q4 -2 23 -2v100q0 10 -11.5 39t-2.5 64q6 27 29.5 37t43.5 10q39 -8 47 -60q2 -25 -3 -32t-5 -23v-111q12 14 27 37q6 10 10 21q8 8 18.5 36.5t38.5 41.5q29 20 53.5 5.5t41.5 -32.5 q12 -14 13 -36.5t-13 -39.5q-16 -23 -25.5 -23.5t-19.5 -11.5l-136 -75q2 0 9 -9q4 -4 4 -8q4 0 31.5 9.5t59.5 16.5t64.5 12t48.5 3q55 -18 54 -55q-4 -20 -19.5 -37.5t-34.5 -26.5q-25 -8 -35 0.5t-24 8.5h-135q16 -12 30.5 -22.5t30.5 -20.5q18 -16 40 -20.5t24 -18.5 q0 8 8 22q2 6 6 13q18 -8 20.5 -27t-6.5 -35q-6 -23 -18 -47q-8 4 -10 16q-8 23 -8 37q-14 -31 -34 -29.5t-42.5 20.5t-41 50t-30.5 55l-4 -22q-6 -14 -3 -37.5t5 -48.5t2 -44.5v-25.5q-4 -6 -20 -20q6 -18 3 -29.5t-22 -11.5q-20 0 -43 22q-2 -6 -9 -10t-9 12q0 6 1 30 t2 53.5t5 57t4 50.5q-10 -12 -24.5 -35.5t-28.5 -44t-25.5 -37t-15.5 -16.5h-33q-8 -14 -18.5 -20.5t-26.5 10.5q-16 18 -16 45q-6 0 -15.5 4t0.5 22q6 4 25.5 18.5t46.5 33t54.5 38t41.5 31.5q-20 0 -44.5 -2t-51.5 -6t-49.5 -6t-24.5 -2q-10 6 -22 24q-6 8 -6 15 q-8 4 -17 12q-10 10 -10 24zM309 991q-16 33 31 68q14 -33 29 -51q10 -23 17 -39.5t1 -16.5q-10 0 -35.5 9.5t-42.5 29.5zM367 1059q10 -8 20 -21q19 -27 19 -47q-4 -20 -19 17q-8 12 -12 39zM762 893q4 8 12 8q14 0 29 -24z" />
<glyph unicode="+" horiz-adv-x="1243" d="M283 467q-8 20 11 42.5t50 31.5q27 8 52.5 2t35.5 -6q2 0 33 -4.5t76 -10.5v62q2 27 -3.5 45t-9.5 34.5t-10 32t-6 45.5q4 27 36 45.5t64 10.5q39 -6 53.5 -34t14.5 -44q0 -20 -7 -32.5t-7 -27.5q0 -2 -18.5 -44t-18.5 -62q0 -16 11 -21.5t17 -19.5q10 0 22.5 -3t20.5 -3 q12 0 44 13t40 18q31 6 61.5 17t55.5 11q31 0 46.5 -31.5t8.5 -68.5q-8 -33 -32.5 -47.5t-40.5 -14.5q-20 0 -32.5 7.5t-27.5 7.5h-54t-107 2q-4 -78 -6.5 -138.5t-2.5 -64.5q0 -10 2 -47t-43 -45q-39 -10 -63.5 13.5t-32.5 54.5q-8 29 8.5 49t16.5 30v154q-63 0 -112.5 1 t-57.5 1q-6 0 -39 -1t-49 40zM418 379h22h52q-4 -8 -19.5 -10t-28 0t-20.5 6t-6 4zM707 356h20q8 0 17.5 1t23.5 1q31 0 44 -1t24 -1q2 0 -16.5 -1t-42 -3t-44 -2t-26.5 6zM985 440v78q8 -6 5 -18.5t-3 -28.5q-2 -14 -2 -31z" />
<glyph unicode="," horiz-adv-x="1236" d="M536 94.5q3 16.5 11 28.5q2 10 12 20.5t10 20.5q0 16 -6 26.5t-6 28.5q0 16 12.5 23.5t16.5 23.5q2 14 -1 35t3 41q6 16 18 16h41q31 0 50.5 -37.5t19.5 -64.5l-15 -59q-8 -25 -15 -47.5t-11 -32.5q-20 -20 -49 -44t-45 -26q-18 -6 -26.5 5t-16.5 20q-6 6 -3 22.5z M547 283v34q0 12 14 27q8 8 12 8q-2 -10 -3 -22.5t-9 -26.5q-10 -16 -12 -33q-2 2 -2 13zM688 72l12 12q14 12 31 49q10 16 16.5 46t8.5 54q6 29 6 62q12 -45 3 -84t-26 -72q-20 -39 -51 -67z" />
<glyph unicode="-" horiz-adv-x="1249" d="M342 620.5q-2 8.5 16 14.5q16 6 74.5 6t85.5 -6q10 -6 45 -3t76 3h98q8 0 37 13.5t57 2.5q31 -10 42.5 -45t5.5 -57q-2 -23 -14.5 -42.5t-39.5 -21.5q-25 -8 -34 -0.5t-23 7.5h-270q-25 0 -61 -2.5t-48 6.5q-16 6 -18 20q-8 8 -9 19l13 6q14 8 14 20q6 10 -12.5 23.5 t-26.5 19.5q-6 8 -8 16.5z" />
<glyph unicode="." horiz-adv-x="1239" d="M516 324q0 14 16 36q5 11 15 17q-12 -14 -6 -57.5t-4 -59.5q-2 -12 -11 -29q-2 -4 -2 -8v53q0 8 -4 18.5t-4 29.5zM543 213q0 16 30 35l37 20q0 8 -8 12.5t-18.5 7.5t-17.5 8t-7 19q4 31 9 57.5t26 26.5q4 0 26.5 -7t42 -21.5t36 -40t14.5 -62.5q-8 -76 -48 -91t-69 -11 q-53 10 -53 47z" />
<glyph unicode="/" horiz-adv-x="1251" d="M341 107.5q9 21.5 28 60.5q8 18 30.5 56t47 78t48 77t35.5 53q10 14 59.5 85t104 155t103.5 167t69 122q39 84 63.5 98t37.5 33q10 16 16 15t10 -9q8 -12 21.5 -36.5t13.5 -47.5q0 -16 -57 -78q-4 -10 -41 -60.5t-85 -121t-106.5 -149.5t-108.5 -152.5t-87 -128 t-49 -72.5q-18 -27 -40 -58.5t-41.5 -60.5t-37 -47t-25.5 -10q-18 10 -9 31.5zM515 178.5q7 16.5 27.5 47t47 69.5t53.5 84q70 96 164 227q-72 -113 -133 -209q-49 -80 -96.5 -149.5t-61.5 -79.5q-8 -6 -1 10.5z" />
<glyph unicode="0" horiz-adv-x="1245" d="M248 459q-23 190 1.5 305t66.5 178.5t85 86t66 32.5q23 12 58.5 17t73.5 7t67.5 2h33.5q12 0 8.5 11.5t6.5 13.5q12 8 42.5 -23.5t59.5 -82.5q14 -27 40 -80.5t47.5 -124t36.5 -144t13 -139.5q-2 -63 -25.5 -124.5t-54.5 -112.5q-31 -57 -73 -109l-4 -18q-4 -4 -40 -17.5 t-94.5 -24t-125 -4t-126 41t-105.5 108.5t-58 201zM291 608q6 -76 25.5 -135t43 -99t42 -60.5t26.5 -26.5q31 -10 37 -25q0 -4 15.5 -17.5t40 -27.5t59 -18t71.5 10t77 34.5t74 65.5t55 113t17 166q0 106 -25.5 177t-61 116t-74.5 67.5t-72 30.5q-53 18 -84 6t-51 -27 q-10 -8 -46 -32.5t-75 -67.5t-67.5 -107.5t-26.5 -142.5zM375 641q18 90 42.5 149.5t45 90t38 39t19.5 6.5q0 -2 -20.5 -20.5t-46 -56.5t-45 -101.5t-15.5 -159.5q2 -94 25.5 -154.5t52.5 -91.5q33 -41 74 -55q-61 37 -103 86q-39 45 -61 111.5t-6 156.5zM653 1169 q115 -2 205 -59q72 -51 131.5 -165t48.5 -327q-14 -213 -71.5 -327.5t-118.5 -165.5q-72 -61 -160 -70q49 31 88 56q37 23 70 44t51 40q12 14 25.5 25t27 46t29.5 113t39 219q23 143 -31.5 251.5t-126.5 182.5q-86 80 -207 137z" />
<glyph unicode="1" horiz-adv-x="1249" d="M430 815q23 25 35 47q14 16 26.5 36t22.5 32q2 10 24.5 39.5t45 61.5t46 55.5t34.5 23.5q16 0 26 2t21 14q6 14 6 27v12l-25 19q14 -8 31 -21q27 -23 39 -41q10 -27 -7.5 -11.5t-27.5 13.5q-4 0 -8 -4t-12 -6q-6 -4 -11 -10q4 -8 11 -25q4 -8 7 -24.5t3 -30.5t-1 -57 t-3 -92.5t-4 -91.5t-2 -52q0 -12 -2.5 -78.5t-2.5 -143.5v-144.5v-79.5q0 -10 7.5 -40t11.5 -60.5t-3 -54.5t-32 -24q-51 -2 -60.5 27t-11.5 53q0 12 2 57.5t8.5 100.5t10.5 111.5t4 91.5q0 37 -4 97.5t-10.5 120.5t-10.5 105t-8 45q-31 8 -53 -22q-8 -12 -26.5 -44 t-32.5 -38q-16 -8 -39 0q-14 0 -25 4zM776 1087q2 -2 2 -8q0 -14 6 -24q0 -2 1 -66.5t1 -163v-206t-1 -201.5t-1 -160v-65z" />
<glyph unicode="2" horiz-adv-x="1259" d="M311 827.5q0 32.5 8.5 71.5t38.5 84q29 39 65 62.5t69.5 35t59.5 14.5t36 3q8 0 31.5 -3t50.5 -12q27 -8 57 -14l-8 33q45 -31 86 -58q31 -27 61.5 -51t38.5 -45q6 -16 10.5 -54t3.5 -78t-9.5 -74.5t-16.5 -51.5q-12 -18 -52 -42.5t-86 -52.5t-88 -53.5t-57 -39.5 q-20 -14 -47.5 -46t-58.5 -70t-53.5 -70.5t-24.5 -47.5q-8 -31 -9 -43t17 -18q16 -4 35.5 2t34.5 8q20 6 36.5 1t41.5 -5q8 0 45 -3t79 -6t74.5 -3t44.5 2q18 10 59.5 31.5t73.5 9.5q35 -14 50.5 -51t9.5 -56q-12 -20 -47 -43.5t-51 -23.5q-18 0 -38 10t-38 10 q-10 0 -71.5 2t-134.5 6t-135.5 9.5t-76.5 5.5q-53 8 -76 18q-8 0 -11 34t-3 76t9 89t30 76q43 61 89 104t99 74q25 14 75 38.5t97 56.5t77 68.5t13 73.5q-29 72 -70.5 115t-133.5 39q-96 -4 -149.5 -47t-59.5 -58q-8 -23 -9 -24q-2 -8 -2 -12q8 10 15 12q18 6 18 -12 q-6 -20 -12.5 -41t-24.5 -31q-39 -16 -63 -10q-8 4 -15.5 23.5t-7.5 52zM365 690l8 17q6 8 16 16q8 8 17.5 9t17.5 1q4 4 14.5 20.5t16.5 30.5q0 2 2 2t2 7l4 2l-4 -2q0 16 4 30q8 33 16 62q10 25 53 33q16 4 39 4q-8 0 -20 -4q-18 -8 -49 -35q-31 -37 -34 -75t-19 -60 q-8 -14 -20.5 -23.5t-27.5 -15.5q-14 -10 -36 -19zM485 291q-8 0 4 26q8 18 38 43t65 50.5t65.5 45t42.5 23.5q10 8 37 21.5t57.5 30t60.5 35t46 28.5q18 8 30.5 42t24.5 71q15 39 23 88q-6 -33 -12 -62q-8 -25 -10.5 -49.5t-12.5 -36.5q-12 -23 -37.5 -49.5t-56.5 -44.5 q-14 -6 -51 -29.5t-79 -50.5t-77 -50.5t-47 -31.5q-31 -23 -47 -39q-14 -14 -23 -26l101 -21h-27h-26.5t-22.5 4q-18 0 -41 -8q-12 -2 -21 -8q-2 -2 -4 -2zM934 51q8 -6 14 0q8 0 31 12l27 15q6 4 14 4q-2 -23 -41 -29q-20 -2 -45 -2z" />
<glyph unicode="3" horiz-adv-x="1232" d="M267 363.5q-1 29.5 1 49t19 19.5q29 0 41 -16.5t28 -32.5q20 -20 21.5 -27.5t1.5 -25.5v-34t22.5 -41t76.5 -36.5t157 -17.5q106 0 150 36.5t54.5 80.5t-2 86t-18.5 53q-14 25 -41.5 49t-68.5 33q-39 4 -83 14t-55 16q-2 4 -8 16.5t-8 31t-2 35t4 22.5q14 25 16 24 q6 6 13 7q14 -12 30 -23q14 -8 27.5 -17.5t34.5 -5.5q35 0 88 42t53 124q0 39 -34.5 74t-86 54.5t-103.5 25.5t-81 -8q-61 -31 -92 -60t-37 -47t-17.5 -45.5t-37.5 -34.5q-16 -2 -31.5 14.5t-1.5 69.5q8 25 31.5 65t62.5 77t97.5 61.5t129.5 24.5q76 0 130.5 -36t89 -79 t52 -85t17.5 -54q4 -20 -6 -76.5t-27 -81.5q-18 -25 -39.5 -55.5t-21.5 -38.5q0 -2 19.5 -17.5t42 -43t42 -73.5t19.5 -102q0 -61 -27.5 -110t-70.5 -85t-100.5 -56.5t-121.5 -20.5q-68 0 -123 17.5t-98 46t-70.5 59.5t-33.5 51q-12 20 -17.5 49t-6.5 58.5zM338 731 q0 12 19.5 17.5t43.5 21.5q25 20 29 45t25 53q18 31 67 35q21 6 41 6q-37 -6 -56.5 -16t-31.5 -25.5t-20.5 -35t-20.5 -41.5q-25 -43 -63.5 -55.5t-32.5 -4.5zM352 465q4 0 13 -4q14 -6 26 -15q14 -12 23.5 -42.5t15.5 -43.5q8 -14 19.5 -13t15.5 -13l8 -12l12 -23 q0 -12 -10 -2t-26 25q-18 12 -30.5 41.5t-19.5 46.5q-8 8 -15 16t-15 16q-12 12 -17 23zM758 66q8 2 22 10l35 15t57 26q31 20 53.5 52t35.5 69q14 39 26 92q8 -23 2 -47q-2 -23 -13 -55.5t-40 -67.5q-29 -43 -61.5 -60.5t-57.5 -23.5q-35 -10 -59 -10zM907 625 q-4 10 7.5 38.5t23.5 57.5q14 35 39 74q-2 -16 -4 -31q-4 -16 -6 -29.5t-9 -25.5q-8 -14 -16 -26.5t-16 -27.5q-13 -12 -19 -30z" />
<glyph unicode="4" horiz-adv-x="1239" d="M240 299l10 10q8 8 15 49t14 60q8 16 17 40.5t23 57.5q6 14 53.5 71.5t99.5 121t97 118t47 64.5q6 12 15.5 32.5t24 47t22.5 46t10 30.5q8 16 38 33.5t36 25.5q4 2 4 8t4 10q0 8 2 15v-9q0 -16 8 -18q6 -12 21.5 -20t25.5 -33q-4 -23 -4 -37q-4 -14 -4 -29.5t-8 -25.5 q-6 -10 -8 -54.5t-2 -95.5v-98t4 -70t4 -60.5v-77.5v-71.5t2 -40.5q6 -14 21.5 4.5t39.5 30.5q25 18 31 22.5t25 12.5q14 2 46 -34t32 -64q0 -47 -39 -72q-33 -25 -72 -14q-16 8 -44 20t-42 8q-14 -6 -2 -59t20 -88q6 -31 -2 -42t-28 -30q-16 -14 -23.5 -14t-38.5 10 q-12 4 -16 37t-4 71t4 69.5t4 33.5q0 20 -27 37q-10 8 -32.5 -11.5t-38.5 -25.5q-8 -2 -69.5 -2h-133.5h-182zM369 416q4 -6 2 -11.5t1 -8.5t14 -3t42 2q55 10 106.5 10.5t71.5 -6.5q23 0 37 -7t33 -13q18 -8 32.5 -9t16.5 15q0 10 3 83t3 157t-4 155.5t-16 83.5 q-8 2 -21.5 -11t-31 -35.5t-33 -45t-23.5 -31.5q-4 -10 -26.5 -39.5t-46 -60.5t-49 -57.5t-36.5 -40.5q-25 -27 -54.5 -72t-20.5 -55zM459 471q0 8 20.5 26.5t40.5 41.5q25 24 58 49q-23 -14 -35 -33q-14 -16 -26.5 -33.5t-22.5 -25.5q-4 -8 9 -10.5t36 -2.5q25 0 59 4 q-8 -4 -20 -4h-35q-18 0 -53 -11t-31 -1z" />
<glyph unicode="5" horiz-adv-x="1239" d="M237.5 355.5q-4.5 19.5 8.5 27.5q12 10 30.5 3t32.5 -26q18 -23 28.5 -45t18.5 -41q2 -8 24.5 -18t49.5 -21.5t54.5 -20.5t37.5 -9q14 0 59.5 4t93.5 27.5t88 71.5t40 136q0 86 -37 130t-90 63.5t-101.5 19.5t-68.5 -4q-39 -6 -95.5 -16t-64.5 8q-6 12 1 27.5t7 36.5 q0 10 -3 60t-3 111.5t-1 117t-1 75.5q0 35 1 42t18 7q16 0 51 -1t59 -1q14 0 45 1t67 2t66.5 4t44.5 6q31 6 43.5 17t40.5 11q27 0 49.5 -33.5t22.5 -64.5l-8 -35q-14 -37 -25 -39q-18 -8 -73.5 0t-85.5 8q-16 0 -56.5 1t-82.5 1t-77.5 -1t-39.5 -7q-10 -6 -5 -6t5 -29 q0 -14 -1.5 -44.5t-1.5 -64.5t1.5 -62.5t9.5 -41.5q6 -10 17 -6t23.5 14.5t31 22.5t36.5 21q39 10 84 5t123 -44q74 -39 124 -126t50 -177q0 -53 -24.5 -111.5t-71.5 -112t-111.5 -89.5t-144.5 -36t-133 29t-88 67t-53.5 69.5t-26.5 43.5q-8 23 -12.5 42.5zM342 434 q-8 10 30 -16.5t60 -55.5q10 -8 26.5 -13t30 -8t19.5 -3t-2 -2q-31 -6 -59.5 6t-51 32.5t-36 39t-17.5 20.5zM432 569q-6 0 9.5 5.5t38 11.5t40 11t21.5 5q2 -2 -10.5 -8t-34 -10t-41 -9.5t-23.5 -5.5zM471 863.5q0 15.5 4 31.5q0 18 4 43q2 -27 14.5 -30t42 -4t81 -11 t128.5 -49q80 -39 123 -94.5t64 -104.5q27 -59 31 -127l-23 90q-12 31 -36.5 67t-59.5 69.5t-73 59t-71 40.5q-31 14 -70.5 14t-71.5 -1t-55.5 -7t-27.5 -2q-4 0 -4 15.5zM676 88q37 16 78 41q31 23 69.5 49.5t65.5 61.5q29 35 47 74.5t27 76.5q10 39 4 86 q-4 -139 -53.5 -216t-98.5 -118q-68 -41 -139 -55z" />
<glyph unicode="6" horiz-adv-x="1218" d="M243 659.5q5 96.5 21 157.5q37 121 134.5 213t224.5 92q66 0 120 -23.5t95 -53t66.5 -55t29.5 -34.5q12 -14 11.5 -57t-27.5 -55q-43 -23 -89 8q-31 16 -60.5 64.5t-84.5 64.5q-61 23 -124.5 -7t-125.5 -63q-31 -20 -48 -55t-31.5 -70.5t-18.5 -63.5t-10 -28 q-4 -6 -10.5 11.5t-20.5 -5.5q-10 -20 2 -53t35 -37q8 0 26.5 12.5t36 31t32.5 35t19 20.5q8 8 17.5 4t40.5 -8q29 0 69.5 2t55.5 10q20 6 57 -1t131 -69q45 -33 68.5 -78t32 -98t0 -105.5t-22.5 -95.5q-12 -43 -54 -85t-101.5 -66.5t-135.5 -24.5t-158 43q-84 43 -130 131 t-62 191.5t-11 200zM352 430q4 -31 16.5 -65.5t63.5 -65.5q49 -33 84 -58.5t107 -29.5q37 -6 75.5 10.5t70.5 46t54.5 66.5t20.5 82q-8 80 -62.5 126t-144.5 54q-172 12 -227 -72q-16 -23 -26.5 -41t-14.5 -28q-12 -14 -17 -25zM387 733q-10 0 0 37q6 10 13.5 28.5t18.5 38 t24.5 36t25.5 16.5q10 0 7 -7.5t-10 -20.5t-13.5 -26.5t-10.5 -15.5q0 -6 23.5 -6t57.5 3t74 4t69 -1q31 -2 67.5 -21.5t67.5 -47.5q43 -27 78 -64q-23 18 -48 37q-23 18 -54.5 32.5t-71.5 30.5q-39 16 -82 17.5t-80 -6.5q-39 -6 -84 -17l6 15l-35 -29q-18 -10 -27.5 -21.5 t-15.5 -11.5zM399 406q0 10 9 24q2 4 2 10q-6 4 -7 13q0 4 7 14.5t32 26.5q47 37 61.5 37.5t31.5 7.5q6 0 -9.5 -13.5t-35 -34t-36 -39t-16.5 -26.5q-4 -18 0 -22.5t17 -10.5q2 -8 16 -20.5t33 -26.5q16 -14 39 -37q-39 23 -72 39q-29 20 -52.5 33.5t-19.5 24.5zM557 926 q8 4 18 10q14 2 37 -10h-55zM688 57q61 23 113 56q47 29 90 64.5t63 84.5q33 100 37 153.5t-12 86.5q-14 29 -27 63q-8 14 -18 31q35 -41 53 -92q16 -43 16.5 -104.5t-32.5 -129.5q-37 -72 -82 -113.5t-92 -62.5q-57 -27 -109 -37zM715 1171q35 -2 69 -16q29 -16 65 -38.5 t73 -74.5q4 -6 -11.5 6.5t-36 32t-48 39t-44.5 27.5q-20 8 -32.5 14t-18.5 8q-10 2 -16 2z" />
<glyph unicode="7" horiz-adv-x="1251" d="M301 1038q-6 8 1 20.5t7 26.5q0 18 -4 26.5t-4 23.5q0 14 5.5 19.5l19.5 19.5q49 -2 92 -3q35 -4 71.5 -4h53.5q18 0 62 -1t91 -1h86t47 2q14 6 37 16.5t31 18.5q16 4 25.5 -7t29.5 -28q8 -10 11.5 -32.5t4.5 -47t1 -46v-29.5q0 -16 -8.5 -25.5t-77.5 -60.5 q-31 -25 -70 -69t-70.5 -96t-61.5 -102.5t-44 -83.5q-16 -37 -21.5 -92t-8.5 -109.5t1 -97.5t4 -55q2 -25 -6 -34t-37 -21q-27 -6 -35 -3t-28 34q-14 29 5 64.5t26 43.5q0 23 -19 23q-12 0 -6 7t8 23q0 10 8.5 47t20.5 89.5t29.5 108.5t42.5 112q20 53 56 97t69.5 81 t57 65.5t23.5 49.5q2 39 -25.5 51t-51.5 12q-20 -4 -31.5 -13t-42.5 -11q-12 0 -72.5 -4.5t-127 -6.5t-121 -2t-54.5 4zM688 459q0 -6 7 17.5t17.5 61t29 81t40.5 86.5q23 35 59 79.5t71.5 84.5t64.5 68t33 36q4 6 5 21.5t7 29.5l4 35q4 -20 0 -39q-2 -18 -7 -36.5 t-26 -35.5q-86 -76 -144 -159.5t-93 -155.5t-51.5 -121t-16.5 -53z" />
<glyph unicode="8" horiz-adv-x="1216" d="M295 377q0 88 18.5 135t40 68.5t43 29.5t21.5 25q0 16 -18.5 26.5t-39 28t-36 54t-13.5 110.5q4 76 34 127t75 83t90 44t88 12q35 0 92.5 -12t111.5 -42t91 -73t37 -106q0 -59 -13.5 -102.5t-30 -72t-30.5 -46t-14 -31.5t19.5 -31.5t42 -48.5t42 -73t19.5 -105 q0 -61 -26 -112.5t-67 -87.5t-94 -55.5t-102 -19.5q-53 0 -118.5 9.5t-124 38t-97.5 82t-41 145.5zM375 426q8 -94 86 -156.5t201 -56.5q61 0 102 20.5t64.5 47t33.5 56.5t10 50v14q0 31 -18 62t-38.5 58.5t-40 44t-27.5 20.5q-14 4 -25.5 2t-34.5 -10q-20 -6 -59 -6.5 t-64 1.5q-23 4 -48 4.5t-38 -4.5q-10 0 -26.5 -5t-36 -21.5t-31.5 -45t-10 -75.5zM395 852q0 -37 17.5 -64.5t43 -46t54.5 -27.5t45 -16q43 -10 109.5 -13t107.5 13q23 12 37 25q14 18 24.5 43t10.5 63q0 39 -23.5 68t-53.5 48.5t-64.5 29.5t-61.5 10q-18 0 -62 -7 t-83 -23.5t-70 -42t-31 -60.5zM432 448.5q2 30.5 37 67.5q0 -25 -2 -51q-2 -20 -5 -42t3 -36q2 -20 16 -35q9 -8 11 -16q-33 31 -48 57q-14 25 -12 55.5zM442 840q0 23 20.5 41t45.5 32q31 12 70 27q-33 -16 -58 -31q-20 -16 -36.5 -34.5t-14.5 -30.5q4 -14 24.5 -26.5 t44 -24t43 -18.5t25.5 -15q6 -6 -22.5 -3t-60 14t-56.5 28.5t-25 40.5zM506 315q2 -4 14 -4q8 -4 15.5 -4t15.5 -8q10 -8 14 -16q2 -9 2 -11q-6 -4 -37 19q-14 8 -24 24zM688 55q61 8 117 25q47 20 93 52t77 93q25 57 33 120t3 122t-30 108.5t-68 73.5q12 18 25 33 q27 33 37 63q2 14 4 33t6 37q4 16 4 41q0 -27 2 -49q0 -23 1 -42.5t-3 -29.5q-12 -20 -33 -51q-12 -12 -18 -27q31 -39 53 -84q20 -39 29.5 -91t3.5 -113q-18 -125 -58 -184.5t-96 -84.5q-29 -14 -57.5 -20t-56.5 -14q-33 -4 -68 -11z" />
<glyph unicode="9" horiz-adv-x="1218" d="M282 767q-1 44 7 92t29.5 93t56.5 78q35 29 81 46.5t91 25.5q49 10 100 6q-4 0 0 4l12 8q8 2 50.5 -21.5t126.5 -86.5q39 -35 67.5 -101.5t41.5 -152.5t9 -182.5t-30 -190.5q-25 -92 -63 -146.5t-83 -84t-97 -39t-108 -15.5q-51 -8 -104 15.5t-92 60.5t-62.5 77t-23.5 58 q0 23 11 41.5t26 28.5q12 14 34 27v10q0 8 7 14q8 8 11 -13.5t3 -29.5q0 -10 5 -7t36 -13q29 -20 17.5 -26t-3.5 -26q2 -31 23 -53q16 -16 45 -35.5t82 -25.5q53 -2 96 21.5t77 55t57.5 66.5t33.5 57q14 23 19.5 66t5.5 95t-4.5 109.5t-12.5 104.5q-18 94 -68.5 133 t-101.5 58q-23 8 -67.5 6t-91 -19.5t-88.5 -41t-60 -48.5q-16 -27 -15 -56.5t13 -53t28.5 -42t28.5 -22.5q16 -20 16.5 -17t8.5 -5t10 -14.5t19 -22.5q8 -8 42.5 -12.5t74.5 -9.5t76 -10t48 -5q23 0 46.5 18.5t15.5 10.5q-6 -6 -22.5 -21.5t-27.5 -30.5q-2 -20 5.5 -16 t7.5 -14q0 -6 9 -12.5t4 -15.5t-34.5 -11t-103.5 -8q-76 -2 -132.5 21.5t-95 53t-64.5 65.5t-40 60q-18 27 -19 71zM344 467q18 -2 35 -10q20 -6 35.5 -11.5t25.5 -11.5q12 -6 24.5 -7t20.5 -7q10 -2 23 -2q-8 -2 -21 -8q-8 -6 -15 -11.5t-9 -25.5q-2 -16 10 -35t29 -37 q20 -16 45 -37q-6 0 -12 6q-8 2 -16.5 6.5t-18.5 10.5q-23 12 -43.5 55t-32.5 66q-8 10 -20.5 21t-26.5 17q-15 11 -33 21zM406 817q0 35 27.5 54.5t58.5 31.5q41 14 81 15q-35 -6 -63 -21q-25 -16 -43 -36.5t-12 -55.5q8 -31 30.5 -56.5t49.5 -43.5q35 -20 73 -35 q-59 14 -100 35q-43 18 -75 45.5t-27 66.5zM641 43q63 14 125 43q49 27 99 68t81 106q25 63 46.5 141t29.5 154t0 151.5t-33 143.5q-29 63 -43 98t-24.5 54.5t-23.5 30.5t-36 28q-25 20 -49.5 33.5t-46.5 27.5q-25 14 -55 33q57 -14 116 -49q47 -33 97.5 -90.5t85.5 -163.5 q35 -100 31.5 -201.5t-23 -191.5t-44 -155.5t-36.5 -88.5q-10 -20 -48 -53t-82 -62.5t-92 -46t-75 -10.5z" />
<glyph unicode=":" horiz-adv-x="1251" d="M545 1118q0 14 14 37q8 11 12 19q-10 -16 -5 -59.5t1 -59.5q-6 -10 -12 -25q-2 -8 -2 -12v53q0 8 -4 19.5t-4 27.5zM559 154q8 12 21.5 22t13.5 23q0 8 -12.5 5t-12.5 13q0 20 12.5 27.5t16.5 19.5q4 14 2 37t4 39q8 20 17.5 20h40.5q33 0 52 -37.5t19 -68.5l-8 -41 q-4 -20 -10 -37.5t-15 -23.5q-10 -16 -35.5 -19.5t-49 -0.5t-42 8t-14.5 14zM561 268v47q0 18 10 31q9 6 17 6q-4 -12 -6 -24.5t-11 -26.5q-4 -14 -10 -33zM569 1008q0 16 33 36l35 23q0 4 -10.5 8t-17.5 7t-14 8.5t-7 19.5q4 31 9 57.5t19 26.5q8 0 30 -7t42.5 -20.5 t35.5 -39t13 -60.5q-6 -74 -46 -91.5t-68 -12.5q-54 6 -54 45zM678 104q37 23 59 50q18 25 30.5 61.5t-5.5 85.5q10 -16 18 -37q14 -39 -8 -74q-25 -37 -57 -63q-14 -19 -37 -23z" />
<glyph unicode=";" horiz-adv-x="1259" d="M547 1120q0 12 12 35q8 13 14 21q-10 -16 -5 -59.5t3 -61.5q-8 -8 -8 -13.5t-4 -11.5q-2 -8 -2 -10q-2 10 -2 24v29q0 8 -4 18.5t-4 28.5zM553 93.5q4 15.5 6 27.5q8 10 16.5 21.5t8.5 21.5q0 14 -6.5 25.5t-6.5 27.5q0 20 13.5 26.5t13.5 20.5q6 14 3 37t5 39 q8 18 20.5 18h39.5q31 0 50 -36.5t19 -67.5l-14 -55q-8 -29 -16.5 -49.5t-16.5 -32.5q-14 -23 -42 -46.5t-48 -25.5q-16 -2 -25.5 7t-15.5 18q-8 8 -4 23.5zM563 285v28q0 20 10 31q9 6 17 6q-6 -14 -10 -49q-6 -14 -13 -35q-4 6 -4 19zM573 1008q0 16 33 36q14 10 33 23 q2 14 -23.5 15t-25.5 30q4 29 9 55.5t22 26.5q10 0 29.5 -7t41 -20.5t35.5 -39t10 -60.5q-4 -72 -45 -90.5t-65 -11.5q-54 4 -54 43zM705 70l12 12q8 8 13 17.5t20 31.5q10 20 16 48t8 52q2 31 0 64q14 -45 7 -85t-23 -71q-20 -41 -53 -69z" />
<glyph unicode="&#x3c;" d="M360 655q8 25 14.5 37.5t20.5 12.5h78q8 0 41 18t77 38.5t85 42t57 27.5q16 8 48 23.5t65 34.5q39 16 78 41q18 -4 26 -7t13 -18q10 -10 10 -20.5t4 -26.5q8 -14 19.5 -22.5t11.5 -16.5q0 -6 -48.5 -27.5t-110 -48t-116.5 -50t-69 -27.5q-29 -10 -42.5 -9.5t-37.5 -7.5 q-20 -4 -38 -27.5t-1 -56.5q8 -16 39.5 -29.5t71.5 -30t87.5 -39t92.5 -50.5l14 -10q16 -10 25.5 -10.5t1.5 -6.5q-2 -4 -3 -8q6 -4 11.5 -10t13.5 -15q16 -2 46 -9t40 -30q14 -29 9 -39t-25 -30q-23 -16 -38.5 -17.5t-31.5 15.5q-8 8 -39 32.5t-69.5 55.5t-82.5 57.5 t-81 40.5l-6 8q-45 23 -93 31q-84 16 -96 19.5t-16 21.5q-4 6 -14.5 26.5t-19.5 41t-16.5 43t-5.5 32.5zM395 457q2 -2 40 -16.5t89 -35t103.5 -43t89.5 -47.5q35 -27 71.5 -59.5t62.5 -60t43 -46t13 -16.5q0 4 -54 54.5t-144 107.5q-51 33 -109.5 63.5t-102.5 54t-75 37 t-27 7.5zM758 647l45 31q10 2 24 6q29 8 39 10q8 0 22.5 7.5t26.5 15.5l37 22q-10 -16 -42.5 -30.5t-63.5 -28.5q-41 -14 -88 -33z" />
<glyph unicode="=" horiz-adv-x="1212" d="M256 322q-8 35 15.5 60.5t54.5 33.5q27 8 49 -8.5t35 -16.5h305q10 0 29.5 2t44 8.5t49 11.5t34.5 5q29 0 46.5 -32t13.5 -69q-10 -33 -36 -47t-46 -14q-16 0 -28.5 7t-26.5 7q-8 0 -77 2t-149 4.5t-148.5 4.5t-70.5 2q-10 0 -47 -2t-47 41zM256 618q-8 33 15.5 60 t54.5 33q27 8 49 -8.5t35 -16.5h305q10 0 29.5 4t44 9.5t49 11.5t34.5 6q29 0 46.5 -34t13.5 -71q-10 -31 -36 -46t-46 -15q-16 0 -28.5 7t-26.5 7q-8 0 -77 3t-149 4t-148.5 3.5t-70.5 2.5q-10 0 -47 -2.5t-47 42.5zM514 213h295q-74 -6 -135 -6q-49 -6 -96.5 -3t-63.5 9z M944 547l4 4l13 31q6 8 6 23.5v29.5v35q12 -23 9 -45.5t-9 -38.5q-10 -23 -23 -39z" />
<glyph unicode="&#x3e;" horiz-adv-x="1232" d="M344 819q0 8 11.5 17.5t19.5 21.5q4 18 3 27.5t7 19.5q6 14 13.5 17.5t25.5 9.5q39 -27 78 -43l116 -58q14 -6 53.5 -26.5t82.5 -42t79.5 -38.5t45.5 -17h73q20 0 23.5 -13.5t11.5 -38.5q4 -25 -20.5 -76t-30.5 -67q-8 -18 -19.5 -21.5t-93.5 -19.5q-45 -8 -92 -31l-4 -8 q-41 -14 -86 -40.5t-84 -57.5t-69.5 -55.5t-38.5 -32.5q-25 -27 -64 2q-25 18 -29 29.5t11 39.5q8 23 38.5 30t47.5 9q10 14 24 25l-2 8q-10 6 0 6t27 11l16 8q43 31 90 53t87 38.5t70 30t40 29.5q18 33 0.5 56.5t-39.5 27.5q-23 8 -36 7t-44 12q-12 2 -67.5 25.5t-117 50 t-109.5 49t-48 26.5zM440 133q0 -2 17.5 15.5t43 46t62.5 61.5t72 59q37 25 90 46.5t101 43t86 35t44 17.5q8 8 16.5 16t16.5 25q13 14 23 30q-8 -23 -21 -34q-4 -14 -21.5 -28.5t-37.5 -23.5q-113 -31 -201 -82t-152.5 -100t-98.5 -87t-40 -40z" />
<glyph unicode="?" horiz-adv-x="1212" d="M224 944q7 41 7 80q0 23 24 66t60.5 86t87 76.5t109.5 33.5q57 0 115.5 -11t112 -39t90 -79t49.5 -133q10 -80 -31 -153.5t-94 -133.5q-68 -63 -152 -125v-110q0 -31 6 -49.5t9.5 -25.5t-2.5 -9t-31 -2q0 -12 -9 -17q-6 -10 -17 -11t-30 7q-20 6 -24 18.5t0 26.5 q4 16 12 31q0 23 6 47q2 16 4 40t2 38q0 35 -3 52.5t3 49.5q8 31 33 38t76 28q25 4 52.5 34.5t50 69.5t38 78t15.5 70q0 29 -13.5 48t-25.5 38q-16 16 -37 31q16 -10 28 -15q8 -2 10.5 1t-7.5 26q-25 39 -46.5 54t-93.5 32q-37 8 -73.5 -4.5t-70.5 -35t-61.5 -49 t-44.5 -40.5q-31 -33 -43 -49.5t13 -46.5q10 -20 4 -44t-23.5 -43.5t-37 -30.5t-29.5 -3q-25 18 -18 59zM389 1094l17 16q23 23 32 31q12 6 41 18t68 21h12q35 0 64 -9q14 -2 24 -8q-2 6 -25.5 6t-53 -7t-56.5 -15t-37 -17q-10 -8 -24.5 -14t-30.5 -10q-14 -8 -31 -12z M473 139q8 4 25 13q25 8 24 41q-8 29 -13 26.5t5 9.5q14 14 42 7t44 -7q49 0 86 -53q20 -25 -2 -65.5t-39 -67.5q-20 -31 -61 -22.5t-70 24.5q-29 23 -35 46t-6 48zM664 563q0 20 28 33q2 6 16.5 20.5t31 32t31.5 35.5t26 29q12 12 23 20t22 17q14 10 25.5 25.5t17.5 29.5 q10 17 16 33q4 -8 -2 -24.5t-17.5 -37t-22.5 -39t-13 -20.5q-4 -8 -32 -30.5t-55.5 -50.5t-51 -52.5t-21.5 -34.5v-33.5t-2 -42.5q-4 -25 -4 -53v43q0 18 -8 55t-8 45z" />
<glyph unicode="@" horiz-adv-x="1157" d="M154 645q-6 68 20.5 130.5t54.5 109.5q39 53 80 97t70 67q84 70 225 69q25 0 53.5 -1t59.5 -7q61 -10 108 -52t80 -96.5t50.5 -114t21.5 -102.5q2 -45 -8.5 -94t-27.5 -93t-38.5 -80t-40.5 -54q-33 -35 -84 -48.5t-86 -13.5h-8q-8 0 -12 7q-10 12 -10 37.5v35.5l-21 7 q-2 -4 -8 -13q-4 -6 -10.5 -15t-16.5 -20q-37 -47 -102 -47q-14 0 -23 6q-35 4 -66.5 56.5t-41.5 128.5q-6 33 0 71.5t18 74.5t25.5 64.5t19.5 43.5q8 12 26.5 23.5t41 20.5t47 15t43.5 6h10q12 0 26.5 -12t29 -27.5t25.5 -32t17 -26.5l15 -25l4 29q4 14 9 40t20 42q0 2 2 4 t4 6q4 0 8 6l12 -6q16 -10 19.5 -27.5t1.5 -33.5q-2 -20 -11 -41h-2v-6q-4 -31 -8 -58q-4 -25 -9 -50t-11 -42q-6 -18 -10.5 -41.5t-8.5 -44t-6 -35t-2 -16.5v-10l82 -4h6q37 4 55.5 40.5t28.5 65.5q14 39 19.5 79t5.5 58q0 8 -5.5 65.5t-35.5 121.5q-82 147 -262 157h-19 q-109 0 -178.5 -42t-111.5 -100t-61.5 -121.5t-25.5 -104.5q-8 -51 4.5 -110.5t37 -116t56 -104.5t62.5 -79q51 -57 172 -57q53 0 95 9t53 13q37 10 63.5 22.5t34.5 43.5q6 23 29 22q10 0 19 -3t26 -5q14 8 9 17.5t-22 35.5q-4 8 -1 11.5t10.5 1.5t16.5 -6.5t17 -6.5h2 q33 0 50 -28l6 -2q10 -12 18 -24.5t8 -29t-13 -40t-44 -56.5q-35 -35 -86 -58.5t-103.5 -36.5t-98.5 -19.5t-70 -6.5q-8 0 -19.5 2t-21.5 5h20q43 0 80 3t102 19q63 16 100.5 41t37.5 29l45 41q8 4 27.5 22.5t19.5 57.5q0 14 -8 28q-6 0 -22.5 -1t-29.5 -1q-12 0 -20 -6 q4 -2 4 -6q6 -10 -1 -27.5t-13 -27.5q-4 -8 -11.5 -12.5l-17.5 -10.5q-6 -2 -13.5 -4t-15.5 -8q-8 0 -16 -13q-25 -16 -74 -39.5t-131 -23.5q-68 0 -147 23q-160 41 -230 210q-33 70 -46 145t-23 140zM307 799q4 6 5 12t1 10q8 8 27.5 33t32.5 45q10 18 52 40t114 40 q29 10 67 10q37 0 53 -8q-18 -2 -41.5 -5t-48 -7t-47 -9.5t-37.5 -7.5q-33 -10 -53 -27.5t-43 -35.5l-17.5 -17.5t-19.5 -17.5q-29 -24 -45 -55zM446.5 594q-2.5 -31 2 -61.5t18.5 -51.5q14 -33 55 -32q8 -4 16.5 -4.5t14.5 -0.5q47 0 70.5 16.5t40.5 45.5q8 16 13 45 t8 59.5t2 56t-3 35.5q-2 12 -7 21.5t-9 15.5q-8 8 -15 11h-4v2q-10 2 -25.5 5t-33.5 3q-12 0 -28.5 -2t-35 -8.5t-35 -18.5t-24.5 -33q-6 -18 -12 -45.5t-8.5 -58.5zM488 578.5q4 9.5 4 27.5q0 23 5 43.5t-1 9.5q-2 -6 2 -21t9 -31.5t10 -32t5 -23.5q0 -16 -4 -29 q-2 -6 -2 -10q-4 4 -8 10q-8 12 -16 29q-8 18 -4 27.5zM784 522l13 60l14 34v35q0 12 5 25.5t7 36.5q2 12 4 24.5t2 22.5v22q2 -6 7 -12q4 -6 7 -12.5t7 -16.5q2 -10 -2 -34.5t-10.5 -52t-12.5 -50t-8 -29.5l-10 -15t-10 -17q-8 -10 -13 -21z" />
<glyph unicode="A" horiz-adv-x="1212" d="M238 90q4 31 20 69t35.5 70.5t28.5 53.5q18 29 29 63.5t14 50.5q6 20 8 47t26 99q27 78 64 149.5t37 87.5q0 14 3 31.5t11 36.5q8 23 20.5 40t12.5 30q0 14 -8.5 32.5t-6.5 42.5q4 12 13.5 29.5t22.5 33.5q12 16 26 26q7 5 13 5q7 0 14 -6q12 -12 19 -36.5t13 -51 t8.5 -51t8.5 -35.5q4 -12 21.5 -54t39 -92t43 -102.5t31.5 -87.5q12 -31 33.5 -89t46 -116.5t44 -107.5t25.5 -61q10 -27 37 -50.5t17 -50.5q-4 -33 -17.5 -45t-54.5 -4q-39 4 -51.5 37t-18.5 53q0 10 -9 30.5t-18.5 38t-20.5 35t-13 19.5q-10 8 -33.5 -8t-48.5 -29 q-25 -14 -54.5 -8t-97.5 6q-66 0 -94 -11t-51 -11q-25 0 -34 18.5t-27 13.5q-16 -4 -11.5 -19t-1.5 -36q-2 -16 -13 -54t-28 -63q-16 -29 -31.5 -18.5t-27.5 14.5q-15 3 -15 25q0 4 1 10zM344 25q0 6 6 12q2 8 8.5 13t14.5 11q10 12 24 48q5 14 13 34v-9q0 -33 -27 -71 q-12 -16 -39 -38zM393 354q-3 -7 -3 -11q0 -6 5 -7q14 -6 28.5 -9t55.5 11q39 12 57.5 21.5t26.5 0.5q23 -10 84 -10q14 0 38 -6t45.5 -10t35.5 -2t16 14q5 18 5 38q0 12 -2 26q-5 36 -23 71q-6 14 -30.5 72.5t-54.5 122t-54.5 113t-32.5 53.5q-18 6 -22.5 -6.5t-18.5 -32.5 q-12 -16 -26.5 -30.5t-8.5 -16.5q10 -6 21.5 -13.5t11.5 -15.5q0 -2 -12.5 -36t-30 -78t-32.5 -86t-19 -60t-16.5 -39.5t-25 -39.5t-18.5 -34zM424 160q61 8 121 10q49 4 94 5h12q36 0 58 -5zM510 455q8 33 20 69q6 31 17.5 58.5t21.5 35.5q-6 -20 -8 -36q-2 -25 -14 -41 q-2 -8 -8.5 -22.5t-14.5 -31.5zM539 420h16q14 0 25 4q14 4 22 -12.5t12 -30.5zM717 1016q94 -221 164 -395q29 -74 56.5 -144.5t46.5 -120.5q20 -50 30 -78q6 -18 6 -21q0 -1 -0.5 -1t-1.5 2q-8 2 -20.5 37t-33 87t-47 119.5t-57.5 141.5q-63 164 -143 373z" />
<glyph unicode="B" horiz-adv-x="1202" d="M221 934q-2 4 -2 8.5t2 9.5q8 10 45 23.5t64 28.5q29 10 84 18q25 2 59 2q49 0 90 -2q33 -6 68 -7t47 -3q20 -12 46 -21.5t42 -13.5q23 -2 15.5 10t-5.5 27q4 14 15.5 -13.5t19.5 -46.5q6 -12 22.5 -46t24.5 -74v-12q0 -32 -9 -71q-11 -46 -22 -55q-6 -8 -8 -33.5 t-6 -29.5q-8 -20 -33 -51q-4 -10 8 -31q2 -10 11 -23l6 11q8 8 20 0q10 -10 17.5 -40t23.5 -59q16 -33 24.5 -73.5t8.5 -104.5q0 -31 -17.5 -64.5t-37 -59t-38 -45t-20.5 -25.5q-6 -6 -13 -3t-30 -4q-18 -2 -57 -2t-92 -8q-31 -5 -77 -5q-23 0 -49 1q-79 4 -134 14 q-53 12 -63.5 51.5t-10.5 51.5q0 18 -2 31.5t-16 50.5q-8 16 -10.5 98t-2.5 178t2 175t2 94v71.5t-4 52.5q-4 11 -8 19zM283 279q8 39 14 75q8 27 12 52.5t6 33.5q0 8 19 17l12 8l-4 -23q-8 -27 -8 -39q0 -16 2 -52t8 -56q8 -16 11 -51t-9 -37h-16t-17 16q-16 23 -16 45 q-2 12 0 25v-62q0 -25 4 -46t14 -25q18 -12 39 -17t37 2q37 14 45 11q2 -4 37 -10.5t78 -7.5h17q35 0 70 3q44 4 69 19q29 12 51 41.5t38.5 63.5t20.5 69t-14 59q-39 49 -101.5 95.5t-107.5 46.5q-20 0 -51 -3.5t-62 -5.5q-37 -2 -69 -2q-12 2 -21.5 6.5t-15.5 8.5 q-10 2 -19 8l-22 -31q-20 -29 -29 -37q-8 -10 -10 -10h-4zM291 633q0 -12 2 -31.5t2 -42.5v-49q12 0 27 6q31 8 22 31q-6 18 -10 40.5t12 30.5q10 0 42 1.5t72 1.5h75.5h48.5q27 0 49 -11.5t33 -19.5q6 -4 15 -23.5t21 -19.5q4 0 10.5 9t14.5 26q8 14 16 36l-49 -22 q8 12 23 25q8 14 17 33.5t18 50.5q8 53 8 101t-47 77q-47 31 -82 38q-22 4 -42 4q-11 0 -22 -1q-14 0 -38.5 -2t-50 -5.5t-44.5 -7.5l-18 -4q-4 -14 -12.5 2.5t-20.5 20.5q-8 2 -43 -3t-43 -12q-2 -2 -4 -43t-2 -89v-93v-55zM291 760q0 35 12 61q2 16 3 30.5t9 25.5 q4 12 15.5 5.5t11.5 -16.5q0 -8 -4 -14q-4 -8 -6 -13l-4 -10q-8 -8 4 -40.5t14 -55.5q10 -27 15 -43t-15 -22q-8 -8 -13 6t-14 22q-6 8 -17 28.5t-11 35.5zM375 816.5v25.5q2 12 26.5 18t51.5 8q16 3 34 3t37 -3q-35 -2 -59 -4q-27 -6 -44.5 -8t-21.5 -2q-8 0 -13 -48 t-5 -71q0 -10 -2 2.5t-3 35t-1 44zM389 254q0 49 2 88q4 37 4 66.5t8 31.5v-53q0 -23 1.5 -42t1.5 -28q0 -8 -1.5 -17t-1.5 -21v-25l86 -25zM436 721h76q27 0 54.5 -1t37.5 -9zM682 1112q23 0 57.5 -21.5t68.5 -56.5t64.5 -78t40.5 -82q8 -30 8 -60q0 -15 -2 -29 q-6 -44 -15 -86t-20.5 -72.5t-17.5 -44.5q-2 -16 15.5 -29.5t37 -40.5t35.5 -79q9 -30 9 -71q0 -29 -5 -63q-12 -82 -46.5 -141.5t-69.5 -98.5q-39 -45 -90 -73q14 12 34 26q35 27 74 78q39 55 58.5 122t27.5 138q1 8 1 16q0 29 -11 59q-14 38 -33.5 69.5t-38 54t-18.5 24.5 q-4 8 26 29q10 16 18.5 97t8.5 169q-2 45 -33.5 88t-74.5 80q-48 39 -109 76z" />
<glyph unicode="C" horiz-adv-x="1210" d="M242 557q4 150 53 285q27 70 73 111.5t89 63t75.5 28t45.5 5.5q16 0 46.5 6.5t45.5 14.5q14 6 15 -1t20 -13q6 -6 36.5 -33t69.5 -62.5t70.5 -71.5t44.5 -59q8 -22 8 -43q0 -20 -6 -40q-14 -42 -23 -50q-4 -6 -26.5 -5t-38.5 28q-12 10 -17.5 40t-13.5 42 q-4 18 -16.5 38.5t-26.5 35.5q-8 2 -41 13t-75 18t-78.5 8.5t-53.5 -5.5q-16 -8 -51 -32.5t-68.5 -67.5t-58.5 -105q-23 -57 -23 -133v-12q6 -170 94.5 -278.5t178.5 -122.5q14 -3 27 -2q29 0 58 11q42 17 72.5 40.5t50 49.5t27.5 38q2 10 8.5 33.5t11.5 49.5t8 48.5t9 26.5 q4 20 22.5 27t37.5 7q14 0 26.5 -30.5t9.5 -61.5q-6 -16 -12 -61t-27.5 -99.5t-61.5 -101.5t-103 -69q-57 -16 -110 -16q-73 0 -139 31q-114 54 -190 191q-74 128 -74 269q1 8 1 16zM384 555q-1 13 -1 27q0 48 18 100q16 63 46 103t59 61.5t48 26t24 -0.5q-43 -18 -84 -55 q-31 -27 -58.5 -76t-32.5 -120q-2 -34 -2 -64q-1 -96 19 -151q23 -65 26 -65v1q0 2 -14 33t-28 75t-20 105zM657 1133q18 0 35 -9q12 -6 30.5 -13t35.5 -15q37 -18 92 -68.5t98 -124.5q39 -72 39 -134t-8 -83q-4 -16 -29 -16q-14 0 -24 4q8 0 16 8q8 4 31 33q6 10 6 31 q0 18 -4 40q-8 52 -57 148q-27 45 -70 84t-84 63q-53 29 -107 52zM670 -8q33 8 71 24q31 18 71 44t79 67q43 39 63.5 96.5t28.5 106.5q12 59 12 114q1 -18 1 -37t-1 -38q-6 -35 -14 -83t-39 -100q-29 -59 -72 -95t-90 -56q-53 -27 -110 -43z" />
<glyph unicode="D" d="M253 684v28q0 53 3 79q20 68 21.5 91t1.5 54v23.5t4 25.5q0 14 4 29q6 29 33.5 42t56.5 13t88 -3q14 -1 25 -1q39 0 59 8q9 1 27 1h19q32 -1 73 -11t79.5 -29.5t67.5 -52.5q29 -31 56.5 -103.5t48.5 -161.5q20 -90 23 -182v-20q0 -79 -21 -135q-51 -133 -134 -222 t-256 -89q-92 0 -142 14t-73.5 29.5t-28.5 33t-5 31.5q0 25 -3.5 76t-3.5 70q0 10 -5 71.5t-11 139t-7 151.5zM352 930q0 -16 1 -31.5t1 -32.5q0 -20 1 -87.5t5.5 -148.5t6.5 -149.5t2 -79.5q0 -25 11 -67.5t13 -65.5q6 -25 2 -27.5t-10 -19.5q-10 -20 -2 -27.5t27 -17.5 q14 -10 28 6q8 4 8 13q25 -2 46 -2q18 0 37.5 -3.5t33.5 -3.5q12 -2 38 -7t58.5 5.5t73.5 47t82 114.5q41 80 44 167v24q1 73 -15 138q-18 75 -48 137t-51 91q-29 27 -63.5 39t-71.5 12t-68.5 -6t-41.5 -10q-11 -4 -26 -4q-24 0 -60 10q-29 8 -62 23v-37zM416 883 q6 8 25.5 10t43.5 2q29 0 64 -4l-94 -10q-2 -25 -2 -52q-4 -23 -4 -46v-40q0 -18 -1.5 -91.5t-4.5 -154.5t-6 -143.5t-7 -60.5q-4 0 -5 92t-3 203q-6 131 -6 295zM524 23h47q41 0 72 12q33 4 105.5 39t164.5 149q47 59 64.5 145.5t23.5 170.5v31q0 79 -8 163q17 -87 17 -176 q0 -59 -8 -121q-20 -152 -125 -284q-53 -66 -115 -94.5t-115 -34.5q-33 -5 -64 -5t-59 5z" />
<glyph unicode="E" horiz-adv-x="1232" d="M256 403q0 37 8 79t12 59q4 10 2 38.5t-5 61.5t-7 68.5t-4 58.5t2 62.5t7 83.5t14.5 79t23.5 45q13 6 57 8q22 1 46 1.5t49 -1.5q51 -2 95 -4t58 -2t42 2t54.5 6.5t51 8.5t37.5 10q17 10 45 15q11 2 19 2q14 0 24 -5q20 -8 37.5 -43t13.5 -57q-4 -20 -17.5 -42t-48.5 -24 q-15 -3 -32 -3q-18 0 -38 4q-40 6 -65 6q-14 0 -73.5 -2.5t-126.5 -4.5q-80 -6 -175 -8q-4 -12 -4 -56v-95v-133q23 0 39 4q20 2 38 2t30 6q10 0 31.5 -3t45 -6t47 -3h34.5q20 4 55 17t57 9q18 -10 45 -19.5t21 -49.5q-2 -39 -10.5 -64t-51.5 -29q-39 -8 -51 -3t-29 14 q-12 4 -41.5 4h-64.5t-65.5 -2t-36.5 -2q-16 -8 -39 -2t-33 -5q-8 -2 -12.5 -30.5t-7.5 -62.5q-2 -26 -2 -51v-17q1 -34 5 -37q8 -20 9.5 -40t1.5 -26q0 -8 -8.5 -33.5t6.5 -33.5q12 -10 46 -1t50 9q12 0 53 -4t90 -10.5t93.5 -10.5t60.5 2q34 4 94 27q43 17 68 17 q10 0 16 -3q29 -6 36 -46t7 -64q-4 -25 -35.5 -46.5t-50.5 -21.5q-12 0 -32.5 3t-48 8.5t-53.5 11.5t-36 6h-68.5h-131t-129 1t-68.5 1q-23 6 -37 32.5t-14 36.5q0 2 -4.5 44.5t-9.5 92.5t-8 97t-3 63zM395 686q2 8 8 19q2 8 3 36v70q0 25 4 55h194q-37 -6 -65 -12 q-25 -8 -46.5 -10t-27.5 -8q-12 -6 -10 -38t12 -65q4 -20 27.5 -24t47 -8.5t41 -4.5t15.5 0q-8 -2 -38 -2t-68 -6q-41 -2 -97 -2zM406 451q8 -20 14 -41q8 -23 11 -50.5t9 -64.5q2 -35 3 -45t10 -10q4 0 12 12l-45 -8q-2 49 -6 94q-4 39 -6 71t-2 42zM457 426q-1 0 -1 -1 l12 4q15 5 42 9t52.5 7.5t35.5 -5.5q2 0 -17.5 -1t-47 -5t-51 -6t-25.5 -2zM713 698q10 -2 24 -10q16 -8 33 -29z" />
<glyph unicode="F" horiz-adv-x="1218" d="M307 1024q4 4 52.5 7t110.5 4t120.5 2t81.5 1q43 0 96 17.5t98 34.5q42 18 58 21q2 0 6 1q14 0 31 -14q6 -8 11 -27.5t5 -41t-7 -39t-20 -29.5q-25 -14 -51 -14q-7 1 -13 1q-34 4 -42 13q-2 4 -39 4h-80t-81 -2t-46 -2h-35.5t-53.5 2t-54.5 2h-34.5q-39 0 -51 -39v-47 v-73v-69.5v-38.5q-6 -10 -7.5 -30.5t-1.5 -28.5q0 -4 4.5 -12.5t10.5 -16.5t12 -15t10 -5q8 10 23.5 15t34.5 13q6 2 26.5 2.5t44 0.5t42 -1.5t30.5 -1.5q14 0 56 8.5t69 16.5q29 6 53.5 -8t20.5 -33q-4 -16 -17.5 -34.5t-34.5 -26.5q-16 -2 -48.5 3t-53.5 -3q-10 -6 -39 -6 h-63.5t-64.5 3t-36 3q-10 6 -22 7t-25 3q-12 4 -31 4l23 -186v10q0 8 3 15t3 18q0 18 17 37q8 6 20 14q-6 -23 -12 -47q-8 -23 -12.5 -47.5t-4.5 -42.5q-2 -35 -6 -35q-2 0 -8 4q6 -10 6 -25v-24.5t2 -22.5q4 -16 16.5 -26.5t36.5 -26.5q25 -18 11.5 -30.5t-25.5 -18.5 q-10 -6 -46 -3t-48 5q-27 8 -27 63v75t1 128.5t1 125.5v71v37.5t-1 72.5t-1 78v55q0 37 6.5 79t6.5 46q0 10 -12 36q-8 16 -8 25q0 6 3 9zM388 794q-1 13 -1 25q0 27 5 51q6 26 27 27q5 0 11 -2q10 -4 8 -20.5t-6 -36t-12 -38t-8 -22.5q4 -10 6 -27.5t2 -36t-2 -31.5t-6 -11 q-6 2 -13.5 40t-10.5 82zM446 115q6 0 13 16q8 14 9 42t1 89q-8 115 -10 164q-4 29 -13 43q8 -12 21 -27q4 -12 10 -33.5t6 -52.5v-67.5t-2 -76.5t-6 -62.5t-6 -28.5q-8 -6 -14 -6h-9zM461 745.5q0 26.5 3 55t4 54.5q1 23 2 23l1 -1q8 -8 61.5 -10.5t112.5 -2.5q37 -3 79 -3 t89 3h-139q-49 0 -96.5 -3t-53.5 -3q-10 0 -20 -22.5t-17.5 -50t-12.5 -48t-7 -18.5q-6 0 -6 26.5zM528 440h99q-10 -10 -31 -10q-9 0 -21 2q-23 0 -47 8z" />
<glyph unicode="G" horiz-adv-x="1228" d="M213 502q0 147 38 245.5t91 163t109.5 92t95.5 35.5q27 3 52 3q52 0 95 -14q62 -21 99 -58q16 -16 38.5 -42t43 -54.5t34 -55t13.5 -45.5q1 -6 1 -11q0 -31 -19 -57q-21 -30 -40 -36l-14 -9q-14 -8 -33 5q-33 19 -33 45q0 4 2 9q7 32 -12 54q-18 18 -46 59t-73 58 q-35 10 -81 10h-16q-56 -2 -124 -47q-35 -23 -55.5 -67t-32.5 -101t-16 -120q-2 -31 -2 -61.5t2 -60.5q4 -59 29.5 -112.5t66.5 -96.5t87 -72.5t89 -31.5q15 -1 29 -1q68 0 104 32q43 39 62 106q6 25 6 44q0 26 -11 42q-20 27 -36 41q-14 16 -15.5 8t-17.5 -14 q-16 -8 -35.5 -15t-38.5 3q-18 4 -43 35q-17 19 -17 42q0 13 5 27q13 39 45 39h3q34 -2 93 -2q29 0 51.5 11.5t36.5 23.5q12 14 27 39q0 -2 4 -8q4 -8 6 -13.5t10 -11.5q12 -16 31 -35.5t12 -42.5q-2 -25 -7 -45t-5 -51q0 -14 2 -45t2 -62.5t-2 -62.5t-8 -43q-8 -10 -38 -37 t-73 -57.5t-91 -52t-91 -21.5t-110.5 23.5t-128 79t-105.5 152.5t-45 245zM383 496q-2 28 -2 53q0 57 13 99q18 59 36 97q23 45 53 74q-23 -39 -37 -84q-12 -39 -23 -93q-8 -40 -8 -85q0 -16 1 -33q6 -131 36.5 -177t63.5 -68q14 -12 30.5 -18.5t31.5 -8.5q14 -6 28 -8 q-14 -14 -26 -29q-25 -25 -33 -25q-6 0 -29.5 12.5t-52.5 48.5t-54.5 93.5t-27.5 151.5zM606 1100q12 1 24 1t25 -1q25 -2 63 -15.5t91 -46.5q49 -33 76.5 -74.5t46.5 -80.5q12 -41 18 -88v8q0 2 -1 5t-1 11q-8 10 -15 42t-28 61q-23 31 -67.5 68.5t-87.5 62.5 q-39 25 -91.5 32t-52.5 15zM711 610q4 6 17 6q5 0 12 -1q22 -3 44 -3q25 -2 50 -2h-123zM809 27l55 57q23 23 42.5 42t27.5 28q10 14 13 44.5t3 69.5q0 23 3 55.5t3 69.5t-3 68t-9 41q-8 10 -19.5 27.5t-19.5 31.5l-31 35q2 7 7 7q3 0 9 -5q11 -10 23.5 -25.5t23.5 -32 t13 -24.5q6 -6 13.5 -41t9.5 -81t2 -97t-8 -88q-10 -39 -36 -71t-57 -56q-31 -31 -65 -55z" />
<glyph unicode="H" horiz-adv-x="1239" d="M246 830.5q0 68.5 12 95.5q14 29 37.5 44t51.5 19t47.5 4h29.5q8 0 8 -18v-19l-4 -225q0 59 -2 119q-2 39 -7 77t-7 38t-27 -9q-10 -2 -16 -2q2 -4 6 -10q8 -31 8 -43q0 -23 -14 -72q-6 -27 -5 -54t1 -58q0 -33 5 -72t33 -29q8 4 14.5 15.5t8.5 21.5l6 31q0 -8 2 -20 q4 -12 6 -23.5t11 -26.5q8 -29 31.5 -36t78.5 -7q45 1 103 13q32 7 50 6q15 0 21 -4q14 -14 28.5 -30.5t31.5 -20.5q14 -10 22 -3t14 27q4 4 8.5 30.5t6.5 57.5t2 61.5v51.5q0 12 -2 40.5t-5 58.5t0 58.5t9 34.5q4 10 27.5 24.5t50.5 27.5q34 14 69 34q14 -18 2 -31.5 t-24 -13.5q-4 0 -13.5 -2t-13.5 -6q-4 -6 -6 -10l8 -12q23 -16 23 -37q0 -14 -12.5 -53t-12.5 -66v-56v-103.5v-134.5t-1 -134.5t-2 -106.5t-1 -59q0 -16 3 -37.5t13.5 -47.5t11.5 -44t-1 -31q-20 -16 -50 -30.5t-47 -8.5q-4 2 -11 25.5t0 51.5t8 56.5t1 36.5q0 18 -1 63.5 t-9 95.5t-9 89t-3 47q-2 6 -12.5 12.5t-16.5 12.5l-22 10q-2 -4 -13 -10q-8 -14 -18 -17q-10 -8 -22.5 -9t-65.5 -1q-27 0 -70 1t-78.5 5t-66.5 5t-37 1q-8 0 -26.5 4.5t-36.5 -6.5q-20 -16 -1 -38.5t19 -34.5q0 -8 -2 -50t-6 -90l-6 -129q6 -12 14 -26q8 -10 14 -22.5 t6 -20.5q0 -18 -29.5 -40t-58.5 -28h-5q-14 0 -21 10q-8 12 -14.5 23.5t-11.5 26t-5 18.5v61.5t5 128t5 128v73.5q0 12 -10 74.5t-11 136.5t-1 142.5zM426 41v10q0 6 1 11.5t5 15.5q6 23 6 62.5t-4 64.5q0 8 -3 41t-3 69.5v59t6 20.5q16 -8 16.5 -40.5t0.5 -102.5 q0 -41 -4.5 -79t-12.5 -64q-6 -37 -8 -68zM469 702l217 -4l-100 -12q-27 -1 -51 -1h-23q-33 1 -43 17zM1008 404.5v49v31.5v38v73t2 75t2 42q0 8 1 33.5t1 56.5q0 39 2 78q0 -109 2 -197q2 -78 6 -141.5t4 -75.5q0 -10 -4 -25.5t-4 -27.5q-2 -16 -2 -31q2 -55 2 -88v-109 q-2 -6 -2 -34q0 -18 -2 -35v88v69.5t-2 44.5q-2 6 -4 33t-2 52.5z" />
<glyph unicode="I" horiz-adv-x="1243" d="M367 967q2 27 18 39t34.5 15t41 0t35.5 -3l60 -4h16q27 0 67 4q55 10 67.5 27.5t24.5 25.5q12 4 25.5 17.5t31.5 7.5q20 -6 20.5 -13.5t-15.5 -11.5q-14 -6 -21 0l-6 4q12 -2 27 -2q10 -2 22 -2t19 -8q8 -8 12 -26.5t4 -35.5q0 -23 -6 -51v25v26.5t-2 32.5q-8 31 -46 30 t-42 -9q-10 -6 -1 -13.5t25 -13.5q35 -12 45 -53q8 -20 -9 -40t-34 -34q-18 -20 -52 -13t-44 13q-27 10 -53 0q-12 -8 -12.5 -22.5t-0.5 -44.5v-525v-37.5t2.5 -51t3.5 -48t9 -22.5q10 -2 31.5 16t35.5 18q10 0 29 -14t29 -12q35 8 55 -13q14 -14 7 -44.5t-23 -55.5 q-16 -29 -52 -30h-7q-32 0 -58 8q-31 4 -70 7t-71 3q-37 0 -95 -5q-19 -2 -33 -2q-28 0 -34 7q-8 4 0 20.5t18.5 31.5t22.5 30.5t20 15.5q18 2 31.5 -5t32.5 -1q23 8 30 29.5t13 46.5v90t-3 176t-5 180t-2 111q0 109 -35 153q-8 6 -31 6.5t-49 1.5q-24 1 -42 11 q-12 7 -13 23q0 6 2 14zM492 1104q14 7 54 7h10q48 -1 99 -7q61 -2 133 -8zM692 801l4 -258q4 -98 6.5 -184.5t6.5 -96.5q0 -6 1 -10t1 -6q0 -4 6 -10l-17 -5zM723 219q6 21 23 21q4 0 10 -2q26 -8 61 -27q34 -16 34 -56q0 -47 1 -49q1 -4 2 -4t-1 12q-3 18 -3 31 q0 12 -16.5 31t-24.5 25q-4 0 -17.5 2t-31 2t-27.5 3t-10 11z" />
<glyph unicode="J" horiz-adv-x="1232" d="M358 319q4 35 16.5 54.5t27 26t20.5 14.5q2 6 10 12t17 14l22 13l14 -33q-10 0 -20 -2q-16 -6 -19 -15q-8 -14 -9 -49v-7q0 -33 9 -81q14 -55 47 -74.5t54 -29.5q25 -12 53 -17q14 -6 33 -10l-25 -20q10 0 25 4q14 4 32.5 5t39.5 9q49 14 50 38t17 83q8 16 9 71.5t4 129 t3 152.5t-3 149.5t-3 120v55.5q10 23 29.5 53.5t32.5 30.5q14 0 18 -25t8 -37q0 -170 -4 -313q-2 -123 -5 -239.5t-9 -165.5q-18 -96 -89 -154.5t-140 -58.5q-70 0 -143.5 48t-104.5 160q-17 45 -17 77v11zM502 334q0 -29 22.5 -52.5t36.5 -35.5q8 -12 27 -19q12 -4 20 -4 q-4 -6 -12 -12q-12 -6 -21 -6q-12 0 -30.5 14t-26.5 35q-10 16 -13 52t-3 28zM874 1049q6 10 22 16q6 2 9 2q7 0 6 -8q-6 -8 -25 -15q-14 -6 -14 -1q0 2 2 6zM901 193v8q0 4 10 22q6 10 10.5 36t4.5 36v299q0 125 2 287q0 -147 4 -271q0 -98 2 -194q1 -33 1 -57 q0 -47 -3 -62q-4 -41 -19 -74q-8 -14 -12 -30zM920 1012l6 -2q0 -6 1 -7.5t1 -9.5q0 -5 -1 -5t-1 9q-6 6 -6 15z" />
<glyph unicode="K" horiz-adv-x="1236" d="M268 934q-2 6 -2 10q0 11 8 21q4 14 27 33.5t39 27.5q8 2 11 6t11 4h13q10 12 20 19q20 16 27 16q4 -6 17.5 -25.5t17.5 -27.5q0 -6 2 -41t2 -74t-2 -74.5t-2 -44.5q-4 -6 -6 -17t-5 -19q-6 -14 -8 -21q2 37 8 76q3 37 3 69t-3 60q-6 55 -6 69.5t-10 22.5q-8 10 -35 10 q-10 0 -18 -8q-2 -2 -2 -8q2 -8 10 -21q2 -10 6 -21t4 -20q0 -16 -13 -53t-13 -45q0 -4 5 -22.5t5 -28.5v-27.5t-1 -46t-1 -48v-30.5q0 -18 1 -33.5t-3 -21.5q-8 -2 -21.5 11.5t-17.5 19.5q-10 2 -10 -33t4 -70q10 -61 14 -61t29.5 22.5t52.5 48t51.5 44t30.5 24.5 q6 4 25.5 39t46.5 64q8 14 35.5 41.5t56 55.5t55.5 55.5t35 39.5q18 16 48 59.5t46 55.5q23 12 27 18l18 6q2 8 10 11q14 8 17 12q8 0 33.5 -6.5t27.5 -14.5q8 -6 10 -33.5t-8 -41.5q6 0 6 8q0 14 -6 29l-4 22h-8q-14 0 -23 2q-12 6 -16 13.5t-12 -1.5l-10 -6q8 -16 18 -30 q6 -10 11 -23.5t3 -17.5q-6 -8 -25.5 -30t-46 -48.5t-56 -52t-52.5 -44.5q-39 -35 -88 -89t-59 -66q-12 -10 -13 -17v-6q55 -68 101 -129q43 -49 77.5 -98t45.5 -64q8 -14 24 -37.5t34.5 -48t33 -44t18.5 -23.5q18 -10 30.5 -14.5t12.5 -18.5q2 -18 -2 -51t-33 -49 q-24 -16 -42 -15.5t-29 15.5q-16 16 -28.5 46t-25.5 52q-8 8 -21 35t-32.5 57.5t-41 56t-32.5 44.5q-8 16 -30.5 47.5t-44 63.5t-42 57.5t-26.5 33.5q-8 6 -15 10.5t-10 6.5l-8 6q-23 -27 -37 -47q-16 -20 -31.5 -35.5t-19.5 -24.5q-14 -10 -24.5 -24.5t-20.5 -34.5 q-12 -16 -8 -20.5t4 -8.5v-24.5t2 -44t4 -45t2 -31.5q4 -16 4 -40t2 -36q0 -8 6.5 -22.5t6.5 -26.5q0 -14 -18.5 -30.5t-41.5 -26.5q-11 -3 -19 -3q-23 0 -34 23q0 6 -1 53t-1 102.5v104.5v60q0 23 7 44t1 52q-2 27 -4 65.5t-2 51.5q0 4 -4 28.5t-5 57t-3 62.5t-2 42 q0 10 -2 29.5t-5.5 42t-4.5 41t-1 22.5q0 13 -6 29zM446 63q2 6 7 13l10 20q2 12 0 50t-2 49q0 2 -2 26.5t-6 50t-5.5 49t-1.5 29.5q0 8 25 43q13 13 25 33q-4 -8 -9 -20q-2 -4 -6 -14.5t-6 -16.5q-10 -16 -7 -53t7 -121q1 -17 1 -31q0 -20 -2 -36q-3 -24 -11 -46 q-6 -16 -17 -25zM709 623q2 -12 53 -77t107.5 -146t104.5 -150.5t52 -83.5q4 -18 4 -35t-4 -35t-12 -35q0 2 4 15q0 8 2 16t2 17q0 16 -4 34.5t-4 26.5q0 2 -16.5 24.5t-36 53.5t-40 58.5t-38.5 47.5q-12 16 -41 62.5t-60 89.5q-34 58 -73 117z" />
<glyph unicode="L" horiz-adv-x="1232" d="M301 1049q5 13 29 33q16 13 34 13q9 0 19 -3q31 -14 36 -66q1 -9 1 -17q0 -37 -19 -48v-314v-110.5t2.5 -103.5t2.5 -78.5v-32.5q0 -23 5 -77.5t5 -62.5q0 -10 23.5 -9t35.5 1h307q23 0 78 14.5t82 14.5q28 0 46 -33q12 -22 12 -45q0 -11 -3 -23q-6 -35 -33.5 -48 t-43.5 -13q-20 0 -33 6t-27 6q-6 0 -73.5 3t-149.5 4t-149.5 3.5t-71.5 2.5q-8 0 -39 11t-37 27q-2 10 -7 76t-11.5 146t-10.5 153.5t-4 93.5v87.5t3 133t4 125t1 58.5q0 9 -11 31q-6 13 -6 24q0 9 3 17zM467 517.5v137.5q0 166 2 375l20 -758l-12 4q-2 0 -5 34t-4 87.5 t-1 120zM582 2l292 -4q-70 -6 -131 -6h-100t-61 10zM924 27q8 -4 20 -4q25 0 39 6q10 6 19.5 18t17.5 27q10 14 16 37q-6 -57 -24.5 -75t-34.5 -22h-6q-21 0 -47 13z" />
<glyph unicode="M" horiz-adv-x="1243" d="M135 932q-1 5 -1 11q0 14 9 22q10 12 40 -21t65 -80t69.5 -93t55.5 -69q43 -39 65.5 -77.5t30.5 -51.5q2 -6 7 -35.5t15.5 -58t27 -47t44.5 1.5q27 16 56.5 59.5t56 91.5t52.5 97t46 80q23 27 45.5 68.5t46 78.5t47 62.5t43.5 29.5q16 4 41 6.5t44.5 2.5t29.5 -6.5 t-4 -16.5q-14 -6 -25 -16q-25 -20 -24 -51q0 -18 -3 -115.5t-4 -210.5t-3 -210t-2 -118q0 -39 19 -86q13 -33 13 -55q0 -9 -2 -16q-6 -37 -6 -43v-15h6q12 0 21 4q2 2 10 17q2 8 6 10q-12 -10 -16 -25q-23 -27 -27 -26q-6 -5 -8 -5t-2 3q0 6 -8 18q-2 4 -15.5 4h-26t-27.5 5 t-17 22q-6 14 -6 51v90t3 111.5t3 113.5q4 54 4 103q0 43 -3 81q-7 82 -18 111q-12 29 -17 44.5t-18 9.5q-10 0 -36.5 -36t-34.5 -42q-6 -8 -11.5 -34t-5.5 -42v-66l19 -12l-117 -219l123 182l-86 -164l49 62l-35 -45q-14 -16 -26.5 -33.5t-18.5 -26.5q-10 -18 -15 -28 t-15 -10t-5 27.5t-6 29.5q-12 2 -41.5 -17.5t-54.5 -5.5q-25 20 -62.5 91t-78.5 131q-20 27 -45 68.5t-48.5 79.5t-45 66.5t-29.5 30.5q-18 8 -36.5 4t-25.5 -22q-4 -23 -4 -76t8 -84q2 -18 3 -92t6.5 -156t9.5 -148q4 -65 8 -65q8 2 8 51.5v108.5t-2 111v20q0 36 6 49 q14 27 26.5 64t31.5 39q6 0 11 -58q4 -58 4 -128v-68q1 -32 0 -64q-1 -62 -1 -71q-2 -12 -12 -33t-22.5 -43.5t-32 -35.5t-41.5 -5q-47 14 -50.5 24.5t0.5 30.5q0 10 1 84t4.5 161t5.5 162.5t6 90.5q6 14 8 42.5t6 58.5t6 52.5t2 30.5t-11 28.5t-21.5 43.5t-14.5 45z M377 965q8 -14 34.5 -60.5t59.5 -97.5q39 -61 84 -131q-12 -16 -43 32t-63.5 109.5t-54.5 110.5q-18 41 -18 39zM518 670q14 -23 25 -37q6 -12 13 -23.5t1 -7.5q-25 0 -33 37q-6 14 -6 31zM1073 428v156q4 186 10 417q4 -252 9 -446q0 -82 2 -162t2 -139t-2 -96 q-2 -29 -5 -29q-1 0 -2 2q-6 10 -8 52t-4 104.5t-2 140.5z" />
<glyph unicode="N" horiz-adv-x="1212" d="M238 235v166t3 161t3 83q0 23 8 54.5t8 60.5q0 26 12 68q9 32 8 51q0 7 -1 12q0 4 -6.5 22.5t-15.5 39t-14 40t-5 31.5q6 18 42.5 36.5t49.5 29.5q10 12 13 23t3 3v-21.5t10 -23.5q12 -10 32 -59t38 -72q6 -10 29.5 -59.5t49 -104.5t49.5 -104t34 -64q16 -31 69 -92 q25 -31 54 -63q-2 -2 -11 -2q-10 -6 -12 -6.5t-10 -4.5q-12 -4 -9 -22.5t9 -40.5q4 -23 14 -42.5t27 -45.5q14 -29 33.5 -32t33.5 11q18 12 22.5 49t12.5 66q0 16 2 81.5t6.5 141.5t5.5 142.5t1 85.5q2 13 2 26q0 34 -12 70q-16 51 -15 71q2 16 19.5 26.5t29.5 14.5 q12 8 35 43q10 14 23 31q2 -14 10 -29q6 -14 7 -26t7 -21q4 -14 -5 -42.5t-15 -79.5q-2 -25 -3 -87.5t-1 -142.5t-3.5 -162t-3.5 -145q1 -135 17 -191q11 -38 11 -69q0 -15 -3 -27q-2 -20 -20.5 -28.5t-39 -11.5t-42 0t-29.5 9q-10 4 -17.5 26t-12.5 44.5t-10 42t-7 21.5 l-72 96q-4 10 -29.5 50t-60.5 101.5t-76 130t-76.5 127t-61.5 100.5t-28 44q-14 10 -25.5 -1t-29.5 -24q-6 -6 -7 -29.5t1 -48.5q4 -31 6 -61q10 12 18 27q14 27 19 20q4 -16 -1 -51t-9 -94v-91.5t2 -117t3 -107.5t1 -57q4 -16 20.5 -41t12.5 -41q-4 -10 -23.5 -33.5 t-36.5 -32.5h-4q-35 0 -57 74q-6 20 -6 98zM342 34q-1 4 -1 8q0 7 3 9q10 12 33 25l18 18q-12 -18 -24 -31q-6 -12 -15.5 -21t-9.5 -15q-2 -6 -4 7zM346 1126q10 -2 25 -10q12 -6 22 -13t25 -16q14 -8 32.5 -38.5t40 -69.5t43 -81t39.5 -73t42 -75.5t47 -90.5 q24 -51 49 -100q-2 0 -21 19q-8 18 -31.5 57t-66.5 121q-43 78 -86 147.5t-80 120.5q-39 55 -80 102zM371 635q8 -37 20 -68q4 -29 10.5 -55.5t6.5 -34.5q-4 -8 -4.5 -63.5t-0.5 -120.5v-168q0 4 -1 26.5t-5 58.5t-5 84t-5 95q-8 111 -16 246zM432 412l17 32l4 -16zM842 -2 l102 45q-10 -10 -24 -18q-12 -8 -20.5 -13.5t-16.5 -5.5q-23 -8 -27 -8h-14zM969 197v393v151.5t4 132t7 98.5t11 52q-2 -209 -2 -377v-381q0 -12 -8 -22.5t-8 -16.5q0 -8 -2 -14t-2 -8v-8zM977 111v45q4 -10 4 -16.5v-14.5q0 -12 -4 -14z" />
<glyph unicode="O" d="M179 522v25q1 95 21 187q24 104 64 173q35 70 100.5 101.5t130 44t108.5 12.5t44 6q-16 33 19 13.5t84 -66.5q104 -100 165 -301q13 -53 15 -120v-22q0 -55 -10 -115q-12 -70 -35 -139t-47 -122q-29 -51 -80 -92t-119 -53q-23 -4 -47 -3q-48 1 -100 15q-80 22 -162 86 q-78 66 -113 164t-38 206zM285 602q-2 -24 -1 -46q0 -90 26 -154q32 -80 82 -130.5t108.5 -72t107.5 -21.5q47 0 90 37t76 93.5t50.5 127t17.5 133.5t-16.5 129t-47 120t-75 92t-101.5 44q-12 4 -62.5 -6t-104.5 -48t-100 -108.5t-50 -189.5zM338 500q-5 35 -5 70 q0 68 19 130q14 45 39 80t51 58q29 25 60 41q-39 -37 -72 -84q-28 -39 -48 -101q-12 -39 -13 -83q0 -25 4 -52q2 -78 15 -124t30.5 -72.5t35 -41t29.5 -24.5q25 -23 46.5 -42t15.5 -30q-6 -4 -26.5 2t-46.5 18.5t-50.5 35t-40.5 53.5q-29 60 -43 166zM586 -6q39 10 84 31 q37 16 81 43.5t87 68.5q82 84 107.5 160t39.5 170q5 30 5 66q0 17 -1 37q-4 58 -13 120t-22.5 118t-29.5 99t-54.5 82t-80 70t-77.5 52.5t-42 23.5l-76 24q29 0 61 -10q29 -8 65 -26.5t83 -45.5q43 -31 79 -85t60.5 -112.5t38.5 -108.5t20 -71q1 -29 3 -84v-17 q0 -49 -6 -107q-8 -70 -26 -145t-52 -136q-35 -61 -91.5 -103t-109.5 -67q-63 -29 -133 -47zM1067 395q0 4 8 13l6 -39q-10 4 -12 10t-2 16z" />
<glyph unicode="P" horiz-adv-x="1220" d="M279 217q4 16 9 57t10 84t10 78t5 51q0 10 -5 45t-9 76t-5 87t-1 77q0 35 1 72t4 73.5t6 64.5t3 34q0 18 11.5 36.5t27.5 22.5q10 4 52 4h95.5h99.5h64q20 0 67.5 -7t97.5 -39t89 -99.5t39 -188.5t-64 -174t-140 -71q-62 -15 -122 -16q-13 0 -26 1q-48 3 -68 3 q-10 0 -14 -1q-25 -8 -36 -8t-27 8q-12 0 -24.5 3.5t-20.5 7.5l-21 6q-4 -47 -4 -86q-4 -37 -4 -69v-52q0 -31 7 -63.5t15 -40.5q6 -12 14.5 -35t8.5 -39q-6 -18 -18 -44q-6 -12 -20 -12q-15 0 -40 15q-52 30 -64 66q-7 21 -7 42q0 16 4 31zM399 618q16 -25 56 -12q8 2 19 3 t18 7q10 2 18 2q43 -2 82 -2q33 -6 64.5 -6h43.5q10 0 35 11.5t49.5 34t44 50t19.5 66.5q0 82 -23.5 112.5t-52.5 47.5q-14 8 -38.5 9t-48 1t-46.5 -1t-31 -1h-106q-16 0 -40 5t-36 5q-8 0 -13 3t-12 -11q-2 -6 -1 -33.5t2 -58.5t3.5 -61.5t2.5 -40.5q0 -14 -2.5 -34 t-4.5 -42q-2 -25 -2 -54zM434 707q0 4 4 12q2 8 11 29q6 16 3 37.5t-3 39.5q0 16 -7.5 47t-1.5 33q20 10 34 -38q12 -42 11 -77v-10q-6 -16 -14 -32.5t-16 -24.5q-12 -14 -21 -16zM438 457q14 -16 44 -22.5t59 -8.5q18 -3 37 -3t38 3l-137 -20l-6 -220v86q0 33 -2 63t-2 36 q0 8 -4 21.5t-12 27.5zM565 879l-1 1q0 2 6 4q8 3 22 3h35q-6 -8 -17 -10q-25 -10 -45 2zM571 678l64 -16q-18 -12 -39 0q-14 6 -25 16zM786 467q31 20 58 35q27 12 50.5 30.5t39.5 34.5q30 39 54 113q19 59 19 106q0 12 -1 23q0 57 -20.5 118.5t-51.5 90.5 q-14 10 -21.5 20.5t-15.5 16.5q-6 8 -14 10q27 -14 45 -31q16 -18 33.5 -42.5t29.5 -55.5q23 -66 25 -147v-11q0 -74 -25 -129q-23 -55 -83 -114.5t-122 -67.5z" />
<glyph unicode="Q" horiz-adv-x="1232" d="M215 645q10 111 47 186.5t77 122.5t79 73t53 34q14 6 46 11t65.5 6t60.5 1h35q12 0 12 8v11q25 -18 55 -43q31 -18 65 -55t73 -87q35 -57 52 -131.5t23 -148.5q3 -45 3 -84q0 -25 -1 -47q-4 -58 -4 -78q0 -16 -9 -47t-21.5 -62.5t-25.5 -59.5t-13 -42q0 -25 25.5 -43 t31.5 -29q10 -20 -18 -51q-8 -10 -27.5 -16t-30.5 -6q-12 0 -13 4t-21 18q-16 20 -23.5 20.5t-28.5 2.5q-23 2 -30 -6.5t-29 -16.5q-8 -2 -36 -8t-65 -10q-18 -2 -37 -2t-38 2q-39 4 -82 24q-39 14 -85 60.5t-87 118t-65 165.5q-17 64 -17 134q0 35 4 71zM340 626 q-2 -29 -2 -57q0 -42 5 -81q9 -64 26.5 -112t31.5 -65q12 -18 38 -39.5t56.5 -41t60.5 -34t50 -14.5q35 0 49.5 -4t34.5 19q16 16 24.5 27.5t6.5 43.5q-6 29 -5 41.5t-18 28.5q-39 31 -26 43q12 4 24.5 6t18.5 10t4 20.5t10 12.5q10 0 13.5 -15t13.5 -42q8 -18 8 -31.5 t4 -19.5q0 -10 2 -19q14 -4 37.5 18.5t38.5 71.5q8 27 15 77t8 108v14q0 50 -6 102q-7 58 -29 99q-49 84 -88 117.5t-87 41.5q-23 2 -57.5 1t-74.5 -19.5t-78.5 -57t-71.5 -108.5q-31 -68 -37 -142zM385 629q14 80 39 133t50.5 84t45 39t23.5 6q-41 -37 -70 -78 q-25 -43 -47 -101q-16 -38 -16 -83q0 -22 4 -45q2 -76 14 -123t28.5 -75t30 -43t15.5 -19q8 -12 20 -25l10 -10q-49 33 -92 84q-31 41 -53 105q-12 34 -12 74q0 36 10 77zM559 4h64q18 0 70 15.5t71 15.5l12 -8v-9q-8 -6 -43 -10t-74 -4q-21 -1 -46 -1t-54 1zM682 1149 q51 -16 109 -49q43 -29 92 -75t90 -112q35 -70 53 -134t22 -119q4 -37 4 -67q0 -13 -1 -25q-2 -38 -2 -52q0 -16 -4.5 -48t-9.5 -70t-13 -71.5t-21 -43.5l-24 -31q2 -29 10 -55q4 -25 8 -49.5t-2 -32.5q-6 -16 -15 -39t-15 -27q-6 -6 -19 -6q-4 0 -6 6q-8 16 -10 20.5 t12 6.5q14 8 19.5 6t13.5 14q10 14 12 23.5t-6 44.5q-6 33 -14.5 55.5t-1.5 32.5q0 8 14 34.5t27.5 66.5t24.5 86q9 39 9 77v14q-8 86 -15 193.5t-79 220.5q-41 55 -85 94t-83 64q-47 31 -94 47z" />
<glyph unicode="R" d="M250 276.5q0 49.5 2 92.5t2 53v91t-2 171t-2 173v95q0 31 6.5 74t22.5 53q8 4 58 4h87q16 0 62 1t90.5 1t84 1t46.5 8q16 6 12 3t12 -12q20 -2 44 -15t54 -44q35 -27 69 -84t36 -143q1 -6 1 -12q-1 -39 -23 -77q-26 -44 -57.5 -84t-61 -61.5t-31.5 -27.5q-8 -6 -5 -9.5 t3 -15.5q0 -16 41 -129q10 -31 31.5 -62.5t44 -63.5t40 -57.5t21.5 -35.5q8 -31 2 -50.5t-45 -37.5q-18 -10 -37.5 9t-38 50t-33 67t-24.5 62q-10 25 -28.5 68t-38 88t-38 81t-32.5 44q-31 14 -56.5 2t-56.5 -17q-25 -8 -79 -8t-66 -6q-12 -10 -10.5 -41t5.5 -51 q0 -10 -2 -32.5t-4 -50.5t-5 -52.5t-3 -36.5q0 -16 15.5 -51t13.5 -60q-4 -27 -27.5 -46t-48.5 -13q-25 8 -25 10t-14 29q-8 16 -10 61t-2 94.5zM311 106q6 -4 23 -10q20 -6 33 -6q12 0 12 2t16 21q14 16 15.5 30.5t-0.5 44.5q0 14 -4.5 53.5t-7.5 83.5t-6 78.5t-3 40.5 q0 10 -1 32t15 16q20 -8 40 -19.5t42 -11.5q16 0 31.5 -18.5t-4.5 -20.5q-16 -2 -47 12l-19 10q-6 -14 -6 -32q0 -16 -2 -38t2 -48q0 -29 -6 -68l-12 -78t-15.5 -69.5t-17.5 -42.5q-12 -16 -47 8q-14 14 -31 30zM350 659q8 -12 41 2.5t37 14.5q6 0 25.5 -4t46 -8.5 t56.5 -10.5t50 -6h21q36 0 68 5q42 7 69 32q30 26 50 64q14 27 14 52q0 11 -3 23q-4 37 -18 69t-39 46q-45 27 -86 27q-20 -2 -28.5 -3t-14.5 -10q-14 -6 -58 -3t-61 3q-18 0 -37.5 -3t-36.5 -3q-20 0 -27 -3t-22 5q-33 12 -43 0q-4 -10 -4 -33q0 -2 2 -20t4 -42t5.5 -45.5 t3.5 -31.5q2 -20 5 -26.5t-5 -18.5q-7 -11 -15 -37q-4 -14 -4 -22q0 -9 4 -13zM397 887q0 4 13.5 4t29.5 -4l45 -8h-28q-29 0 -41 -5q-14 -10 0 -34q4 -14 12 -27l-4 4q-12 12 -12 21q0 10 -12 26q-7 9 -6 15q0 5 3 8zM401 739q0 4 2 13q8 12 9 24l4 -6l12 -18 q6 -8 24.5 -14.5t34.5 -12.5q23 -8 50 -10l-109 6zM748 1145q92 -49 141 -90t70.5 -83t24.5 -85t9 -94q0 -5 1 -10q0 -43 -16 -87q-17 -48 -43 -85.5t-48.5 -63t-24.5 -31.5q-2 -10 8.5 -48t28.5 -83q16 -49 43 -111q-35 63 -61 115q-27 45 -43.5 82t-16.5 45t28 35t66 57 q41 34 53 132q5 40 6 79q0 56 -11 111q-10 47 -44 85t-73 68q-45 31 -98 62zM926 51q6 6 11 6t24 11q10 8 15 22t9 31l8 45q2 -10 2 -25q0 -27 -14 -53q-19 -33 -39 -40q-8 -3 -12.5 -3t-4.5 3q0 1 1 3z" />
<glyph unicode="S" horiz-adv-x="1239" d="M213 395q0 33 13.5 47.5t25.5 22.5q18 6 37 0q0 2 -2 6q-8 8 -4 18q0 14 20 23q10 2 19 6q0 -4 -3 -12q-8 -12 -8 -27q-2 -16 4.5 -26.5t16.5 -16.5q4 -8 14 -9t19 -21q8 -16 -3.5 -27.5t-11.5 -28.5q0 -18 11.5 -31.5t39.5 -48.5q16 -16 28.5 -31.5t31 -24.5t49.5 -14 t80 -6q100 0 157.5 47.5t71.5 82.5q10 20 10 47q0 21 -6 46q-14 58 -47 87q-18 14 -57 25.5t-87 20.5t-94 16t-77 14q-29 8 -66 18t-67.5 40t-53 79t-22.5 133q0 78 48 132t114.5 84t139.5 38q36 4 65 4t51 -4q49 -8 86 -35t67.5 -57.5t52 -61t25.5 -47.5q7 -19 7 -37 q0 -19 -8 -38q-15 -36 -38 -44q-8 -6 -16 -6q-23 0 -37 15q-20 16 -18 32.5t-7 32.5q-10 20 -37.5 51t-56.5 45q-21 15 -66 15q-9 -1 -19 -1q-60 -4 -95 -12q-18 -2 -47 -15t-55.5 -30.5t-47 -37t-20.5 -42.5q0 -43 35 -73.5t47 -34.5q20 -4 16 -4t33 -17q35 -18 89 -26 t83 -19q37 -12 72 -12q16 -4 39 0q-2 2 -2 4q0 12 2 19q8 4 27.5 -9.5t47.5 -42.5q25 -29 64 -82t45 -128q1 -12 1 -25q0 -61 -33 -119q-40 -70 -93 -117q-29 -23 -76 -40t-101 -22q-27 -2 -55 -3q-29 0 -57 3q-58 5 -102 28q-47 20 -84 53t-66.5 75t-44 84t-14.5 72z M322 532q10 0 50 -14t60 -16q4 -4 19.5 -8.5t29.5 -6.5q14 -8 33 -12h-41q-16 0 -28.5 2t-22.5 2h-15.5t-19.5 2q-14 6 -22 8q6 -2 10 -14q12 -18 20 -35q6 -20 18.5 -55t22.5 -43q12 -8 29.5 -15.5t32.5 -9.5q8 -2 22.5 -2h28.5q16 0 35 -6h-62q-25 0 -47 4t-39 19 q-25 27 -48 88t-38 78q-10 14 -24 24q-8 6 -8 8t4 2zM397 803q-4 12 -4 22q0 25 23 47q33 30 65 33q14 0 37 -1t39 -3q23 -6 43 -8h-82q-31 0 -57.5 -19.5t-7.5 -48.5q6 -10 29.5 -21t53 -17.5t54 -11.5t31.5 -5q23 -6 45 -16l26 -15q-27 2 -57 2h-47.5t-30.5 4 q-12 0 -35.5 1.5t-48 6.5t-46 16t-30.5 34zM481 27q-1 1 -1 2q0 4 35 1q42 -3 81 -3t100.5 21.5t116.5 51.5q53 33 99 78t71 162q5 26 5 52q0 30 -6 58q-11 54 -30 93q-20 45 -53 88l-22 14q-23 13 -11 17q10 6 29.5 -15.5t42.5 -50.5t41 -63.5t22 -57.5q4 -17 4 -43 q0 -13 -1 -29q-3 -47 -16 -102t-44 -110.5t-84 -94.5q-55 -39 -120 -55q-64 -17 -120 -21q-25 -2 -47 -2q-27 0 -49 4q-41 6 -43 5zM618 1174q2 -2 13 -3h35q16 0 77.5 -25.5t92.5 -43.5q27 -16 61.5 -60.5t30.5 -52.5t4 -16q4 -8 6 -10l14 -9q16 -6 17 -12l-11 -10 q-6 -4 -10 -4q4 -23 10 -41q2 -20 3.5 -40t1.5 -30q0 -29 -24 -53.5t-30 -32.5q-4 -4 -8 -4q-5 0 -12 5q-12 9 -12 24l12 2q8 6 17 9t30 17q12 10 17 34t-1 46q-4 25 -12 56l-8 16l-4 20q0 6 -6 19q-8 12 -15.5 26.5t-21.5 38.5q-18 23 -59.5 47.5t-88.5 45.5 q-55 18 -119 41z" />
<glyph unicode="T" horiz-adv-x="1191" d="M203 1065q2 23 8 34t29 11q10 0 60 -3t111.5 -6t117 -4t75.5 -1h34.5t31.5 2q14 4 30 6h53t52 8q10 2 29.5 13.5t43.5 15.5q7 1 13 1q17 0 33 -6q22 -10 30 -40q17 -48 17 -78q-1 -14 -5 -24q-12 -30 -48 -40q-33 -4 -42.5 -8t-27.5 10q-18 16 -45 12.5t-47 -5.5 q-16 -8 -18.5 -10.5t-28.5 -2.5q-25 0 -33 6.5t-29 8.5q-8 0 -13 -1t-13 -1h-13v-717l15 -60q8 -20 12 -37.5t-4 -25.5q-10 -11 -36 -25q-20 -10 -34 -11q-4 0 -8 1q-15 6 -35 45q-13 26 -13 74q0 25 3 55q4 43 9 135t9 183.5t6 169.5q1 26 1 45q0 39 -3 51q-4 18 -6 43.5 t-7 49.5t-13 39t-23 15q-37 0 -44 -10t-23 -18q-4 -2 -24.5 -2t-44 1t-44 2t-27.5 7q-10 6 -40.5 36.5t-30.5 55.5zM670 115q4 4 8 16q6 18 6 39v39t-1 91t-3 120.5t-2 138.5q-4 158 -4 361q4 6 29.5 6h59.5t68.5 -3t55.5 -3q37 0 67 28q16 8 25 25q-4 -10 -16 -23 q-14 -14 -37 -30q-10 -4 -41 -6.5t-67 -6.5t-66.5 -4h-36.5q-18 0 -19 -16v-88v-188.5t2 -212t2 -156.5q2 -24 2 -43t-2 -33q-4 -27 -10 -35q-8 -16 -20 -16z" />
<glyph unicode="U" horiz-adv-x="1245" d="M254 1071q12 23 40 40t44 22q3 1 7 1q33 0 54 -55q12 -23 -1 -57.5t-17 -44.5q-4 -8 -4 -65.5v-130t2 -139.5t2 -89q0 -43 8 -78t12 -61q10 -27 4 -35t-8 -14q0 -8 1 -20.5t18 -31.5q20 -18 37.5 -36.5t29.5 -12.5q10 2 10.5 -3t18.5 -19q10 -8 13 -16.5t19.5 -14.5 t49.5 -4t98 12q66 12 98.5 48t45 83t13.5 100.5t1 98.5q4 26 4 72q0 23 -1 51q-3 84 -6 170q-2 52 -2 97q0 29 1 57q2 68 10 83q16 29 40 45.5t38 16.5q14 -2 31.5 -46t15.5 -67q-8 -20 -16.5 -76.5t-16.5 -87.5v-84.5v-144.5v-139.5v-67.5q2 -10 10.5 -47t8.5 -76 q-4 -39 -63.5 -83t-188.5 -95q-54 -20 -105 -20q-12 1 -22 1q-60 6 -112 28t-91 52.5t-61 53.5q-12 14 -23.5 64t-18 119t-7.5 142.5t-1 139v119v69.5q0 55 -15 105q-9 30 -9 50q0 13 4 21zM442 510q4 39 6 131q1 46 2 94q0 49 -2 99q-2 100 -4 178t-2 82q8 -92 17 -176 q4 -72 5.5 -136.5t2.5 -95.5q0 -27 -2.5 -80t-1.5 -102q-2 -61 -2 -129q-8 6 -15 26q-8 18 -8 52q0 25 4 57zM614 18q39 8 78 23q35 12 81 27.5t97 44.5q47 27 75 63.5t43.5 74.5t19.5 69.5t10 46.5q0 4 1 36.5t3 78.5t2 104.5v120.5v313q8 -172 8 -322q0 -125 -4 -253 t-22 -191q-35 -84 -100.5 -129t-131.5 -70q-74 -29 -160 -37z" />
<glyph unicode="V" horiz-adv-x="1245" d="M215 1008q-5 25 -5 46q0 34 12 58q16 32 41 32q5 0 11 -1q14 0 26.5 -21.5t23 -49.5t12.5 -54.5t2 -38.5q0 -31 22.5 -92.5t42.5 -138.5q10 -39 32 -88.5t41.5 -96.5t34.5 -80.5t24 -44.5q8 -18 1.5 -38.5t0.5 -34.5q8 -14 23 -49t26 -35q12 6 28.5 43.5t40.5 95.5 q14 29 45 113.5t62 181t56.5 181.5t25.5 112q8 57 24.5 92t36.5 43q3 1 6 1q9 0 19 -4q14 -5 27.5 -19.5t24.5 -33t9 -30.5q-4 -14 -19.5 -40t-25.5 -38q-6 -10 -15 -34.5t-21.5 -55.5t-22.5 -61.5t-19 -47.5q-8 -20 -33.5 -101t-53 -174t-55.5 -168t-30 -83 q-10 -12 -7 -27.5t3 -48.5t-15 -46t-40 -17q-14 -4 -32.5 4t-34 21.5t-25.5 26.5t-15 21q-8 18 -24.5 58.5t-36.5 91.5q-10 25 -48 119t-81 208.5t-79 214t-46 128.5zM395 1069q18 -51 39 -96q16 -39 28.5 -76t18.5 -41q2 -12 18.5 -60t34 -104.5t29.5 -100.5t10 -50 q-4 10 -12 24q-10 23 -16 53q-2 8 -25.5 81t-54.5 157zM616 39l37 16q8 2 9 23q0 6 -3 14h11q12 0 26 8q10 6 26.5 34t25.5 54q6 8 18 48t31.5 102.5t45 137.5t50.5 151q61 182 133 407q1 -2 1 -5q-1 -19 -19 -77q-22 -70 -54 -172t-71 -218t-76 -219t-63.5 -176t-34.5 -79 q-10 -18 -25.5 -25.5t-30.5 -13.5q-18 -8 -37 -10z" />
<glyph unicode="W" horiz-adv-x="1251" d="M143 1038q8 29 33 59.5t39 28.5q8 -4 28.5 -26.5t20.5 -42.5t-2 -73.5t-8 -80.5q0 -14 4 -61t10 -103.5t11.5 -104.5t5.5 -69q0 -16 3 -48t11 -65.5t12 -58t13 -28.5q10 -8 6 -2t14 24q4 12 17.5 32.5t25.5 44t23.5 47.5t13.5 36q8 18 33.5 33.5t36.5 31.5q6 20 3 29.5 t3 32.5q8 23 13 52.5t9 47.5q0 29 29 56.5t37 35.5q6 2 15 12.5t13 16.5q8 2 14.5 -13.5t8.5 -25.5q6 -12 14.5 -51t10.5 -70q4 -25 25.5 -51.5t35.5 -50.5q16 -23 34.5 -54.5t18.5 -48.5q0 -18 -7 -19t-23 -1q-18 0 -12.5 -24.5t14.5 -51.5q4 -25 24.5 -39t48.5 -26 q24 -15 24 11q0 23 9 62q2 23 13.5 103t20.5 172t15 171t6 101q0 47 30 93t44 46q12 0 30.5 -20.5t26.5 -42.5q2 -7 2 -15q0 -21 -11 -53q-15 -45 -36 -84q-10 -18 -18 -103t-15.5 -182.5t-14.5 -184.5t-11 -111q-4 -25 -4 -56.5v-64.5t-7 -56.5t-28 -31.5 q-18 -6 -35.5 19.5t-35 63.5t-29 73.5t-13.5 46.5q-2 12 -27.5 51t-54 86t-54 83t-34.5 42q-12 14 -33.5 41.5t-35.5 21.5q-16 -2 -22.5 -26.5t1.5 -38.5q6 -20 17.5 -27.5t9.5 -28.5q0 -27 -15.5 -44t-43.5 -48q-20 -20 -35 -52t-32 -71t-30.5 -77.5t-25.5 -63.5 q-25 -51 -52.5 -60.5t-56.5 3.5q-25 14 -24.5 43.5t0.5 38.5q0 10 -4.5 57t-10.5 98q-2 18 -10 71.5t-17.5 127.5t-19.5 156t-17 151.5t-13 118.5q-4 30 -5 46q0 9 2 13zM326 1067l22 -145q8 -53 17.5 -101.5t9.5 -54.5q0 -8 -3 -24.5t-12 -32.5q-8 -23 -12 -50v37v38t4 38 q2 9 2 26q0 18 -2 42q-4 50 -8 98q-10 61 -18 129zM334 68q10 8 18 7t35 34q12 20 43 78.5t64 125.5q39 74 77 164q-6 -27 -14 -47q-4 -18 -9 -34.5t-13 -22.5q-2 -8 -20.5 -45t-39 -85t-44 -91t-38.5 -60q-33 -33 -47 -35h-3q-11 0 -9 11zM653 891q10 -2 34 -44t48.5 -90 t42 -89t17.5 -43q0 -4 -5.5 10t-15.5 33.5t-18 38t-15 26.5q-4 8 -17 33t-32 53q-16 33 -39 72zM911 113q0 -4 7 -7q6 -8 14 -12q25 -8 47 15q14 12 19.5 42.5t5.5 47.5q0 10 7 71.5t14 138t14.5 140t7.5 78.5q0 16 6 77.5t14 129.5q12 80 18 178q-4 -98 -12 -178 q-6 -68 -10 -129.5t-4 -79.5q-2 -16 -9.5 -82t-14.5 -141.5t-15 -142t-8 -89.5q-4 -88 -54 -96q-2 -1 -5 -1l-27 19z" />
<glyph unicode="X" horiz-adv-x="1239" d="M252 1022q-1 7 -1 14q0 33 32 58q20 14 47 26v8q0 4 12 -4q10 -10 16.5 -16t10.5 -27q10 -23 33.5 -73t39.5 -86q23 -39 50.5 -66t37.5 -41q18 -16 27.5 -31.5t7.5 -29.5q-4 -16 -10 -12.5t-14 -4.5q-10 -6 7 -25.5t27 -27.5q6 -14 13 -16q2 -6 2 -9l12 23q4 16 26.5 47 t47.5 70q12 20 35.5 59t48 81t44 75t25.5 45q12 18 36 43.5t32 30.5q0 10 14 18l15 4v-10q0 -6 10 -17q6 -12 27.5 -35.5t13.5 -54.5q-4 -25 -31 -55q-12 -14 -56 -56t-63 -69q-12 -14 -27.5 -40.5t-32.5 -57.5t-35.5 -57.5t-29.5 -34.5q-12 -10 -23 -20.5t-17 -16.5 q-10 -10 -19 -15l16 -18q2 0 9 2q16 8 22 16q8 6 23 0q6 -4 10 -8q-4 0 -8 -2q-2 -6 -6 -7t-7 -3q-10 -4 -11 -7t-3 -5q-4 -8 -8 -13l12 -18q6 -6 28.5 -40t52.5 -70.5t57.5 -74.5t41.5 -55q27 -39 72 -76.5t53 -58.5q1 -6 1 -11q0 -33 -33 -54q-18 -18 -40 -18.5t-36 9.5 q-14 8 -25.5 24.5t-21.5 35.5q-12 18 -33 53t-45 66q-12 16 -32.5 47.5t-43 65.5t-41 62.5t-20.5 39.5q-8 10 -9 43v30q-12 -8 -16 -12l-15 -15t-12 -5q-10 -2 -18 -19.5t-16 -21.5q-12 -18 20 -23q18 -8 16 -10t-4 -19q-8 -16 -38.5 -55t-77.5 -98q-43 -55 -55 -96t-37 -72 q-18 -18 -38 -18q-13 1 -27 9q-34 22 -36 48q-6 29 16.5 58.5t41.5 60.5q12 16 34.5 46.5t47 61.5t44 55.5t27.5 28.5q12 10 32.5 37t29.5 35q12 12 20 31q8 14 10 22l-10 16q-6 10 -48 56.5t-75 87.5q-16 23 -42.5 58.5t-57.5 73.5t-54.5 73.5t-27.5 56.5zM322 51l28 41 q6 -2 15 -2q14 0 30 14q8 8 39 48.5t58 87.5q36 52 75 122q1 -3 1 -6q0 -16 -22 -54q-28 -46 -61.5 -93t-64.5 -89t-37 -44q-8 -12 -33 -21q-16 -2 -28 -4zM453 1081q37 -51 61 -90q23 -37 41 -67.5t20 -32.5q6 -8 -1 -31.5t-7 -15.5q1 6 1 13q0 21 -13 51q-18 38 -41 81 q-25 41 -61 92zM752 605q-4 8 -4 16q0 11 6 22q10 4 42.5 59.5t77.5 116.5q47 66 111 152l-221 -355q2 0 8 -4l12 -14q6 -6 10.5 -21.5t10.5 -29.5q0 -8 16.5 -34t36 -54.5t37.5 -55t27 -36.5q4 -12 -17.5 18.5t-51.5 71.5t-55.5 75.5t-31.5 42.5q-6 12 -14 30zM961 55l8 15 q4 8 6 8t2 -2q-4 -23 -8 -23t-8 2z" />
<glyph unicode="Y" horiz-adv-x="1243" d="M254 1069q8 35 42 39t56 -14q10 -8 23.5 -33t23 -55.5t17.5 -56t16 -36.5q6 -10 25.5 -34.5t43 -50t43 -50t25.5 -35.5q6 -20 6 -30.5t9 -24.5q2 -20 8 -20t20 4q2 0 18.5 20.5t36 44t38 49t26.5 33.5q6 16 23.5 48t40 70t44 74t31.5 52q23 35 46 51q15 10 25 10 q6 0 11 -4q8 -12 32 -31.5t24 -41.5q0 -23 -37 -66t-64 -76q-14 -16 -52 -65t-80 -106.5t-73.5 -105.5t-39.5 -67q-6 -23 -8 -67q-2 -25 -2 -52q0 -21 1 -44q2 -50 5.5 -92t9.5 -54q2 -14 9 -44t8 -56.5t-8 -48t-46 -21.5t-52.5 21.5t-16.5 48t3 56.5t4 44v65.5t-3 110.5 t-4 104.5t-1 53.5q-2 6 -40 55t-83 109q-23 27 -54.5 74.5t-62 95t-50 89.5t-17.5 60zM459 1044q35 -59 65 -102q31 -39 50.5 -72.5t23.5 -42.5zM686 63l23 23q8 6 20 29q4 10 14 24q-6 113 -6 207q-4 78 -4 143.5v71.5q0 8 45 69.5t101 143.5q65 92 143 203q0 -4 -44 -71.5 t-93 -143.5q-61 -90 -131 -193v-159q0 -63 -3 -128t-3 -98q0 -43 -9.5 -63.5t-21.5 -34.5q-16 -16 -31 -23z" />
<glyph unicode="Z" horiz-adv-x="1253" d="M287 1115q-3 9 -3 16q0 9 5 14q4 8 14.5 4t20.5 -4q27 -4 49 -8q16 -4 35.5 -5.5t29.5 -1.5q8 0 64.5 1.5t121 1.5t119 1.5t58.5 2.5q20 0 34.5 15t32.5 17h2q16 -1 44 -29q30 -30 30 -48q0 -23 -12 -60t-25 -49q-8 -8 -48 -64.5t-89 -125t-96 -131t-62 -78.5 q-16 -20 -57 -70.5t-81 -106t-73.5 -103.5t-33.5 -50q0 -10 28.5 -19.5t46.5 -9.5t32.5 7.5t29.5 15.5q16 6 42.5 -8.5t51.5 -16.5q10 -6 48 -3t80 7t81 12.5t55 16.5q23 13 48 13q14 0 30 -4q43 -11 43 -52q0 -43 -26.5 -77t-59.5 -42q-12 -1 -22 -1q-19 0 -33 5 q-20 8 -54 8q-14 0 -72.5 3.5t-126 5.5t-125.5 4t-67 2q-23 0 -58.5 2t-47.5 22q-5 11 -5 27q0 17 6 40q11 44 11 56q0 6 13.5 38t36 71t46 80t39.5 57q14 18 67.5 83t111 138.5t104.5 134t49 62.5q6 6 14.5 28.5t-10.5 49.5q-16 27 -50 20.5t-50 -12.5q-16 -8 -26.5 -4 t-35.5 -4q-14 -2 -64 -2h-110h-145v71q0 14 -6 36zM500 338q4 6 12 16q8 8 12 16.5t13 20.5q2 8 32.5 48t74.5 99.5t94 126t96.5 125t78 101.5t37.5 53q10 12 16.5 31.5t14.5 40.5q2 20 4 45q6 -13 6 -28t-5 -31q-11 -34 -30.5 -65.5t-41 -61t-31.5 -44.5 q-10 -14 -59.5 -83.5t-107 -147.5t-106.5 -146.5t-51 -84.5q-8 -25 14 -25q10 0 25 8z" />
<glyph unicode="\" horiz-adv-x="1126" d="M217 1020q0 20 9.5 47t21.5 35q8 6 13 7t18 -13q2 -6 10 -14.5t21.5 -17.5t29.5 -32.5t33 -64.5q20 -43 69.5 -126t103.5 -169t103 -156t60 -88q8 -16 31.5 -52t49 -75t49 -77t33.5 -58q41 -72 15 -88q-8 -8 -23.5 9t-38 46t-43 60.5t-41.5 60.5q-8 18 -47 71.5t-89 127 t-106.5 154.5t-104.5 152.5t-85 120t-43 56.5q-49 61 -49 84zM588 723q92 -135 164 -234q59 -86 101 -151.5t26 -56.5q-14 12 -60.5 79.5t-95.5 151.5q-61 96 -135 211z" />
<glyph unicode="^" horiz-adv-x="1232" d="M279 285q27 39 45 77l55 117q8 14 27.5 53t42 82t41 80t18.5 45v76q0 16 12 20.5t37 12.5q25 6 76 -19.5t69 -31.5q16 -8 20.5 -19.5t18.5 -93.5q12 -45 35 -92l4 -6q16 -39 43 -83t57.5 -85t56.5 -72t34 -35q16 -20 14 -32.5t-20 -34.5q-16 -25 -27.5 -28t-40.5 11 q-23 8 -29 39t-10 47q-16 10 -24 25l-9 -2q-8 -8 -8 1t-12 25l-4 15q-35 45 -55.5 92t-37 88t-30.5 69.5t-29 41.5q-35 16 -57.5 -2.5t-30.5 -38.5q-6 -20 -5 -34.5t-9 -45.5q-4 -10 -27.5 -66.5t-51.5 -118t-50.5 -109.5t-26.5 -48q-6 0 -16 11t-23 20q-14 6 -25.5 4 t-21.5 4q-14 8 -16 15t-10 26zM684 872q23 -8 35 -18q18 -6 31.5 -22.5t21.5 -38.5q31 -113 81 -200t99 -152.5t88 -100.5t41 -39q2 0 -15 17.5t-45 44t-61.5 62.5t-58.5 73q-27 35 -50.5 88t-43 101t-32.5 86t-19 44q-6 8 -18.5 16.5t-22.5 16.5q-15 12 -31 22z" />
<glyph unicode="_" horiz-adv-x="1048" d="M184.5 -71.5q-2.5 10.5 14.5 12.5q20 8 77 8t82 -8q10 -2 70.5 -1t126.5 1h168q12 0 40 14t58 2q27 -8 38 -43t9 -55q-6 -23 -18 -42.5t-37 -23.5q-27 -8 -35 -1t-24 7h-412q-25 0 -61.5 -1t-47.5 7q-16 6 -22 19q-6 8 -6 20l14 6q14 8 14 19q2 10 -16 23.5t-22 21.5 q-8 4 -10.5 14.5z" />
<glyph unicode="`" horiz-adv-x="1216" d="M377 1427q16 29 47 34t51 -19q18 -23 53 -52.5t60 -43.5q25 -10 48 -30t52 -34q31 -10 61.5 -37.5t10.5 -27.5q-16 0 -19.5 -5.5t-19.5 -5.5t-51 15q-20 6 -37 16q-33 27 -68 45q-27 16 -52.5 31.5t-33.5 21.5q-23 8 -29 15.5t-24 15.5q-18 2 -43 18.5t-6 42.5zM444 1313 l86 -53q23 -14 56 -27q14 -8 30 -16l31 -19l-106 47l-41 23q-8 4 -16.5 6t-18.5 8q-10 2 -12 2q-8 0 -3 11.5t-6 17.5z" />
<glyph unicode="a" horiz-adv-x="1212" d="M238 90q4 31 20 69t35.5 70.5t28.5 53.5q18 29 29 63.5t14 50.5q6 20 8 47t26 99q27 78 64 149.5t37 87.5q0 14 3 31.5t11 36.5q8 23 20.5 40t12.5 30q0 14 -8.5 32.5t-6.5 42.5q4 12 13.5 29.5t22.5 33.5q12 16 26 26q7 5 13 5q7 0 14 -6q12 -12 19 -36.5t13 -51 t8.5 -51t8.5 -35.5q4 -12 21.5 -54t39 -92t43 -102.5t31.5 -87.5q12 -31 33.5 -89t46 -116.5t44 -107.5t25.5 -61q10 -27 37 -50.5t17 -50.5q-4 -33 -17.5 -45t-54.5 -4q-39 4 -51.5 37t-18.5 53q0 10 -9 30.5t-18.5 38t-20.5 35t-13 19.5q-10 8 -33.5 -8t-48.5 -29 q-25 -14 -54.5 -8t-97.5 6q-66 0 -94 -11t-51 -11q-25 0 -34 18.5t-27 13.5q-16 -4 -11.5 -19t-1.5 -36q-2 -16 -13 -54t-28 -63q-16 -29 -31.5 -18.5t-27.5 14.5q-15 3 -15 25q0 4 1 10zM344 25q0 6 6 12q2 8 8.5 13t14.5 11q10 12 24 48q5 14 13 34v-9q0 -33 -27 -71 q-12 -16 -39 -38zM393 354q-3 -7 -3 -11q0 -6 5 -7q14 -6 28.5 -9t55.5 11q39 12 57.5 21.5t26.5 0.5q23 -10 84 -10q14 0 38 -6t45.5 -10t35.5 -2t16 14q5 18 5 38q0 12 -2 26q-5 36 -23 71q-6 14 -30.5 72.5t-54.5 122t-54.5 113t-32.5 53.5q-18 6 -22.5 -6.5t-18.5 -32.5 q-12 -16 -26.5 -30.5t-8.5 -16.5q10 -6 21.5 -13.5t11.5 -15.5q0 -2 -12.5 -36t-30 -78t-32.5 -86t-19 -60t-16.5 -39.5t-25 -39.5t-18.5 -34zM424 160q61 8 121 10q49 4 94 5h12q36 0 58 -5zM510 455q8 33 20 69q6 31 17.5 58.5t21.5 35.5q-6 -20 -8 -36q-2 -25 -14 -41 q-2 -8 -8.5 -22.5t-14.5 -31.5zM539 420h16q14 0 25 4q14 4 22 -12.5t12 -30.5zM717 1016q94 -221 164 -395q29 -74 56.5 -144.5t46.5 -120.5q20 -50 30 -78q6 -18 6 -21q0 -1 -0.5 -1t-1.5 2q-8 2 -20.5 37t-33 87t-47 119.5t-57.5 141.5q-63 164 -143 373z" />
<glyph unicode="b" horiz-adv-x="1220" d="M221 934q-2 4 -2 8.5t2 9.5q8 10 45 23.5t64 28.5q29 10 84 18q25 2 59 2q49 0 90 -2q33 -6 68 -7t47 -3q20 -12 46 -21.5t42 -13.5q23 -2 15.5 10t-5.5 27q4 14 15.5 -13.5t19.5 -46.5q6 -12 22.5 -46t24.5 -74v-12q0 -32 -9 -71q-11 -46 -22 -55q-6 -8 -8 -33.5 t-6 -29.5q-8 -20 -33 -51q-4 -10 8 -31q2 -10 11 -23l6 11q8 8 20 0q10 -10 17.5 -40t23.5 -59q16 -33 24.5 -73.5t8.5 -104.5q0 -31 -17.5 -64.5t-37 -59t-38 -45t-20.5 -25.5q-6 -6 -13 -3t-30 -4q-18 -2 -57 -2t-92 -8q-31 -5 -77 -5q-23 0 -49 1q-79 4 -134 14 q-53 12 -63.5 51.5t-10.5 51.5q0 18 -2 31.5t-16 50.5q-8 16 -10.5 98t-2.5 178t2 175t2 94v71.5t-4 52.5q-4 11 -8 19zM283 279q8 39 14 75q8 27 12 52.5t6 33.5q0 8 19 17l12 8l-4 -23q-8 -27 -8 -39q0 -16 2 -52t8 -56q8 -16 11 -51t-9 -37h-16t-17 16q-16 23 -16 45 q-2 12 0 25v-62q0 -25 4 -46t14 -25q18 -12 39 -17t37 2q37 14 45 11q2 -4 37 -10.5t78 -7.5h17q35 0 70 3q44 4 69 19q29 12 51 41.5t38.5 63.5t20.5 69t-14 59q-39 49 -101.5 95.5t-107.5 46.5q-20 0 -51 -3.5t-62 -5.5q-37 -2 -69 -2q-12 2 -21.5 6.5t-15.5 8.5 q-10 2 -19 8l-22 -31q-20 -29 -29 -37q-8 -10 -10 -10h-4zM291 633q0 -12 2 -31.5t2 -42.5v-49q12 0 27 6q31 8 22 31q-6 18 -10 40.5t12 30.5q10 0 42 1.5t72 1.5h75.5h48.5q27 0 49 -11.5t33 -19.5q6 -4 15 -23.5t21 -19.5q4 0 10.5 9t14.5 26q8 14 16 36l-49 -22 q8 12 23 25q8 14 17 33.5t18 50.5q8 53 8 101t-47 77q-47 31 -82 38q-22 4 -42 4q-11 0 -22 -1q-14 0 -38.5 -2t-50 -5.5t-44.5 -7.5l-18 -4q-4 -14 -12.5 2.5t-20.5 20.5q-8 2 -43 -3t-43 -12q-2 -2 -4 -43t-2 -89v-93v-55zM291 760q0 35 12 61q2 16 3 30.5t9 25.5 q4 12 15.5 5.5t11.5 -16.5q0 -8 -4 -14q-4 -8 -6 -13l-4 -10q-8 -8 4 -40.5t14 -55.5q10 -27 15 -43t-15 -22q-8 -8 -13 6t-14 22q-6 8 -17 28.5t-11 35.5zM375 816.5v25.5q2 12 26.5 18t51.5 8q16 3 34 3t37 -3q-35 -2 -59 -4q-27 -6 -44.5 -8t-21.5 -2q-8 0 -13 -48 t-5 -71q0 -10 -2 2.5t-3 35t-1 44zM389 254q0 49 2 88q4 37 4 66.5t8 31.5v-53q0 -23 1.5 -42t1.5 -28q0 -8 -1.5 -17t-1.5 -21v-25l86 -25zM436 721h76q27 0 54.5 -1t37.5 -9zM682 1112q23 0 57.5 -21.5t68.5 -56.5t64.5 -78t40.5 -82q8 -30 8 -60q0 -15 -2 -29 q-6 -44 -15 -86t-20.5 -72.5t-17.5 -44.5q-2 -16 15.5 -29.5t37 -40.5t35.5 -79q9 -30 9 -71q0 -29 -5 -63q-12 -82 -46.5 -141.5t-69.5 -98.5q-39 -45 -90 -73q14 12 34 26q35 27 74 78q39 55 58.5 122t27.5 138q1 8 1 16q0 29 -11 59q-14 38 -33.5 69.5t-38 54t-18.5 24.5 q-4 8 26 29q10 16 18.5 97t8.5 169q-2 45 -33.5 88t-74.5 80q-48 39 -109 76z" />
<glyph unicode="c" horiz-adv-x="1222" d="M242 557q4 150 53 285q27 70 73 111.5t89 63t75.5 28t45.5 5.5q16 0 46.5 6.5t45.5 14.5q14 6 15 -1t20 -13q6 -6 36.5 -33t69.5 -62.5t70.5 -71.5t44.5 -59q8 -22 8 -43q0 -20 -6 -40q-14 -42 -23 -50q-4 -6 -26.5 -5t-38.5 28q-12 10 -17.5 40t-13.5 42 q-4 18 -16.5 38.5t-26.5 35.5q-8 2 -41 13t-75 18t-78.5 8.5t-53.5 -5.5q-16 -8 -51 -32.5t-68.5 -67.5t-58.5 -105q-23 -57 -23 -133v-12q6 -170 94.5 -278.5t178.5 -122.5q14 -3 27 -2q29 0 58 11q42 17 72.5 40.5t50 49.5t27.5 38q2 10 8.5 33.5t11.5 49.5t8 48.5t9 26.5 q4 20 22.5 27t37.5 7q14 0 26.5 -30.5t9.5 -61.5q-6 -16 -12 -61t-27.5 -99.5t-61.5 -101.5t-103 -69q-57 -16 -110 -16q-73 0 -139 31q-114 54 -190 191q-74 128 -74 269q1 8 1 16zM384 555q-1 13 -1 27q0 48 18 100q16 63 46 103t59 61.5t48 26t24 -0.5q-43 -18 -84 -55 q-31 -27 -58.5 -76t-32.5 -120q-2 -34 -2 -64q-1 -96 19 -151q23 -65 26 -65v1q0 2 -14 33t-28 75t-20 105zM657 1133q18 0 35 -9q12 -6 30.5 -13t35.5 -15q37 -18 92 -68.5t98 -124.5q39 -72 39 -134t-8 -83q-4 -16 -29 -16q-14 0 -24 4q8 0 16 8q8 4 31 33q6 10 6 31 q0 18 -4 40q-8 52 -57 148q-27 45 -70 84t-84 63q-53 29 -107 52zM670 -8q33 8 71 24q31 18 71 44t79 67q43 39 63.5 96.5t28.5 106.5q12 59 12 114q1 -18 1 -37t-1 -38q-6 -35 -14 -83t-39 -100q-29 -59 -72 -95t-90 -56q-53 -27 -110 -43z" />
<glyph unicode="d" horiz-adv-x="1224" d="M253 684v28q0 53 3 79q20 68 21.5 91t1.5 54v23.5t4 25.5q0 14 4 29q6 29 33.5 42t56.5 13t88 -3q14 -1 25 -1q39 0 59 8q9 1 27 1h19q32 -1 73 -11t79.5 -29.5t67.5 -52.5q29 -31 56.5 -103.5t48.5 -161.5q20 -90 23 -182v-20q0 -79 -21 -135q-51 -133 -134 -222 t-256 -89q-92 0 -142 14t-73.5 29.5t-28.5 33t-5 31.5q0 25 -3.5 76t-3.5 70q0 10 -5 71.5t-11 139t-7 151.5zM352 930q0 -16 1 -31.5t1 -32.5q0 -20 1 -87.5t5.5 -148.5t6.5 -149.5t2 -79.5q0 -25 11 -67.5t13 -65.5q6 -25 2 -27.5t-10 -19.5q-10 -20 -2 -27.5t27 -17.5 q14 -10 28 6q8 4 8 13q25 -2 46 -2q18 0 37.5 -3.5t33.5 -3.5q12 -2 38 -7t58.5 5.5t73.5 47t82 114.5q41 80 44 167v24q1 73 -15 138q-18 75 -48 137t-51 91q-29 27 -63.5 39t-71.5 12t-68.5 -6t-41.5 -10q-11 -4 -26 -4q-24 0 -60 10q-29 8 -62 23v-37zM416 883 q6 8 25.5 10t43.5 2q29 0 64 -4l-94 -10q-2 -25 -2 -52q-4 -23 -4 -46v-40q0 -18 -1.5 -91.5t-4.5 -154.5t-6 -143.5t-7 -60.5q-4 0 -5 92t-3 203q-6 131 -6 295zM524 23h47q41 0 72 12q33 4 105.5 39t164.5 149q47 59 64.5 145.5t23.5 170.5v31q0 79 -8 163q17 -87 17 -176 q0 -59 -8 -121q-20 -152 -125 -284q-53 -66 -115 -94.5t-115 -34.5q-33 -5 -64 -5t-59 5z" />
<glyph unicode="e" d="M256 403q0 37 8 79t12 59q4 10 2 38.5t-5 61.5t-7 68.5t-4 58.5t2 62.5t7 83.5t14.5 79t23.5 45q13 6 57 8q22 1 46 1.5t49 -1.5q51 -2 95 -4t58 -2t42 2t54.5 6.5t51 8.5t37.5 10q17 10 45 15q11 2 19 2q14 0 24 -5q20 -8 37.5 -43t13.5 -57q-4 -20 -17.5 -42t-48.5 -24 q-15 -3 -32 -3q-18 0 -38 4q-40 6 -65 6q-14 0 -73.5 -2.5t-126.5 -4.5q-80 -6 -175 -8q-4 -12 -4 -56v-95v-133q23 0 39 4q20 2 38 2t30 6q10 0 31.5 -3t45 -6t47 -3h34.5q20 4 55 17t57 9q18 -10 45 -19.5t21 -49.5q-2 -39 -10.5 -64t-51.5 -29q-39 -8 -51 -3t-29 14 q-12 4 -41.5 4h-64.5t-65.5 -2t-36.5 -2q-16 -8 -39 -2t-33 -5q-8 -2 -12.5 -30.5t-7.5 -62.5q-2 -26 -2 -51v-17q1 -34 5 -37q8 -20 9.5 -40t1.5 -26q0 -8 -8.5 -33.5t6.5 -33.5q12 -10 46 -1t50 9q12 0 53 -4t90 -10.5t93.5 -10.5t60.5 2q34 4 94 27q43 17 68 17 q10 0 16 -3q29 -6 36 -46t7 -64q-4 -25 -35.5 -46.5t-50.5 -21.5q-12 0 -32.5 3t-48 8.5t-53.5 11.5t-36 6h-68.5h-131t-129 1t-68.5 1q-23 6 -37 32.5t-14 36.5q0 2 -4.5 44.5t-9.5 92.5t-8 97t-3 63zM395 686q2 8 8 19q2 8 3 36v70q0 25 4 55h194q-37 -6 -65 -12 q-25 -8 -46.5 -10t-27.5 -8q-12 -6 -10 -38t12 -65q4 -20 27.5 -24t47 -8.5t41 -4.5t15.5 0q-8 -2 -38 -2t-68 -6q-41 -2 -97 -2zM406 451q8 -20 14 -41q8 -23 11 -50.5t9 -64.5q2 -35 3 -45t10 -10q4 0 12 12l-45 -8q-2 49 -6 94q-4 39 -6 71t-2 42zM457 426q-1 0 -1 -1 l12 4q15 5 42 9t52.5 7.5t35.5 -5.5q2 0 -17.5 -1t-47 -5t-51 -6t-25.5 -2zM713 698q10 -2 24 -10q16 -8 33 -29z" />
<glyph unicode="f" horiz-adv-x="1232" d="M307 1024q4 4 52.5 7t110.5 4t120.5 2t81.5 1q43 0 96 17.5t98 34.5q43 18 58 21h6q13 0 31 -13q6 -8 11 -27.5t5 -41t-7 -39t-20 -29.5q-25 -14 -51 -14q-7 0 -13 1q-34 4 -42 13q-2 4 -39 4h-80t-81 -2t-46 -2h-35.5t-53.5 2t-54.5 2h-34.5q-39 0 -51 -39v-47v-73 v-69.5v-38.5q-6 -10 -7.5 -30.5t-1.5 -28.5q0 -4 4.5 -12.5t10.5 -16.5t12 -15t10 -5q8 10 23.5 15t34.5 13q6 2 26.5 2.5t44 0.5t42 -1.5t30.5 -1.5q14 0 56 8.5t69 16.5q29 6 53.5 -8t20.5 -33q-4 -16 -17.5 -34.5t-34.5 -26.5q-16 -2 -48.5 3t-53.5 -3q-10 -6 -39 -6 h-63.5t-64.5 3t-36 3q-10 6 -22 7t-25 3q-12 4 -31 4l23 -186v10q0 8 3 15t3 18q0 18 17 37q8 6 20 14q-6 -23 -12 -47q-8 -23 -12.5 -47.5t-4.5 -42.5q-2 -35 -6 -35q-2 0 -8 4q6 -10 6 -25v-24.5t2 -22.5q4 -16 16.5 -26.5t36.5 -26.5q25 -18 11.5 -30.5t-25.5 -18.5 q-10 -6 -46 -3t-48 5q-27 8 -27 63v75t1 128.5t1 125.5v71v37.5t-1 72.5t-1 78v55q0 37 6.5 79t6.5 46q0 10 -12 36q-8 16 -8 25q0 6 3 9zM388 794q-1 13 -1 25q0 29 5 51q6 27 27 27q5 0 11 -2q10 -4 8 -20.5t-6 -36t-12 -38t-8 -22.5q4 -10 6 -27.5t2 -36t-2 -31.5t-6 -11 q-6 2 -13.5 40t-10.5 82zM446 115q6 0 13 16q8 14 9 42t1 89q-8 115 -10 164q-4 29 -13 43q8 -12 21 -27q4 -12 10 -33.5t6 -52.5v-67.5t-2 -76.5t-6 -62.5t-6 -28.5q-8 -6 -14 -6h-9zM461 745.5q0 26.5 3 55t4 54.5q1 23 2 23t1 -1q8 -8 61.5 -10.5t112.5 -2.5q37 -3 79 -3 t89 3h-139q-49 0 -96.5 -3t-53.5 -3q-10 0 -20 -22.5t-17.5 -50t-12.5 -48t-7 -18.5q-6 0 -6 26.5zM528 440h99q-10 -10 -31 -10q-10 0 -21 2q-23 0 -47 8z" />
<glyph unicode="g" horiz-adv-x="1232" d="M213 502q0 147 38 245.5t91 163t109.5 92t95.5 35.5q27 3 52 3q52 0 95 -14q62 -21 99 -58q16 -16 38.5 -42t43 -54.5t34 -55t13.5 -45.5q1 -6 1 -11q0 -31 -19 -57q-21 -30 -40 -36l-14 -9q-14 -8 -33 5q-33 19 -33 45q0 4 2 9q7 32 -12 54q-18 18 -46 59t-73 58 q-35 10 -81 10h-16q-56 -2 -124 -47q-35 -23 -55.5 -67t-32.5 -101t-16 -120q-2 -31 -2 -61.5t2 -60.5q4 -59 29.5 -112.5t66.5 -96.5t87 -72.5t89 -31.5q15 -1 29 -1q68 0 104 32q43 39 62 106q6 25 6 44q0 26 -11 42q-20 27 -36 41q-14 16 -15.5 8t-17.5 -14 q-16 -8 -35.5 -15t-38.5 3q-18 4 -43 35q-17 19 -17 42q0 13 5 27q13 39 45 39h3q34 -2 93 -2q29 0 51.5 11.5t36.5 23.5q12 14 27 39q0 -2 4 -8q4 -8 6 -13.5t10 -11.5q12 -16 31 -35.5t12 -42.5q-2 -25 -7 -45t-5 -51q0 -14 2 -45t2 -62.5t-2 -62.5t-8 -43q-8 -10 -38 -37 t-73 -57.5t-91 -52t-91 -21.5t-110.5 23.5t-128 79t-105.5 152.5t-45 245zM383 496q-2 28 -2 53q0 57 13 99q18 59 36 97q23 45 53 74q-23 -39 -37 -84q-12 -39 -23 -93q-8 -40 -8 -85q0 -16 1 -33q6 -131 36.5 -177t63.5 -68q14 -12 30.5 -18.5t31.5 -8.5q14 -6 28 -8 q-14 -14 -26 -29q-25 -25 -33 -25q-6 0 -29.5 12.5t-52.5 48.5t-54.5 93.5t-27.5 151.5zM606 1100q12 1 24 1t25 -1q25 -2 63 -15.5t91 -46.5q49 -33 76.5 -74.5t46.5 -80.5q12 -41 18 -88v8q0 2 -1 5t-1 11q-8 10 -15 42t-28 61q-23 31 -67.5 68.5t-87.5 62.5 q-39 25 -91.5 32t-52.5 15zM711 610q4 6 17 6q5 0 12 -1q22 -3 44 -3q25 -2 50 -2h-123zM809 27l55 57q23 23 42.5 42t27.5 28q10 14 13 44.5t3 69.5q0 23 3 55.5t3 69.5t-3 68t-9 41q-8 10 -19.5 27.5t-19.5 31.5l-31 35q2 7 7 7q3 0 9 -5q11 -10 23.5 -25.5t23.5 -32 t13 -24.5q6 -6 13.5 -41t9.5 -81t2 -97t-8 -88q-10 -39 -36 -71t-57 -56q-31 -31 -65 -55z" />
<glyph unicode="h" horiz-adv-x="1243" d="M246 830.5q0 68.5 12 95.5q14 29 37.5 44t51.5 19t47.5 4h29.5q8 0 8 -18v-19l-4 -225q0 59 -2 119q-2 39 -7 77t-7 38t-27 -9q-10 -2 -16 -2q2 -4 6 -10q8 -31 8 -43q0 -23 -14 -72q-6 -27 -5 -54t1 -58q0 -33 5 -72t33 -29q8 4 14.5 15.5t8.5 21.5l6 31q0 -8 2 -20 q4 -12 6 -23.5t11 -26.5q8 -29 31.5 -36t78.5 -7q45 1 103 13q32 7 50 6q15 0 21 -4q14 -14 28.5 -30.5t31.5 -20.5q14 -10 22 -3t14 27q4 4 8.5 30.5t6.5 57.5t2 61.5v51.5q0 12 -2 40.5t-5 58.5t0 58.5t9 34.5q4 10 27.5 24.5t50.5 27.5q34 14 69 34q14 -18 2 -31.5 t-24 -13.5q-4 0 -13.5 -2t-13.5 -6q-4 -6 -6 -10l8 -12q23 -16 23 -37q0 -14 -12.5 -53t-12.5 -66v-56v-103.5v-134.5t-1 -134.5t-2 -106.5t-1 -59q0 -16 3 -37.5t13.5 -47.5t11.5 -44t-1 -31q-20 -16 -50 -30.5t-47 -8.5q-4 2 -11 25.5t0 51.5t8 56.5t1 36.5q0 18 -1 63.5 t-9 95.5t-9 89t-3 47q-2 6 -12.5 12.5t-16.5 12.5l-22 10q-2 -4 -13 -10q-8 -14 -18 -17q-10 -8 -22.5 -9t-65.5 -1q-27 0 -70 1t-78.5 5t-66.5 5t-37 1q-8 0 -26.5 4.5t-36.5 -6.5q-20 -16 -1 -38.5t19 -34.5q0 -8 -2 -50t-6 -90l-6 -129q6 -12 14 -26q8 -10 14 -22.5 t6 -20.5q0 -18 -29.5 -40t-58.5 -28h-5q-14 0 -21 10q-8 12 -14.5 23.5t-11.5 26t-5 18.5v61.5t5 128t5 128v73.5q0 12 -10 74.5t-11 136.5t-1 142.5zM426 41v10q0 6 1 11.5t5 15.5q6 23 6 62.5t-4 64.5q0 8 -3 41t-3 69.5v59t6 20.5q16 -8 16.5 -40.5t0.5 -102.5 q0 -41 -4.5 -79t-12.5 -64q-6 -37 -8 -68zM469 702l217 -4l-100 -12q-27 -1 -51 -1h-23q-33 1 -43 17zM1008 404.5v49v31.5v38v73t2 75t2 42q0 8 1 33.5t1 56.5q0 39 2 78q0 -109 2 -197q2 -78 6 -141.5t4 -75.5q0 -10 -4 -25.5t-4 -27.5q-2 -16 -2 -31q2 -55 2 -88v-109 q-2 -6 -2 -34q0 -18 -2 -35v88v69.5t-2 44.5q-2 6 -4 33t-2 52.5z" />
<glyph unicode="i" horiz-adv-x="1232" d="M367 967q2 27 18 39t34.5 15t41 0t35.5 -3l60 -4h16q27 0 67 4q55 10 67.5 27.5t24.5 25.5q12 4 25.5 17.5t31.5 7.5q20 -6 20.5 -13.5t-15.5 -11.5q-14 -6 -21 0l-6 4q12 -2 27 -2q10 -2 22 -2t19 -8q8 -8 12 -26.5t4 -35.5q0 -23 -6 -51v25v26.5t-2 32.5q-8 31 -46 30 t-42 -9q-10 -6 -1 -13.5t25 -13.5q35 -12 45 -53q8 -20 -9 -40t-34 -34q-18 -20 -52 -13t-44 13q-27 10 -53 0q-12 -8 -12.5 -22.5t-0.5 -44.5v-525v-37.5t2.5 -51t3.5 -48t9 -22.5q10 -2 31.5 16t35.5 18q10 0 29 -14t29 -12q35 8 55 -13q14 -14 7 -44.5t-23 -55.5 q-16 -29 -52 -30h-7q-32 0 -58 8q-31 4 -70 7t-71 3q-37 0 -95 -5q-19 -2 -33 -2q-28 0 -34 7q-8 4 0 20.5t18.5 31.5t22.5 30.5t20 15.5q18 2 31.5 -5t32.5 -1q23 8 30 29.5t13 46.5v90t-3 176t-5 180t-2 111q0 109 -35 153q-8 6 -31 6.5t-49 1.5q-24 1 -42 11 q-12 7 -13 23q0 6 2 14zM492 1104q14 7 54 7h10q48 -1 99 -7q61 -2 133 -8zM692 801l4 -258q4 -98 6.5 -184.5t6.5 -96.5q0 -6 1 -10t1 -6q0 -4 6 -10l-17 -5zM723 219q6 21 23 21q4 0 10 -2q26 -8 61 -27q34 -16 34 -56q0 -47 1 -49q1 -4 2 -4t-1 12q-3 18 -3 31 q0 12 -16.5 31t-24.5 25q-4 0 -17.5 2t-31 2t-27.5 3t-10 11z" />
<glyph unicode="j" horiz-adv-x="1230" d="M358 319q4 35 16.5 54.5t27 26t20.5 14.5q2 6 10 12t17 14l22 13l14 -33q-10 0 -20 -2q-16 -6 -19 -15q-8 -14 -9 -49v-7q0 -33 9 -81q14 -55 47 -74.5t54 -29.5q25 -12 53 -17q14 -6 33 -10l-25 -20q10 0 25 4q14 4 32.5 5t39.5 9q49 14 50 38t17 83q8 16 9 71.5t4 129 t3 152.5t-3 149.5t-3 120v55.5q10 23 29.5 53.5t32.5 30.5q14 0 18 -25t8 -37q0 -170 -4 -313q-2 -123 -5 -239.5t-9 -165.5q-18 -96 -89 -154.5t-140 -58.5q-70 0 -143.5 48t-104.5 160q-17 45 -17 77v11zM502 334q0 -29 22.5 -52.5t36.5 -35.5q8 -12 27 -19q12 -4 20 -4 q-4 -6 -12 -12q-12 -6 -21 -6q-12 0 -30.5 14t-26.5 35q-10 16 -13 52t-3 28zM874 1049q6 10 22 16q6 2 9 2q7 0 6 -8q-6 -8 -25 -15q-14 -6 -14 -1q0 2 2 6zM901 193v8q0 4 10 22q6 10 10.5 36t4.5 36v299q0 125 2 287q0 -147 4 -271q0 -98 2 -194q1 -33 1 -57 q0 -47 -3 -62q-4 -41 -19 -74q-8 -14 -12 -30zM920 1012l6 -2q0 -6 1 -7.5t1 -9.5q0 -5 -1 -5t-1 9q-6 6 -6 15z" />
<glyph unicode="k" horiz-adv-x="1236" d="M268 934q-2 6 -2 10q0 11 8 21q4 14 27 33.5t39 27.5q8 2 11 6t11 4h13q10 12 20 19q20 16 27 16q4 -6 17.5 -25.5t17.5 -27.5q0 -6 2 -41t2 -74t-2 -74.5t-2 -44.5q-4 -6 -6 -17t-5 -19q-6 -14 -8 -21q2 37 8 76q3 37 3 69t-3 60q-6 55 -6 69.5t-10 22.5q-8 10 -35 10 q-10 0 -18 -8q-2 -2 -2 -8q2 -8 10 -21q2 -10 6 -21t4 -20q0 -16 -13 -53t-13 -45q0 -4 5 -22.5t5 -28.5v-27.5t-1 -46t-1 -48v-30.5q0 -18 1 -33.5t-3 -21.5q-8 -2 -21.5 11.5t-17.5 19.5q-10 2 -10 -33t4 -70q10 -61 14 -61t29.5 22.5t52.5 48t51.5 44t30.5 24.5 q6 4 25.5 39t46.5 64q8 14 35.5 41.5t56 55.5t55.5 55.5t35 39.5q18 16 48 59.5t46 55.5q23 12 27 18l18 6q2 8 10 11q14 8 17 12q8 0 33.5 -6.5t27.5 -14.5q8 -6 10 -33.5t-8 -41.5q6 0 6 8q0 14 -6 29l-4 22h-8q-14 0 -23 2q-12 6 -16 13.5t-12 -1.5l-10 -6q8 -16 18 -30 q6 -10 11 -23.5t3 -17.5q-6 -8 -25.5 -30t-46 -48.5t-56 -52t-52.5 -44.5q-39 -35 -88 -89t-59 -66q-12 -10 -13 -17v-6q55 -68 101 -129q43 -49 77.5 -98t45.5 -64q8 -14 24 -37.5t34.5 -48t33 -44t18.5 -23.5q18 -10 30.5 -14.5t12.5 -18.5q2 -18 -2 -51t-33 -49 q-24 -16 -42 -15.5t-29 15.5q-16 16 -28.5 46t-25.5 52q-8 8 -21 35t-32.5 57.5t-41 56t-32.5 44.5q-8 16 -30.5 47.5t-44 63.5t-42 57.5t-26.5 33.5q-8 6 -15 10.5t-10 6.5l-8 6q-23 -27 -37 -47q-16 -20 -31.5 -35.5t-19.5 -24.5q-14 -10 -24.5 -24.5t-20.5 -34.5 q-12 -16 -8 -20.5t4 -8.5v-24.5t2 -44t4 -45t2 -31.5q4 -16 4 -40t2 -36q0 -8 6.5 -22.5t6.5 -26.5q0 -14 -18.5 -30.5t-41.5 -26.5q-11 -3 -19 -3q-23 0 -34 23q0 6 -1 53t-1 102.5v104.5v60q0 23 7 44t1 52q-2 27 -4 65.5t-2 51.5q0 4 -4 28.5t-5 57t-3 62.5t-2 42 q0 10 -2 29.5t-5.5 42t-4.5 41t-1 22.5q0 13 -6 29zM446 63q2 6 7 13l10 20q2 12 0 50t-2 49q0 2 -2 26.5t-6 50t-5.5 49t-1.5 29.5q0 8 25 43q13 13 25 33q-4 -8 -9 -20q-2 -4 -6 -14.5t-6 -16.5q-10 -16 -7 -53t7 -121q1 -17 1 -31q0 -20 -2 -36q-3 -24 -11 -46 q-6 -16 -17 -25zM709 623q2 -12 53 -77t107.5 -146t104.5 -150.5t52 -83.5q4 -18 4 -35t-4 -35t-12 -35q0 2 4 15q0 8 2 16t2 17q0 16 -4 34.5t-4 26.5q0 2 -16.5 24.5t-36 53.5t-40 58.5t-38.5 47.5q-12 16 -41 62.5t-60 89.5q-34 58 -73 117z" />
<glyph unicode="l" horiz-adv-x="1236" d="M301 1049q5 13 29 33q16 13 34 13q9 0 19 -3q31 -14 36 -66q1 -9 1 -17q0 -37 -19 -48v-314v-110.5t2.5 -103.5t2.5 -78.5v-32.5q0 -23 5 -77.5t5 -62.5q0 -10 23.5 -9t35.5 1h307q23 0 78 14.5t82 14.5q28 0 46 -33q12 -22 12 -45q0 -11 -3 -23q-6 -35 -33.5 -48 t-43.5 -13q-20 0 -33 6t-27 6q-6 0 -73.5 3t-149.5 4t-149.5 3.5t-71.5 2.5q-8 0 -39 11t-37 27q-2 10 -7 76t-11.5 146t-10.5 153.5t-4 93.5v87.5t3 133t4 125t1 58.5q0 9 -11 31q-6 13 -6 24q0 9 3 17zM467 517.5v137.5q0 166 2 375l20 -758l-12 4q-2 0 -5 34t-4 87.5 t-1 120zM582 2l292 -4q-70 -6 -131 -6h-100t-61 10zM924 27q8 -4 20 -4q25 0 39 6q10 6 19.5 18t17.5 27q10 14 16 37q-6 -57 -24.5 -75t-34.5 -22h-6q-21 0 -47 13z" />
<glyph unicode="m" horiz-adv-x="1236" d="M135 932q-1 5 -1 11q0 14 9 22q10 12 40 -21t65 -80t69.5 -93t55.5 -69q43 -39 65.5 -77.5t30.5 -51.5q2 -6 7 -35.5t15.5 -58t27 -47t44.5 1.5q27 16 56.5 59.5t56 91.5t52.5 97t46 80q23 27 45.5 68.5t46 78.5t47 62.5t43.5 29.5q16 4 41 6.5t44.5 2.5t29.5 -6.5 t-4 -16.5q-14 -6 -25 -16q-25 -20 -24 -51q0 -18 -3 -115.5t-4 -210.5t-3 -210t-2 -118q0 -39 19 -86q13 -33 13 -55q0 -9 -2 -16q-6 -37 -6 -43v-15h6q12 0 21 4q2 2 10 17q2 8 6 10q-12 -10 -16 -25q-23 -27 -27 -26q-6 -5 -8 -5t-2 3q0 6 -8 18q-2 4 -15.5 4h-26t-27.5 5 t-17 22q-6 14 -6 51v90t3 111.5t3 113.5q4 54 4 103q0 43 -3 81q-7 82 -18 111q-12 29 -17 44.5t-18 9.5q-10 0 -36.5 -36t-34.5 -42q-6 -8 -11.5 -34t-5.5 -42v-66l19 -12l-117 -219l123 182l-86 -164l49 62l-35 -45q-14 -16 -26.5 -33.5t-18.5 -26.5q-10 -18 -15 -28 t-15 -10t-5 27.5t-6 29.5q-12 2 -41.5 -17.5t-54.5 -5.5q-25 20 -62.5 91t-78.5 131q-20 27 -45 68.5t-48.5 79.5t-45 66.5t-29.5 30.5q-18 8 -36.5 4t-25.5 -22q-4 -23 -4 -76t8 -84q2 -18 3 -92t6.5 -156t9.5 -148q4 -65 8 -65q8 2 8 51.5v108.5t-2 111v20q0 36 6 49 q14 27 26.5 64t31.5 39q6 0 11 -58q4 -58 4 -128v-68q1 -32 0 -64q-1 -62 -1 -71q-2 -12 -12 -33t-22.5 -43.5t-32 -35.5t-41.5 -5q-47 14 -50.5 24.5t0.5 30.5q0 10 1 84t4.5 161t5.5 162.5t6 90.5q6 14 8 42.5t6 58.5t6 52.5t2 30.5t-11 28.5t-21.5 43.5t-14.5 45z M377 965q8 -14 34.5 -60.5t59.5 -97.5q39 -61 84 -131q-12 -16 -43 32t-63.5 109.5t-54.5 110.5q-18 41 -18 39zM518 670q14 -23 25 -37q6 -12 13 -23.5t1 -7.5q-25 0 -33 37q-6 14 -6 31zM1073 428v156q4 186 10 417q4 -252 9 -446q0 -82 2 -162t2 -139t-2 -96 q-2 -29 -5 -29q-1 0 -2 2q-6 10 -8 52t-4 104.5t-2 140.5z" />
<glyph unicode="n" horiz-adv-x="1232" d="M250 235v166t3 161t3 83q0 23 8 54.5t8 60.5q0 26 12 68q9 32 8 51q0 7 -1 12q0 4 -6 22.5t-15.5 39t-14.5 40t-5 31.5q6 18 43 36.5t49 29.5q10 12 13 23t3 3v-21.5t11 -23.5q12 -10 31.5 -59t37.5 -72q6 -10 30 -59.5t49.5 -104.5t49 -104t33.5 -64q16 -31 70 -92 q25 -31 53 -63q-2 -2 -10 -2q-10 -6 -12.5 -6.5t-10.5 -4.5q-12 -4 -9 -22.5t9 -40.5q4 -23 14.5 -42.5t26.5 -45.5q14 -29 33.5 -32t34.5 11q18 12 22 49t13 66q0 16 2 81.5t6 141.5t5 142.5t1 85.5q2 13 2 26q0 34 -12 70q-16 51 -15 71q2 16 19.5 26.5t29.5 14.5 q12 8 35 43q10 14 23 31q2 -14 10 -29q6 -14 7 -26t7 -21q4 -14 -5 -42.5t-15 -79.5q-2 -25 -3 -87.5t-1 -142.5t-3 -162t-3 -145q0 -135 16 -191q11 -38 11 -68q0 -15 -3 -28q-2 -20 -20.5 -28.5t-39 -11.5t-42 0t-29.5 9q-10 4 -17 26t-12.5 44.5t-10.5 42t-7 21.5l-72 96 q-4 10 -29.5 50t-60.5 101.5t-75.5 130t-76.5 127t-61.5 100.5t-27.5 44q-14 10 -25.5 -1t-30.5 -24q-6 -6 -7 -29.5t1 -48.5q4 -31 6 -61q10 12 19 27q14 27 18 20q4 -16 -1 -51t-9 -94v-91.5t2 -117t3 -107.5t1 -57q4 -16 20.5 -41t12.5 -41q-4 -10 -23.5 -33.5 t-36.5 -32.5h-4q-35 0 -57 74q-6 20 -6 98zM354 34q-1 4 -1 8q0 7 3 9q10 12 33 25l19 18q-12 -18 -25 -31q-6 -12 -15.5 -21t-9.5 -15q-2 -6 -4 7zM358 1126q10 -2 25 -10q12 -6 22.5 -13t24.5 -16q14 -8 32.5 -38.5t40 -69.5t43 -81t40.5 -73q18 -31 41.5 -75.5 t46.5 -90.5q24 -51 49 -100q-2 0 -21 19q-8 18 -31.5 57t-66.5 121q-43 78 -86 147.5t-80 120.5q-39 55 -80 102zM383 635q8 -37 20 -68q4 -29 10.5 -55.5t6.5 -34.5q-4 -8 -4 -63.5v-120.5v-168q0 4 -1 26.5t-5 58.5t-5.5 84t-5.5 95q-8 111 -16 246zM444 412l17 32l4 -16z M854 -2l102 45q-10 -10 -24 -18q-12 -8 -20.5 -13.5t-16.5 -5.5q-23 -8 -27 -8h-14zM981 197v393v151.5t4 132t7 98.5t12 52q-2 -209 -3 -377v-381q0 -12 -8 -22.5t-8 -16.5q0 -8 -2 -14t-2 -8v-8zM989 111v45q4 -10 4 -16.5v-14.5q0 -12 -4 -14z" />
<glyph unicode="o" d="M179 522v25q1 95 21 187q24 104 64 173q35 70 100.5 101.5t130 44t108.5 12.5t44 6q-16 33 19 13.5t84 -66.5q104 -100 165 -301q13 -53 15 -120v-22q0 -55 -10 -115q-12 -70 -35 -139t-47 -122q-29 -51 -80 -92t-119 -53q-23 -4 -47 -3q-48 1 -100 15q-80 22 -162 86 q-78 66 -113 164t-38 206zM285 602q-2 -24 -1 -46q0 -90 26 -154q32 -80 82 -130.5t108.5 -72t107.5 -21.5q47 0 90 37t76 93.5t50.5 127t17.5 133.5t-16.5 129t-47 120t-75 92t-101.5 44q-12 4 -62.5 -6t-104.5 -48t-100 -108.5t-50 -189.5zM338 500q-5 35 -5 70 q0 68 19 130q14 45 39 80t51 58q29 25 60 41q-39 -37 -72 -84q-28 -39 -48 -101q-12 -39 -13 -83q0 -25 4 -52q2 -78 15 -124t30.5 -72.5t35 -41t29.5 -24.5q25 -23 46.5 -42t15.5 -30q-6 -4 -26.5 2t-46.5 18.5t-50.5 35t-40.5 53.5q-29 60 -43 166zM586 -6q39 10 84 31 q37 16 81 43.5t87 68.5q82 84 107.5 160t39.5 170q5 30 5 66q0 17 -1 37q-4 58 -13 120t-22.5 118t-29.5 99t-54.5 82t-80 70t-77.5 52.5t-42 23.5l-76 24q29 0 61 -10q29 -8 65 -26.5t83 -45.5q43 -31 79 -85t60.5 -112.5t38.5 -108.5t20 -71q1 -29 3 -84v-17 q0 -49 -6 -107q-8 -70 -26 -145t-52 -136q-35 -61 -91.5 -103t-109.5 -67q-63 -29 -133 -47zM1067 395q0 4 8 13l6 -39q-10 4 -12 10t-2 16z" />
<glyph unicode="p" horiz-adv-x="1206" d="M279 217q4 16 9 57t10 84t10 78t5 51q0 10 -5 45t-9 76t-5 87t-1 77q0 35 1 72t4 73.5t6 64.5t3 34q0 18 11.5 36.5t27.5 22.5q10 4 52 4h95.5h99.5h64q20 0 67.5 -7t97.5 -39t89 -99.5t39 -188.5t-64.5 -174t-139.5 -71q-63 -16 -122 -16q-13 0 -26 1q-48 3 -68 3 q-11 0 -14 -1q-25 -8 -36 -8t-27 8q-12 0 -24.5 3.5t-20.5 7.5l-21 6q-4 -47 -4 -86q-4 -37 -4 -69v-52q0 -31 7 -63.5t15 -40.5q6 -12 14.5 -35t8.5 -39q-6 -18 -18 -44q-6 -12 -20 -12q-15 0 -40 15q-51 29 -64 66q-7 21 -7 42q0 16 4 31zM399 618q16 -25 56 -12q8 2 19 3 t18 7q10 2 18 2q43 -2 82 -2q33 -6 64.5 -6h43.5q10 0 35 11.5t49.5 34t44 50t19.5 66.5q0 82 -23.5 112.5t-52.5 47.5q-14 8 -38.5 9t-48 1t-46.5 -1t-31 -1h-106q-16 0 -40 5t-36 5q-8 0 -13 3t-12 -11q-2 -6 -1 -33.5t2 -58.5t3.5 -61.5t2.5 -40.5q0 -14 -2.5 -34 t-4.5 -42q-2 -25 -2 -54zM434 707q0 4 4 12q2 8 11 29q6 16 3 37.5t-3 39.5q0 16 -7.5 47t-1.5 33q20 10 34 -38q11 -42 11 -77v-10q-6 -16 -14 -32.5t-16 -24.5q-12 -14 -21 -16zM438 457q14 -16 44 -22.5t59 -8.5q19 -3 37.5 -3t37.5 3l-137 -20l-6 -220v86q0 33 -2 63 t-2 36q0 8 -4 21.5t-12 27.5zM565 879l-1 1q0 2 6 4q8 3 22 3h35q-6 -8 -17 -10q-25 -10 -45 2zM571 678l64 -16q-18 -12 -39 0q-14 6 -25 16zM786 467q31 20 58 35q27 12 50.5 30.5t39.5 34.5q31 39 54 113q19 59 19 106q0 12 -1 23q0 57 -20.5 118.5t-51.5 90.5 q-14 10 -21.5 20.5t-15.5 16.5q-6 8 -14 10q27 -14 45 -31q16 -18 33.5 -42.5t29.5 -55.5q23 -66 25 -147v-11q0 -74 -25 -129q-23 -55 -83 -114.5t-122 -67.5z" />
<glyph unicode="q" d="M215 645q10 111 47 186.5t77 122.5t79 73t53 34q14 6 46 11t65.5 6t60.5 1h35q12 0 12 8v11q25 -18 55 -43q31 -18 65 -55t73 -87q35 -57 52 -131.5t23 -148.5q3 -45 3 -84q0 -25 -1 -47q-4 -58 -4 -78q0 -16 -9 -47t-21.5 -62.5t-25.5 -59.5t-13 -42q0 -25 25.5 -43 t31.5 -29q10 -20 -18 -51q-8 -10 -27.5 -16t-30.5 -6q-12 0 -13 4t-21 18q-16 20 -23.5 20.5t-28.5 2.5q-23 2 -30 -6.5t-29 -16.5q-8 -2 -36 -8t-65 -10q-18 -2 -37 -2t-38 2q-39 4 -82 24q-39 14 -85 60.5t-87 118t-65 165.5q-17 64 -17 134q0 35 4 71zM340 626 q-2 -29 -2 -57q0 -42 5 -81q9 -64 26.5 -112t31.5 -65q12 -18 38 -39.5t56.5 -41t60.5 -34t50 -14.5q35 0 49.5 -4t34.5 19q16 16 24.5 27.5t6.5 43.5q-6 29 -5 41.5t-18 28.5q-39 31 -26 43q12 4 24.5 6t18.5 10t4 20.5t10 12.5q10 0 13.5 -15t13.5 -42q8 -18 8 -31.5 t4 -19.5q0 -10 2 -19q14 -4 37.5 18.5t38.5 71.5q8 27 15 77t8 108v14q0 50 -6 102q-7 58 -29 99q-49 84 -88 117.5t-87 41.5q-23 2 -57.5 1t-74.5 -19.5t-78.5 -57t-71.5 -108.5q-31 -68 -37 -142zM385 629q14 80 39 133t50.5 84t45 39t23.5 6q-41 -37 -70 -78 q-25 -43 -47 -101q-16 -38 -16 -83q0 -22 4 -45q2 -76 14 -123t28.5 -75t30 -43t15.5 -19q8 -12 20 -25l10 -10q-49 33 -92 84q-31 41 -53 105q-12 34 -12 74q0 36 10 77zM559 4h64q18 0 70 15.5t71 15.5l12 -8v-9q-8 -6 -43 -10t-74 -4q-21 -1 -46 -1t-54 1zM682 1149 q51 -16 109 -49q43 -29 92 -75t90 -112q35 -70 53 -134t22 -119q4 -37 4 -67q0 -13 -1 -25q-2 -38 -2 -52q0 -16 -4.5 -48t-9.5 -70t-13 -71.5t-21 -43.5l-24 -31q2 -29 10 -55q4 -25 8 -49.5t-2 -32.5q-6 -16 -15 -39t-15 -27q-6 -6 -19 -6q-4 0 -6 6q-8 16 -10 20.5 t12 6.5q14 8 19.5 6t13.5 14q10 14 12 23.5t-6 44.5q-6 33 -14.5 55.5t-1.5 32.5q0 8 14 34.5t27.5 66.5t24.5 86q9 39 9 77v14q-8 86 -15 193.5t-79 220.5q-41 55 -85 94t-83 64q-47 31 -94 47z" />
<glyph unicode="r" horiz-adv-x="1224" d="M250 276.5q0 49.5 2 92.5t2 53v91t-2 171t-2 173v95q0 31 6.5 74t22.5 53q8 4 58 4h87q16 0 62 1t90.5 1t84 1t46.5 8q16 6 12 3t12 -12q20 -2 44 -15t54 -44q35 -27 69 -84t36 -143q1 -6 1 -12q-1 -39 -23 -77q-26 -44 -57.5 -84t-61 -61.5t-31.5 -27.5q-8 -6 -5 -9.5 t3 -15.5q0 -16 41 -129q10 -31 31.5 -62.5t44 -63.5t40 -57.5t21.5 -35.5q8 -31 2 -50.5t-45 -37.5q-18 -10 -37.5 9t-38 50t-33 67t-24.5 62q-10 25 -28.5 68t-38 88t-38 81t-32.5 44q-31 14 -56.5 2t-56.5 -17q-25 -8 -79 -8t-66 -6q-12 -10 -10.5 -41t5.5 -51 q0 -10 -2 -32.5t-4 -50.5t-5 -52.5t-3 -36.5q0 -16 15.5 -51t13.5 -60q-4 -27 -27.5 -46t-48.5 -13q-25 8 -25 10t-14 29q-8 16 -10 61t-2 94.5zM311 106q6 -4 23 -10q20 -6 33 -6q12 0 12 2t16 21q14 16 15.5 30.5t-0.5 44.5q0 14 -4.5 53.5t-7.5 83.5t-6 78.5t-3 40.5 q0 10 -1 32t15 16q20 -8 40 -19.5t42 -11.5q16 0 31.5 -18.5t-4.5 -20.5q-16 -2 -47 12l-19 10q-6 -14 -6 -32q0 -16 -2 -38t2 -48q0 -29 -6 -68l-12 -78t-15.5 -69.5t-17.5 -42.5q-12 -16 -47 8q-14 14 -31 30zM350 659q8 -12 41 2.5t37 14.5q6 0 25.5 -4t46 -8.5 t56.5 -10.5t50 -6h21q36 0 68 5q42 7 69 32q30 26 50 64q14 27 14 52q0 11 -3 23q-4 37 -18 69t-39 46q-45 27 -86 27q-20 -2 -28.5 -3t-14.5 -10q-14 -6 -58 -3t-61 3q-18 0 -37.5 -3t-36.5 -3q-20 0 -27 -3t-22 5q-33 12 -43 0q-4 -10 -4 -33q0 -2 2 -20t4 -42t5.5 -45.5 t3.5 -31.5q2 -20 5 -26.5t-5 -18.5q-7 -11 -15 -37q-4 -14 -4 -22q0 -9 4 -13zM397 887q0 4 13.5 4t29.5 -4l45 -8h-28q-29 0 -41 -5q-14 -10 0 -34q4 -14 12 -27l-4 4q-12 12 -12 21q0 10 -12 26q-7 9 -6 15q0 5 3 8zM401 739q0 4 2 13q8 12 9 24l4 -6l12 -18 q6 -8 24.5 -14.5t34.5 -12.5q23 -8 50 -10l-109 6zM748 1145q92 -49 141 -90t70.5 -83t24.5 -85t9 -94q0 -5 1 -10q0 -43 -16 -87q-17 -48 -43 -85.5t-48.5 -63t-24.5 -31.5q-2 -10 8.5 -48t28.5 -83q16 -49 43 -111q-35 63 -61 115q-27 45 -43.5 82t-16.5 45t28 35t66 57 q41 34 53 132q5 40 6 79q0 56 -11 111q-10 47 -44 85t-73 68q-45 31 -98 62zM926 51q6 6 11 6t24 11q10 8 15 22t9 31l8 45q2 -10 2 -25q0 -27 -14 -53q-19 -33 -39 -40q-8 -3 -12.5 -3t-4.5 3q0 1 1 3z" />
<glyph unicode="s" horiz-adv-x="1230" d="M213 395q0 33 13.5 47.5t25.5 22.5q18 6 37 0q0 2 -2 6q-8 8 -4 18q0 14 20 23q10 2 19 6q0 -4 -3 -12q-8 -12 -8 -27q-2 -16 4.5 -26.5t16.5 -16.5q4 -8 14 -9t19 -21q8 -16 -3.5 -27.5t-11.5 -28.5q0 -18 11.5 -31.5t39.5 -48.5q16 -16 28.5 -31.5t31 -24.5t49.5 -14 t80 -6q100 0 157.5 47.5t71.5 82.5q10 20 10 47q0 21 -6 46q-14 58 -47 87q-18 14 -57 25.5t-87 20.5t-94 16t-77 14q-29 8 -66 18t-67.5 40t-53 79t-22.5 133q0 78 48 132t114.5 84t139.5 38q36 4 65 4t51 -4q49 -8 86 -35t67.5 -57.5t52 -61t25.5 -47.5q7 -19 7 -37 q0 -19 -8 -38q-15 -36 -38 -44q-8 -6 -16 -6q-23 0 -37 15q-20 16 -18 32.5t-7 32.5q-10 20 -37.5 51t-56.5 45q-21 15 -66 15q-9 -1 -19 -1q-60 -4 -95 -12q-18 -2 -47 -15t-55.5 -30.5t-47 -37t-20.5 -42.5q0 -43 35 -73.5t47 -34.5q20 -4 16 -4t33 -17q35 -18 89 -26 t83 -19q37 -12 72 -12q16 -4 39 0q-2 2 -2 4q0 12 2 19q8 4 27.5 -9.5t47.5 -42.5q25 -29 64 -82t45 -128q1 -12 1 -25q0 -61 -33 -119q-40 -70 -93 -117q-29 -23 -76 -40t-101 -22q-27 -2 -55 -3q-29 0 -57 3q-58 5 -102 28q-47 20 -84 53t-66.5 75t-44 84t-14.5 72z M322 532q10 0 50 -14t60 -16q4 -4 19.5 -8.5t29.5 -6.5q14 -8 33 -12h-41q-16 0 -28.5 2t-22.5 2h-15.5t-19.5 2q-14 6 -22 8q6 -2 10 -14q12 -18 20 -35q6 -20 18.5 -55t22.5 -43q12 -8 29.5 -15.5t32.5 -9.5q8 -2 22.5 -2h28.5q16 0 35 -6h-62q-25 0 -47 4t-39 19 q-25 27 -48 88t-38 78q-10 14 -24 24q-8 6 -8 8t4 2zM397 803q-4 12 -4 22q0 25 23 47q33 30 65 33q14 0 37 -1t39 -3q23 -6 43 -8h-82q-31 0 -57.5 -19.5t-7.5 -48.5q6 -10 29.5 -21t53 -17.5t54 -11.5t31.5 -5q23 -6 45 -16l26 -15q-27 2 -57 2h-47.5t-30.5 4 q-12 0 -35.5 1.5t-48 6.5t-46 16t-30.5 34zM481 27q-1 1 -1 2q0 4 35 1q42 -3 81 -3t100.5 21.5t116.5 51.5q53 33 99 78t71 162q5 26 5 52q0 30 -6 58q-11 54 -30 93q-20 45 -53 88l-22 14q-23 13 -11 17q10 6 29.5 -15.5t42.5 -50.5t41 -63.5t22 -57.5q4 -17 4 -43 q0 -13 -1 -29q-3 -47 -16 -102t-44 -110.5t-84 -94.5q-55 -39 -120 -55q-64 -17 -120 -21q-25 -2 -47 -2q-27 0 -49 4q-41 6 -43 5zM618 1174q2 -2 13 -3h35q16 0 77.5 -25.5t92.5 -43.5q27 -16 61.5 -60.5t30.5 -52.5t4 -16q4 -8 6 -10l14 -9q16 -6 17 -12l-11 -10 q-6 -4 -10 -4q4 -23 10 -41q2 -20 3.5 -40t1.5 -30q0 -29 -24 -53.5t-30 -32.5q-4 -4 -8 -4q-5 0 -12 5q-12 9 -12 24l12 2q8 6 17 9t30 17q12 10 17 34t-1 46q-4 25 -12 56l-8 16l-4 20q0 6 -6 19q-8 12 -15.5 26.5t-21.5 38.5q-18 23 -59.5 47.5t-88.5 45.5 q-55 18 -119 41z" />
<glyph unicode="t" horiz-adv-x="1249" d="M238 1065q2 23 8 34t28 11q10 0 60.5 -3t112 -6t117 -4t75.5 -1h34.5t31.5 2q14 4 30 6h53t52 8q10 2 30 14q18 11 42 15q7 1 14 1q16 0 32 -6q22 -10 31 -40q17 -48 17 -78q0 -14 -4 -24q-12 -30 -50 -40q-33 -4 -42 -8t-27 10q-18 16 -45 12.5t-47 -5.5 q-16 -8 -18.5 -10.5t-29.5 -2.5q-25 0 -33 6.5t-28 8.5q-8 0 -13 -1t-14 -1h-12v-717l14 -60q8 -20 12.5 -37.5t-3.5 -25.5q-10 -11 -36 -25q-20 -10 -34 -11q-4 0 -8 1q-16 6 -36 45q-13 25 -13 72q0 26 4 57q4 43 9 135t9 183.5t6 169.5q1 26 1 45q0 39 -3 51 q-4 18 -6 43.5t-7 49.5t-13.5 39t-22.5 15q-37 0 -44 -10t-23 -18q-4 -2 -25 -2t-44.5 1t-44 2t-26.5 7q-10 6 -40.5 36.5t-30.5 55.5zM705 115q4 4 8 16q6 18 6 39v39t-1 91t-3 120.5t-2 138.5q-4 158 -4 361q4 6 29.5 6h59t68.5 -3t56 -3q37 0 67 28q16 8 25 25 q-4 -10 -17 -23q-14 -14 -36 -30q-10 -4 -41 -6.5t-67 -6.5t-66.5 -4h-36.5q-18 0 -19 -16v-88v-188.5t2 -212t2 -156.5q2 -24 2 -43t-2 -33q-4 -27 -10 -35q-8 -16 -20 -16z" />
<glyph unicode="u" horiz-adv-x="1243" d="M254 1071q12 23 40 40t44 22q3 1 7 1q33 0 54 -55q12 -23 -1 -57.5t-17 -44.5q-4 -8 -4 -65.5v-130t2 -139.5t2 -89q0 -43 8 -78t12 -61q10 -27 4 -35t-8 -14q0 -8 1 -20.5t18 -31.5q20 -18 37.5 -36.5t29.5 -12.5q10 2 10.5 -3t18.5 -19q10 -8 13 -16.5t19.5 -14.5 t49.5 -4t98 12q66 12 98.5 48t45 83t13.5 100.5t1 98.5q4 26 4 72q0 23 -1 51q-3 84 -6 170q-2 52 -2 97q0 29 1 57q2 68 10 83q16 29 40 45.5t38 16.5q14 -2 31.5 -46t15.5 -67q-8 -20 -16.5 -76.5t-16.5 -87.5v-84.5v-144.5v-139.5v-67.5q2 -10 10.5 -47t8.5 -76 q-4 -39 -63.5 -83t-188.5 -95q-54 -20 -105 -20q-12 1 -22 1q-60 6 -112 28t-91 52.5t-61 53.5q-12 14 -23.5 64t-18 119t-7.5 142.5t-1 139v119v69.5q0 55 -15 105q-9 30 -9 50q0 13 4 21zM442 510q4 39 6 131q1 46 2 94q0 49 -2 99q-2 100 -4 178t-2 82q8 -92 17 -176 q4 -72 5.5 -136.5t2.5 -95.5q0 -27 -2.5 -80t-1.5 -102q-2 -61 -2 -129q-8 6 -15 26q-8 18 -8 52q0 25 4 57zM614 18q39 8 78 23q35 12 81 27.5t97 44.5q47 27 75 63.5t43.5 74.5t19.5 69.5t10 46.5q0 4 1 36.5t3 78.5t2 104.5v120.5v313q8 -172 8 -322q0 -125 -4 -253 t-22 -191q-35 -84 -100.5 -129t-131.5 -70q-74 -29 -160 -37z" />
<glyph unicode="v" horiz-adv-x="1243" d="M215 1008q-5 25 -5 46q0 34 12 58q16 32 41 32q5 0 11 -1q14 0 26.5 -21.5t23 -49.5t12.5 -54.5t2 -38.5q0 -31 22.5 -92.5t42.5 -138.5q10 -39 32 -88.5t41.5 -96.5t34.5 -80.5t24 -44.5q8 -18 1.5 -38.5t0.5 -34.5q8 -14 23 -49t26 -35q12 6 28.5 43.5t40.5 95.5 q14 29 45 113.5t62 181t56.5 181.5t25.5 112q8 57 24.5 92t36.5 43q3 1 6 1q9 0 19 -4q14 -5 27.5 -19.5t24.5 -33t9 -30.5q-4 -14 -19.5 -40t-25.5 -38q-6 -10 -15 -34.5t-21.5 -55.5t-22.5 -61.5t-19 -47.5q-8 -20 -33.5 -101t-53 -174t-55.5 -168t-30 -83 q-10 -12 -7 -27.5t3 -48.5t-15 -46t-40 -17q-14 -4 -32.5 4t-34 21.5t-25.5 26.5t-15 21q-8 18 -24.5 58.5t-36.5 91.5q-10 25 -48 119t-81 208.5t-79 214t-46 128.5zM395 1069q18 -51 39 -96q16 -39 28.5 -76t18.5 -41q2 -12 18.5 -60t34 -104.5t29.5 -100.5t10 -50 q-4 10 -12 24q-10 23 -16 53q-2 8 -25.5 81t-54.5 157zM616 39l37 16q8 2 9 23q0 6 -3 14h11q12 0 26 8q10 6 26.5 34t25.5 54q6 8 18 48t31.5 102.5t45 137.5t50.5 151q61 182 133 407q1 -2 1 -5q-1 -19 -19 -77q-22 -70 -54 -172t-71 -218t-76 -219t-63.5 -176t-34.5 -79 q-10 -18 -25.5 -25.5t-30.5 -13.5q-18 -8 -37 -10z" />
<glyph unicode="w" horiz-adv-x="1249" d="M143 1038q8 29 33 59.5t39 28.5q8 -4 28.5 -26.5t20.5 -42.5t-2 -73.5t-8 -80.5q0 -14 4 -61t10 -103.5t11.5 -104.5t5.5 -69q0 -16 3 -48t11 -65.5t12 -58t13 -28.5q10 -8 6 -2t14 24q4 12 17.5 32.5t25.5 44t23.5 47.5t13.5 36q8 18 33.5 33.5t36.5 31.5q6 20 3 29.5 t3 32.5q8 23 13 52.5t9 47.5q0 29 29 56.5t37 35.5q6 2 15 12.5t13 16.5q8 2 14.5 -13.5t8.5 -25.5q6 -12 14.5 -51t10.5 -70q4 -25 25.5 -51.5t35.5 -50.5q16 -23 34.5 -54.5t18.5 -48.5q0 -18 -7 -19t-23 -1q-18 0 -12.5 -24.5t14.5 -51.5q4 -25 24.5 -39t48.5 -26 q24 -15 24 11q0 23 9 62q2 23 13.5 103t20.5 172t15 171t6 101q0 47 30 93t44 46q12 0 30.5 -20.5t26.5 -42.5q2 -7 2 -15q0 -21 -11 -53q-15 -45 -36 -84q-10 -18 -18 -103t-15.5 -182.5t-14.5 -184.5t-11 -111q-4 -25 -4 -56.5v-64.5t-7 -56.5t-28 -31.5 q-18 -6 -35.5 19.5t-35 63.5t-29 73.5t-13.5 46.5q-2 12 -27.5 51t-54 86t-54 83t-34.5 42q-12 14 -33.5 41.5t-35.5 21.5q-16 -2 -22.5 -26.5t1.5 -38.5q6 -20 17.5 -27.5t9.5 -28.5q0 -27 -15.5 -44t-43.5 -48q-20 -20 -35 -52t-32 -71t-30.5 -77.5t-25.5 -63.5 q-25 -51 -52.5 -60.5t-56.5 3.5q-25 14 -24.5 43.5t0.5 38.5q0 10 -4.5 57t-10.5 98q-2 18 -10 71.5t-17.5 127.5t-19.5 156t-17 151.5t-13 118.5q-4 30 -5 46q0 9 2 13zM326 1067l22 -145q8 -53 17.5 -101.5t9.5 -54.5q0 -8 -3 -24.5t-12 -32.5q-8 -23 -12 -50v37v38t4 38 q2 9 2 26q0 18 -2 42q-4 50 -8 98q-10 61 -18 129zM334 68q10 8 18 7t35 34q12 20 43 78.5t64 125.5q39 74 77 164q-6 -27 -14 -47q-4 -18 -9 -34.5t-13 -22.5q-2 -8 -20.5 -45t-39 -85t-44 -91t-38.5 -60q-33 -33 -47 -35h-3q-11 0 -9 11zM653 891q10 -2 34 -44t48.5 -90 t42 -89t17.5 -43q0 -4 -5.5 10t-15.5 33.5t-18 38t-15 26.5q-4 8 -17 33t-32 53q-16 33 -39 72zM911 113q0 -4 7 -7q6 -8 14 -12q25 -8 47 15q14 12 19.5 42.5t5.5 47.5q0 10 7 71.5t14 138t14.5 140t7.5 78.5q0 16 6 77.5t14 129.5q12 80 18 178q-4 -98 -12 -178 q-6 -68 -10 -129.5t-4 -79.5q-2 -16 -9.5 -82t-14.5 -141.5t-15 -142t-8 -89.5q-4 -88 -54 -96q-2 -1 -5 -1l-27 19z" />
<glyph unicode="x" horiz-adv-x="1230" d="M240 1022q-1 7 -1 14q0 32 31 58q20 14 47 26v8q0 4 13 -4l16 -16t10 -27q10 -23 34 -73t40 -86q23 -39 50.5 -66t37.5 -41q18 -16 27.5 -31.5t7.5 -29.5q-4 -16 -10 -12.5t-15 -4.5q-10 -6 7.5 -25.5t27.5 -27.5q6 -14 12 -16l3 -9l12 23q4 16 26.5 47t47.5 70 q12 20 35.5 59t48 81t44 75t25.5 45q12 18 36 43.5t32 30.5q0 10 14 18l14 4v-10q0 -6 11 -17q6 -12 27.5 -35.5t13.5 -54.5q-4 -25 -31 -55q-12 -14 -56 -56t-63 -69q-12 -14 -27.5 -40.5t-33 -57.5t-36 -57.5t-28.5 -34.5q-12 -10 -23.5 -20.5t-17.5 -16.5 q-10 -10 -18 -15l16 -18q2 0 8 2q16 8 23 16q8 6 22 0q6 -4 11 -8q-4 0 -9 -2q-2 -6 -6 -7t-6 -3q-10 -4 -11 -7t-3 -5q-4 -8 -8 -13l12 -18q6 -6 28.5 -40t52.5 -70.5t57.5 -74.5t41.5 -55q27 -39 72 -76.5t53 -58.5q1 -5 1 -11q0 -34 -34 -54q-18 -18 -39.5 -18.5 t-35.5 9.5q-14 8 -25.5 24.5t-22.5 35.5q-12 18 -32.5 53t-44.5 66q-12 16 -33 47.5t-43.5 65.5t-41 62.5t-20.5 39.5q-8 10 -8 43v30q-12 -8 -16 -12q-10 -10 -15.5 -15t-11.5 -5q-10 -2 -18 -19.5t-17 -21.5q-12 -18 21 -23q18 -8 16 -10t-4 -19q-8 -16 -38.5 -55 t-78.5 -98q-43 -55 -54 -96t-38 -72q-18 -18 -37 -18q-13 1 -27 9q-34 22 -36 48q-6 29 16.5 58.5t40.5 60.5q12 16 35 46.5t47.5 61.5t44 55.5t27.5 28.5q12 10 32.5 37t28.5 35q12 12 21 31q8 14 10 22l-10 16q-6 10 -48 56.5t-75 87.5q-16 23 -43 58.5t-57.5 73.5 t-54 73.5t-27.5 56.5zM309 51l29 41q6 -2 14 -2q14 0 31 14q8 8 39 48.5t57 87.5q37 52 76 122q1 -3 1 -6q0 -16 -22 -54q-28 -46 -62 -93t-64.5 -89t-36.5 -44q-8 -12 -33 -21q-16 -2 -29 -4zM440 1081q37 -51 62 -90q23 -37 41 -67.5t20 -32.5q6 -8 -1 -31.5t-7 -15.5 q1 6 1 13q0 21 -14 51q-18 38 -40 81q-25 41 -62 92zM740 605q-4 8 -4 17q0 10 5 21q10 4 43 59.5t78 116.5q47 66 111 152l-221 -355q2 0 8 -4l12 -14q6 -6 10 -21.5t11 -29.5q0 -8 16 -34t35.5 -54.5t38 -55t26.5 -36.5q4 -12 -17.5 18.5t-51 71.5t-55 75.5t-31.5 42.5 q-6 12 -14 30zM948 55l8 15q4 8 6.5 8t2.5 -2q-4 -23 -9 -23q-4 0 -8 2z" />
<glyph unicode="y" horiz-adv-x="1241" d="M254 1069q8 35 42 39t56 -14q10 -8 23.5 -33t23 -55.5t17.5 -56t16 -36.5q6 -10 25.5 -34.5t43 -50t43 -50t25.5 -35.5q6 -20 6 -30.5t9 -24.5q2 -20 8 -20t20 4q2 0 18.5 20.5t36 44t38 49t26.5 33.5q6 16 23.5 48t40 70t44 74t31.5 52q23 35 46 51q15 10 25 10 q6 0 11 -4q8 -12 32 -31.5t24 -41.5q0 -23 -37 -66t-64 -76q-14 -16 -52 -65t-80 -106.5t-73.5 -105.5t-39.5 -67q-6 -23 -8 -67q-2 -25 -2 -52q0 -21 1 -44q2 -50 5.5 -92t9.5 -54q2 -14 9 -44t8 -56.5t-8 -48t-46 -21.5t-52.5 21.5t-16.5 48t3 56.5t4 44v65.5t-3 110.5 t-4 104.5t-1 53.5q-2 6 -40 55t-83 109q-23 27 -54.5 74.5t-62 95t-50 89.5t-17.5 60zM459 1044q35 -59 65 -102q31 -39 50.5 -72.5t23.5 -42.5zM686 63l23 23q8 6 20 29q4 10 14 24q-6 113 -6 207q-4 78 -4 143.5v71.5q0 8 45 69.5t101 143.5q65 92 143 203q0 -4 -44 -71.5 t-93 -143.5q-61 -90 -131 -193v-159q0 -63 -3 -128t-3 -98q0 -43 -9.5 -63.5t-21.5 -34.5q-16 -16 -31 -23z" />
<glyph unicode="z" horiz-adv-x="1245" d="M287 1115q-3 9 -3 16q0 9 5 14q4 8 14.5 4t20.5 -4q27 -4 49 -8q16 -4 35.5 -5.5t29.5 -1.5q8 0 64.5 1.5t121 1.5t119 1.5t58.5 2.5q20 0 34.5 15t32.5 17h2q16 -1 44 -29q30 -30 30 -48q0 -23 -12 -60t-25 -49q-8 -8 -48 -64.5t-89 -125t-96 -131t-62 -78.5 q-16 -20 -57 -70.5t-81 -106t-73.5 -103.5t-33.5 -50q0 -10 28.5 -19.5t46.5 -9.5t32.5 7.5t29.5 15.5q16 6 42.5 -8.5t51.5 -16.5q10 -6 48 -3t80 7t81 12.5t55 16.5q23 13 48 13q14 0 30 -4q43 -11 43 -52q0 -43 -26.5 -77t-59.5 -42q-12 -1 -22 -1q-19 0 -33 5 q-20 8 -54 8q-14 0 -72.5 3.5t-126 5.5t-125.5 4t-67 2q-23 0 -58.5 2t-47.5 22q-5 11 -5 27q0 17 6 40q11 44 11 56q0 6 13.5 38t36 71t46 80t39.5 57q14 18 67.5 83t111 138.5t104.5 134t49 62.5q6 6 14.5 28.5t-10.5 49.5q-16 27 -50 20.5t-50 -12.5q-16 -8 -26.5 -4 t-35.5 -4q-14 -2 -64 -2h-110h-145v71q0 14 -6 36zM500 338q4 6 12 16q8 8 12 16.5t13 20.5q2 8 32.5 48t74.5 99.5t94 126t96.5 125t78 101.5t37.5 53q10 12 16.5 31.5t14.5 40.5q2 20 4 45q6 -13 6 -28t-5 -31q-11 -34 -30.5 -65.5t-41 -61t-31.5 -44.5 q-10 -14 -59.5 -83.5t-107 -147.5t-106.5 -146.5t-51 -84.5q-8 -25 14 -25q10 0 25 8z" />
<glyph unicode="~" horiz-adv-x="1251" d="M328 414q2 8 8 15t14 15q4 6 12 11q0 -4 7 -4q14 0 30 12q8 12 31 28.5t53.5 34t61 26.5t55.5 9q51 -6 82 -56t66 -69q35 -14 47 2.5t28 7.5q14 -8 17.5 -32.5t21.5 -5.5q16 16 17 36v15l22 26q6 12 16.5 20.5t14.5 2.5q8 -8 13 -30.5t-5 -33.5q-2 -8 -21.5 -23 t-45 -32.5t-54 -30t-53.5 -8.5q-27 4 -51.5 19.5t-47 35t-38 37t-17.5 21.5q-12 8 -36.5 8t-47.5 -10q-16 -6 -31.5 -21.5t-21.5 -19.5q-8 -10 -10 -23.5t-12 -36.5q-14 -16 -30.5 -16t-39.5 6q-20 8 -43.5 19.5t-11.5 44.5zM504 406l12 4q12 10 37 12q25 0 33 -2l10 -10z M868 346q14 4 29.5 14.5t32.5 20.5q20 4 29.5 10t17.5 23q8 23 8 47v28l-8 11q39 14 16 -76q-4 -18 -26.5 -35.5t-45 -28t-41 -13.5t-12.5 -1z" />
<glyph unicode="&#xa1;" horiz-adv-x="1222" d="M530 905q0 20 1 29.5t1 17.5v35q0 10 7 19q0 -2 2 -9l12 -24q8 -20 2 -63.5t6 -57.5q-8 6 -16 18q-14 23 -15 35zM549 358.5q0 53.5 2 113.5t3 118t1 74q0 31 16.5 38t40 6t39 -12.5t15.5 -23.5v-70.5t2 -134.5q0 -86 6 -188q-8 -14 -13.5 -38t-23.5 -24t-47 27.5 t-37 52.5q-4 8 -4 61.5zM555 1022q0 31 51 43q31 2 70 -13.5t47 -86.5q4 -39 -10.5 -65t-34 -40t-43 -21.5t-29.5 -7.5q-18 0 -23 28t-10 54q0 14 7.5 20.5t16.5 11.5t17.5 8.5t8.5 11.5q-20 10 -35 22q-33 16 -33 35zM643 184q-8 10 11.5 3t21.5 -15q8 -10 -8.5 -5 t-24.5 17zM711 219q0 8 2 14q8 14 8 3q0 -4 -8 -13zM714 545.5q1 38.5 1 77.5v94h8v-17q0 -6 2 -10t2 -10v-135q0 -12 -2 -55.5t-2 -94.5q-2 -57 -2 -125v95q0 39 -3 72.5t-3 51.5q-2 18 -1 56.5z" />
<glyph unicode="&#xa2;" horiz-adv-x="1187" d="M274 618q0 55 18.5 108.5t44 90.5t50.5 59.5t41 26.5q33 8 51.5 17.5t32.5 21.5q10 10 9 24.5t-1 30.5q0 10 -4 42t-4 61q0 31 16.5 40t38.5 17q18 10 27.5 -5t21.5 -42q14 -20 3 -53t-15 -43q-8 -12 -4 -36t21 -24q18 0 52 -2t68 -14q14 -8 44 -16.5t57.5 -24.5 t47 -35.5t17.5 -42.5q-8 -43 -46 -60t-58 -11q-10 8 -20.5 20t-20.5 23q-10 12 -47 31.5t-56 29.5q-12 2 -32.5 2t-44 -1t-46 -4t-30.5 -5q-10 -2 -36 -19.5t-54.5 -47t-51 -74t-22.5 -101.5q0 -59 22.5 -101t55.5 -70t74 -48.5t75 -34.5q37 -14 72 -1t61.5 38t43 48.5 t18.5 31.5q8 14 29.5 25.5t40.5 5.5q16 -6 41.5 -22.5t13.5 -65.5q-4 -27 -26.5 -50.5t-47 -44t-50.5 -36t-36 -17.5q-16 -8 -61 -6t-62 -6q-20 -8 -6 -25.5t21 -36.5q18 -43 2 -73q-6 -14 -34 -24.5t-46 3.5q-12 8 -16.5 31.5t-4.5 50.5v50.5v35.5q-2 16 -9 16t-26 9 q-18 10 -59 31.5t-72 52.5q-29 25 -55.5 76t-26.5 173zM418 602q-6 10 4 31q4 6 4 14zM426 674l25 37l24 32zM700 213q14 12 61.5 25.5t63.5 25.5q8 8 22.5 26.5t31.5 39.5q21 18 41 43q-10 -41 -40 -72t-62 -50.5t-59.5 -28.5t-29.5 -9q-8 -8 -23.5 -10t-5.5 10z" />
<glyph unicode="&#xa5;" horiz-adv-x="1243" d="M258 1071q8 37 40 41t56 -16q12 -4 23.5 -30t20 -56.5t16.5 -56t14 -35.5q8 -10 27.5 -37t43 -53.5t43 -50t21.5 -34.5q8 -16 10 -27t7 -32q6 -12 10 -12t18 4q2 0 18.5 18.5t36 43t38 48t26.5 37.5q6 14 26.5 46t42 71t42 73t30.5 54q20 35 45 50.5t37 6.5 q10 -16 33 -35.5t23 -41.5q0 -23 -36 -63t-67 -75q-8 -12 -42 -56t-71.5 -95t-72.5 -101.5t-47 -72.5h94q10 0 40 13t60 1q31 -10 39 -27.5t4 -35.5q0 -23 -15 -42.5t-40 -27.5q-25 -4 -32 3t-21 7h-148v-49h113q10 0 40 15.5t60 4.5q31 -10 39 -30.5t4 -40.5 q0 -23 -15 -43.5t-40 -26.5q-25 -2 -32 5t-21 7h-142q0 -23 3.5 -41t3.5 -26q2 -14 9 -41t8 -54.5t-8 -48t-46 -20.5q-35 0 -50.5 20.5t-17.5 48t1 54.5t3 41v67h-35q-29 0 -63.5 -5t-42.5 5q-8 2 -23 25q-8 10 -10 16l12 9q12 8 21 16q2 8 -15.5 7t-25.5 5q-4 8 -8 16.5 t12 16.5q8 2 30.5 2h46h47t36.5 -2q10 0 18 -2q0 31 -2 49h-33q-29 0 -63.5 -4t-42.5 4q-8 2 -23 25q-8 12 -10 16l12 8q12 10 21 21q2 6 -15.5 4t-25.5 4q-4 8 -8 18.5t12 14.5h30.5h46h47h36.5h16q-4 6 -44 55t-81 111q-23 29 -53.5 75.5t-60 95t-49 90.5t-15.5 58z M453 281l49 2q-8 -8 -31 -9q-10 0 -18 7zM459 1047q39 -55 65 -101q25 -39 46.5 -73.5t23.5 -43.5zM682 66l8 8q4 4 8 5t7 9q4 2 9 9t13 20q6 10 10 24v31q0 16 -2 46t-2 77l19 -4v-47.5t-1 -22.5t-1 -12v-27q-6 -35 -14.5 -57.5t-18.5 -36.5q-14 -14 -35 -22zM766 614 q31 43 76 104.5t84 119.5q47 63 96 141q0 -8 -27.5 -52t-69.5 -104.5l-84 -121t-67 -97.5zM911 467q2 0 11 8q8 6 10 15.5t6 25.5q8 20 8 27.5v9.5q8 -25 -2 -45q-8 -16 -14 -31v-10q0 -10 8 -25q6 -6 3 -22.5t-3 -30.5q-2 -20 -2 -37v31q0 33 -2 45q-8 23 -12 29 q-2 8 -11 10zM946 553v6v-6z" />
<glyph unicode="&#xa8;" horiz-adv-x="1222" d="M338 1395q0 37 24.5 50t34.5 15q9 10 15 10q12 0 31.5 -7t41 -22.5t36 -41t11.5 -60.5q-6 -74 -47 -91t-67 -9q-55 2 -56 41q0 16 19 25q6 10 16 18q4 12 -8 23.5t-8 39.5q0 8 2 11.5t2 11.5q-8 -27 -14 -48.5t-9 -33.5q-6 -4 -6 -10t-6 -14q-2 -6 -2 -11q-2 10 -2 25v31 q0 6 -4 16t-4 31zM674 1395q0 14 14 37q8 8 14 16q-12 -14 -6 -57t2 -64q-8 -4 -8 -10t-2 -14q-4 -6 -4 -11q-2 10 -2 25v31q0 6 -4 16t-4 31zM698 1280q0 20 35 37l35 22q0 8 -7 11.5t-17.5 7.5t-17.5 9t-7 19q2 27 8 55.5t23 28.5q10 0 29.5 -7t42 -22.5t35.5 -41 t11 -60.5q-8 -74 -47 -91t-67 -9q-56 2 -56 41z" />
<glyph unicode="&#xa9;" horiz-adv-x="1234" d="M240 463q-18 193 6 306.5t65 174t88 84t70 35.5q20 10 55 16t72 7t65.5 1h36.5q14 0 9.5 11.5t5.5 17.5q14 8 43.5 -26.5t58.5 -85.5q14 -23 38 -78.5t46.5 -125t37.5 -143t13 -141.5q-4 -63 -25.5 -124.5t-50.5 -110.5q-33 -59 -71 -107l-12 -16q-2 -2 -38 -19.5 t-93.5 -26t-124 -4t-127 40t-107.5 109.5t-61 205zM291 608q4 -78 23.5 -136t41 -99t42 -60.5t26.5 -21.5q18 -8 25.5 -13.5t11.5 -17.5q0 -2 16.5 -16.5t43 -25.5t59 -16t67.5 5q35 14 77 36.5t73.5 65.5t54 113t22.5 174q-2 102 -27.5 173t-61 114t-76.5 64.5t-68 31.5 q-59 20 -90 7t-47 -30q-8 -4 -44 -28.5t-75 -68.5t-68.5 -108.5t-25.5 -142.5zM392 607.5q7 76.5 28 135.5q14 39 39.5 60.5t50.5 30.5q31 18 59 20q8 0 23.5 1t23.5 5q10 4 13 0l8 -6q4 0 20.5 -14.5t36 -35t34.5 -38.5t24 -27q12 -27 5 -48t-16 -23q-6 -8 -14 -9 q-8 2 -14 6.5t-11 12.5q-12 8 -12 31l-2 12q-6 8 -10 17.5t-12 17.5q-2 4 -20.5 8t-38 7t-40 5t-26.5 -2q-31 -14 -52 -39q-18 -23 -36.5 -56.5t-14.5 -80.5q4 -82 47 -139.5t93 -65.5q43 -4 76.5 28t39.5 42q4 6 6 21.5t5 29.5q2 10 2 18.5t6 14.5q4 12 16 14t21 2l6 -2 q18 -20 10 -47v-4q-10 -86 -43 -122t-66 -46q-68 -23 -127 6t-98 103q-47 80 -40 156.5zM466 570.5q-5 45.5 13 91.5q14 37 53 45q14 2 37 0q-10 -23 -18 -18t-16 5q-6 0 -16.5 -5t-29.5 -83q-10 -39 0.5 -69.5t28.5 -47.5q16 -23 47 -38q-10 -6 -24 2q-25 8 -47 39 q-23 33 -28 78.5zM655 1171q113 -6 203 -61q70 -49 128 -162.5t46 -326.5q-12 -215 -66.5 -331t-115.5 -165q-74 -61 -162 -68q47 29 86 54q37 23 68.5 46t48.5 38q16 12 29.5 25t27 49t29.5 111t37 218q23 145 -31.5 251.5t-124.5 180.5q-90 82 -203 141zM664 297q4 0 18 6 q16 2 47 27q12 12 24.5 32.5t26.5 49.5l31 55q-12 -66 -36.5 -100.5t-49.5 -51.5q-31 -18 -61 -18z" />
<glyph unicode="&#xab;" horiz-adv-x="1187" d="M283 662q0 10 24.5 74.5t58 141t61.5 142t36 88.5q12 39 30.5 60.5t30.5 13.5q14 -4 39 -17.5t33 -34.5q6 -20 -14.5 -71t-38.5 -92q-6 -18 -32 -67.5t-53.5 -105t-48 -103.5t-20.5 -68q0 -23 17.5 -75t39 -111.5t41 -109t27.5 -63.5q2 -10 19.5 -35.5t27.5 -50t5 -49.5 t-38 -35q-37 -10 -56 6.5t-30.5 41t-14.5 53t-7 41.5q-6 14 -28.5 77.5t-45 137t-43 136t-20.5 75.5zM455 643q0 6 28.5 73.5t59.5 145.5q37 94 90 209q2 -6 -25.5 -72.5t-54.5 -142.5q-39 -92 -84 -199l61 -184q25 -72 46.5 -144.5t33.5 -103.5q10 -37 6 -60.5t-10 -39.5 q-10 -20 -22 -31l6 8q6 2 12 17q0 8 8 37q2 14 4 24q-41 123 -75 223q-14 45 -27.5 87t-28 74t-21.5 53.5t-7 25.5zM565 649q0 12 11.5 38t24.5 59.5t26.5 64.5t17.5 45t17.5 47t31 73t29.5 74.5l20 57.5q8 39 26.5 60.5t35.5 13.5q14 -4 38.5 -17.5t30.5 -34.5 q8 -20 -14 -71t-39 -92q-8 -18 -32.5 -67.5t-51 -105t-49 -103.5t-22.5 -68q0 -23 18 -75t39.5 -111.5t42.5 -109t29 -63.5q2 -10 18 -35.5t26.5 -50t4.5 -49.5t-37 -35q-35 -10 -54.5 6.5t-30.5 41t-15.5 53t-8.5 41.5q-8 14 -28.5 75.5t-44 133t-42 133t-18.5 71.5z M735 643q0 6 26.5 73.5t59.5 145.5q39 94 90 209q6 -6 -22.5 -72.5t-54.5 -142.5q-39 -92 -84 -199l61 -184q25 -72 47.5 -144.5t30.5 -103.5q10 -37 8 -60.5t-10 -39.5q-12 -20 -23 -31l8 8q2 2 11 17q0 8 6 37q6 14 8 24q-41 123 -78 223q-14 45 -29.5 87t-27.5 74 t-19.5 53.5t-7.5 25.5z" />
<glyph unicode="&#xac;" horiz-adv-x="1234" d="M233 465q-23 190 3 303t68 175.5t87 85t68 32.5q23 12 58.5 17t72.5 6t65.5 1h34.5q14 0 8.5 11.5t6.5 19.5q16 6 43.5 -27.5t60.5 -82.5q14 -23 37.5 -78.5t46 -126t38 -144t11.5 -139.5q-2 -63 -24.5 -124.5t-49.5 -112.5q-35 -57 -73 -105l-11 -16q-2 -6 -38.5 -21.5 t-95 -25t-125 -4t-126 41t-105.5 109.5t-61 205zM285 608q2 -76 21.5 -134t42 -99t42 -60.5t27.5 -21.5q16 -8 23.5 -14.5t13.5 -16.5q0 -2 14 -16.5t43 -25.5t60.5 -16t66.5 5q37 14 79 34.5t73.5 65.5t54 115t22.5 170q-6 102 -30.5 174t-61.5 115t-75.5 64.5t-69.5 29.5 q-55 20 -86 8t-49 -27q-6 -8 -42 -31.5t-76 -68.5t-69.5 -108.5t-23.5 -141.5zM362 641q39 184 90.5 239.5t57.5 45.5q0 -4 -19.5 -20.5t-45 -55.5t-47 -102.5t-17.5 -159.5q4 -94 27.5 -151.5t50.5 -90.5q35 -39 76 -53q-61 31 -103 80q-39 45 -62.5 111.5t-7.5 156.5z M436 371q0 10 6 14q2 18 8.5 67.5t6.5 65.5v6q-2 49 -5 86t-3 60q0 33 3 72.5t5 48.5q0 10 3 19t19 17q4 2 45 2h88l27 -2q20 0 45 -5t50.5 -22.5t41 -52t15.5 -92.5q0 -61 -35 -90q-35 -37 -86.5 -42t-79.5 -5h-23q-16 -4 -26 0h-9q-23 8 -28 8q0 -14 -3 -49t-3 -49 q0 -43 12 -55q0 -2 5 -13.5t5 -21.5v-4q0 -25 -10 -27q-14 -6 -31 2q-25 14 -34 29.5t-9 32.5zM510 588h22l27 6h6q25 -6 41 -6h56q12 0 42.5 22.5t30.5 59.5q0 39 -11 54t-32 24q-6 8 -27.5 6t-37.5 -2h-15h-53q-16 0 -27 4h-12l-2 2q-4 0 -8 -2v-8q0 -8 2 -25.5t2 -30.5 v-37q0 -10 -2 -34.5t-2 -32.5zM532 293q2 6 3 14q0 16 6 27q2 14 1 36.5t-1 39.5q0 18 -4 49t-2 35q6 2 8 -10.5t6 -32t6 -43t2 -39.5q-6 -45 -14 -60q-8 -10 -11 -16zM668 1178q117 -6 202 -62q72 -49 129.5 -161.5t49.5 -329.5q-16 -209 -70.5 -325t-116.5 -165 q-72 -66 -162 -69q47 27 86 51q37 23 69 46t52 38q12 14 25.5 26.5t29 48t31 112.5t35.5 218q23 141 -31.5 250t-126.5 180q-85 85 -202 142zM700 496q20 8 35 18q12 10 26.5 19.5t22.5 19.5q16 23 28.5 62.5t10.5 70.5q0 33 -11 67.5t-28 49.5l-28 26q8 -4 26 -16 q8 -8 17.5 -21.5t17.5 -33.5q14 -39 14 -83t-14 -79q-16 -23 -48 -58.5t-69 -41.5z" />
<glyph unicode="&#xad;" horiz-adv-x="1249" d="M342 620.5q-2 8.5 16 14.5q16 6 74.5 6t85.5 -6q10 -6 45 -3t76 3h98q8 0 37 13.5t57 2.5q31 -10 42.5 -45t5.5 -57q-2 -23 -14.5 -42.5t-39.5 -21.5q-25 -8 -34 -0.5t-23 7.5h-270q-25 0 -61 -2.5t-48 6.5q-16 6 -18 20q-8 8 -9 19l13 6q14 8 14 20q6 10 -12.5 23.5 t-26.5 19.5q-6 8 -8 16.5z" />
<glyph unicode="&#xae;" horiz-adv-x="1232" d="M236 465q-23 190 2.5 303t67.5 175.5t87 85t68 32.5t58.5 16t72.5 7t65.5 1h34.5q14 0 8.5 11.5t6.5 19.5q16 6 43.5 -27.5t60.5 -82.5q14 -23 37.5 -78.5t46.5 -126t38 -144t11 -139.5q-2 -63 -24.5 -124.5t-49.5 -112.5q-35 -57 -73 -105l-11 -16q-2 -6 -38.5 -21.5 t-95 -25t-125 -4t-126 41t-105.5 109.5t-60 205zM287 608q2 -76 21.5 -134t42 -99t42 -60.5t27.5 -21.5q16 -8 23.5 -14.5t13.5 -16.5q0 -2 14 -16.5t43 -25.5t60.5 -16t66.5 5q37 14 79 34.5t73.5 65.5t54 115t22.5 170q-6 102 -30.5 173t-61.5 115t-75.5 65.5t-69.5 29.5 q-55 20 -86 8t-49 -27q-6 -8 -42 -31.5t-76 -68.5t-69.5 -108.5t-23.5 -141.5zM324 509q-2 67 16 157t46 144t55.5 79.5t47 32t23.5 4.5q0 -4 -25.5 -28t-57.5 -70t-56.5 -115.5t-22.5 -161.5q2 -96 -4 -126t-13 -6.5t-9 90.5zM426 434v72v16v111v145q0 4 2 31t10 33 q6 2 43 2h31h49h56.5t35.5 6t9 0q2 0 2 -3t4 -3q10 -2 21 -5t28 -22q14 -12 30.5 -38.5t20.5 -76.5q0 -23 -10 -45t-26.5 -41.5t-31 -30t-20.5 -10.5v-2v-6q0 -6 12 -39l10 -24q8 -14 18.5 -30.5t20.5 -33.5q27 -35 27 -43q4 -4 4 -12q0 -27 -24 -31q-6 -6 -17 0 q-14 4 -26.5 30t-24.5 50l-2 10l-10 23q-12 29 -29.5 67.5t-30.5 45.5q-6 8 -15 4t-20 -9q-4 0 -8 -1t-6 -1q-6 0 -14 -3t-15 -3h-26t-19 -2q-2 -4 -1 -16t1 -21v-2v-20t-2 -31q-2 -10 -2 -20.5v-12.5q0 -8 4 -22q10 -27 11 -35q0 -6 -15 -23q-20 -8 -24 -6h-6q-12 0 -15 11 l-6 12q-4 6 -4 55zM479 651.5q-4 -10.5 2 -16.5q10 0 25 8h6l4 4q12 0 21 -4q16 -2 34.5 -5t34.5 -5q57 0 72 16q14 12 23.5 29.5t5.5 38.5q-4 14 -9.5 30.5t-17.5 22.5q-27 10 -39 10q-10 0 -13 -1t-7 -1q-4 -8 -16.5 -6t-31.5 2h-14h-16q-6 -4 -21 -4h-6q-10 0 -18 4 q-14 6 -15 0q-2 -4 -2 -16q0 -2 2 -23.5t2 -38.5v-2l7 -12q0 -10 -7 -12q-2 -8 -6 -18.5zM481 354l2 4q14 -4 25 -4h4l4 4q6 8 6 23v14q0 2 -1 23.5t-1 42t-2 39t-2 22.5v4q0 16 4 23h8l7 -6q8 -2 14 -6.5t12 -4.5q29 0 29 -18q0 -8 -12 -10q-8 0 -15.5 4t-15.5 6 q0 -8 -1 -16.5t-1 -22.5q0 -8 2 -16v-2q0 -29 -8.5 -70t-16.5 -53q-2 -2 -10 -2q-12 0 -20 10q-8 4 -11 12zM651 1169q113 -2 199 -61q74 -49 132 -160.5t46 -329.5q-14 -213 -68.5 -327.5t-113.5 -165.5q-74 -59 -166 -70q49 31 88 58q35 20 68.5 42.5t50.5 39.5 q14 14 26.5 26t27.5 49t30.5 112t38.5 214q20 145 -33 253.5t-127 180.5q-86 80 -199 139zM692 866l2 8l13 -8q80 -39 92 -73.5t20 -75.5v-15v-10q0 -37 -20.5 -67.5t-34.5 -44.5l-10 -13v-2q0 -12 16 -53t23 -57l-7 -4q-18 31 -39.5 72.5t-21.5 43.5q0 8 47 41l4 8 q27 16 27 97q0 18 -6 53q-8 33 -41 58.5t-54 35.5v4z" />
<glyph unicode="&#xb1;" horiz-adv-x="1230" d="M276 541q-8 16 12.5 37.5t49.5 29.5q27 8 52.5 4t37.5 -4q2 0 33 -5t71 -15v61q6 31 1 49.5t-11 34t-11 31.5t-5 47q2 29 35.5 46t64.5 9q35 -4 50.5 -32.5t15.5 -45.5q0 -18 -7.5 -30.5t-7.5 -26.5l-5 -15q-5 -14 -13 -31t-12 -34.5t-4 -27.5q0 -16 9 -22.5t17 -12.5 q29 -8 43 -8q10 0 44 10t40 16q33 4 63.5 17.5t55.5 13.5q29 0 45 -32t10 -68q-8 -33 -32.5 -47.5t-45.5 -14.5q-16 0 -28.5 7t-26.5 7h-55t-109 5q-4 -80 -5 -140.5t-1 -66.5t1 -45t-42 -45q-39 -10 -64.5 13t-33.5 52q-6 31 9 51.5t15 32.5v150q-63 6 -111 6h-56 q-4 0 -37 -3t-52 42zM301 -55q-10 35 13.5 60.5t50.5 33.5q29 6 50 -9.5t31 -15.5h312q23 0 79 13.5t81 13.5q27 0 45 -32t12 -68q-8 -33 -35 -46.5t-45 -13.5q-16 0 -28.5 6.5t-30.5 6.5q-4 0 -74 2t-151 4t-149.5 4t-70.5 2q-10 0 -46 -2t-44 41zM412 451h20h51 q-4 -8 -17 -9.5t-25.5 -0.5t-22.5 5.5t-6 4.5zM700 428h19q6 0 17.5 2t25.5 2q27 0 42 -2t21 -2t-12 -1t-41.5 -4t-46.5 -3t-25 8zM979 512v76q4 -4 3 -17.5t-1 -27.5q-2 -14 -2 -31z" />
<glyph unicode="&#xb4;" horiz-adv-x="1208" d="M399 1282q-18 0 12.5 26.5t61.5 39.5q27 14 50.5 33.5t47.5 29.5q25 14 59 43t56 55q16 25 47 19t51 -33q16 -31 -8 -46t-43 -17q-18 -10 -25.5 -16.5t-29.5 -14.5q-10 -6 -33.5 -21.5t-52.5 -31.5q-31 -20 -62 -45q-23 -10 -36 -17q-18 -6 -33 -10t-23 -4q-16 0 -20.5 5 t-18.5 5zM512 1266l27 16q20 6 32 14q33 14 54 29l88 53q-10 -6 -5 -17t-1 -11q-14 0 -52 -17l-41 -22z" />
<glyph unicode="&#xb7;" horiz-adv-x="1198" d="M516 791q0 12 16 34q5 13 15 17q-12 -12 -6 -55.5t-4 -63.5q-2 -8 -11 -25q-2 -6 -2 -12v57q0 8 -4 17.5t-4 30.5zM543 678q0 16 30 37l37 18q0 10 -8 14.5t-18.5 6.5t-17.5 8t-7 20q4 29 9 55.5t26 26.5q4 0 26.5 -7t42 -20.5t36 -40t14.5 -63.5q-8 -74 -48 -91t-69 -11 q-53 12 -53 47z" />
<glyph unicode="&#xbb;" horiz-adv-x="1187" d="M307 133q-8 23 14.5 73t38.5 89q8 23 34 72t53.5 104t48 104.5t20.5 71.5q0 23 -18.5 74t-39 109.5t-41 108.5t-26.5 62q-8 14 -23.5 38t-25.5 50.5t-4 50t39 34.5q31 12 50 -5.5t30.5 -42t16.5 -52t9 -42.5q6 -14 26.5 -75.5t43 -134t44 -134t21.5 -70.5 q0 -10 -14 -38.5t-27.5 -60.5t-25.5 -62.5t-14 -44.5q-6 -12 -18.5 -48t-28 -73l-31 -74t-19.5 -59q-10 -39 -28.5 -60.5t-32.5 -13.5q-12 8 -38 20.5t-34 28.5zM360 23h23q22 0 45 10q4 2 14.5 7t16.5 7q8 2 10 8q-16 -20 -34.5 -25t-37.5 -7q-18 -4 -37 0zM514 195 q-6 8 18.5 75.5t55.5 141.5q37 90 84 198q-35 94 -62 183q-25 70 -48 141.5t-25 107.5q-12 33 -16.5 44.5t-0.5 11.5t10 -17l76 -223q29 -84 54.5 -154.5t25.5 -78.5q0 -6 -29.5 -73t-60.5 -149zM586 133q-10 23 12.5 73t38.5 89q10 23 34.5 72t51.5 104t49.5 104.5 t22.5 71.5q0 23 -18.5 74t-41 109.5t-42 108.5t-25.5 62q-8 14 -24.5 38t-25 50.5t-3 50t35.5 34.5q35 12 54.5 -5.5t31 -42t16.5 -52t7 -42.5q6 -14 27.5 -76.5t46 -137.5t44 -137.5t19.5 -72.5q0 -12 -26.5 -77.5t-58.5 -140.5t-61.5 -142.5t-31.5 -89.5 q-12 -39 -29.5 -60.5t-32.5 -13.5q-14 8 -40.5 20.5t-30.5 28.5zM588 45q23 -12 39 -14q41 -16 69 2q16 8 44 64.5t51 109.5q6 20 31.5 84.5t56.5 138.5q35 82 73 180q-33 94 -61 183q-25 70 -48.5 141.5t-31.5 107.5q-8 33 -12 44.5t-2 11.5q6 0 12 -17l80 -223 q29 -84 53.5 -154.5t24.5 -78.5q0 -6 -20.5 -60.5t-50.5 -123t-58.5 -134t-40.5 -92.5q-10 -31 -24.5 -64.5t-29 -63.5t-25.5 -51.5t-22 -25.5q-14 -4 -31.5 -2t-37.5 10q-16 12 -39 27z" />
<glyph unicode="&#xbf;" horiz-adv-x="1214" d="M303 276q-12 80 31 155t98 130q63 68 148 127v113q0 33 -6.5 51t-7.5 24.5t4 8.5t30 2q0 10 4 18q8 6 16.5 7t30.5 -3q20 -10 25.5 -23.5t-0.5 -23.5q-2 -14 -12 -28l-7 -54q-6 -18 -6 -39.5v-38.5q0 -33 4 -51t-4 -49q-4 -33 -29.5 -40t-76.5 -25q-25 -6 -51.5 -37 t-50 -70t-37 -78t-13.5 -67q0 -29 9.5 -48.5t25.5 -37.5q14 -18 39 -31q-18 10 -29 12q-6 4 -12 -2t8 -22q25 -41 47.5 -55.5t93.5 -30.5q35 -8 73 4t70 34.5t59.5 47t43.5 43.5q33 33 45.5 49t-12.5 47q-10 16 -3 41.5t23.5 45t36 30t29.5 2.5q25 -16 18.5 -58.5 t-6.5 -79.5q0 -23 -23.5 -65.5t-61.5 -85.5t-89 -77t-106 -34q-59 0 -117.5 11.5t-110 38t-90.5 78t-51 134.5zM479 314.5q6 21.5 12.5 43t17.5 39t17 25.5q2 6 32 26.5t60.5 46t57 49t22.5 34.5q-2 8 -1 30.5t5 44.5q4 25 9 54v-43q0 -18 5 -54.5t5 -48.5q0 -25 -25 -35 q-10 -6 -48 -35.5t-58 -46.5q-10 -10 -24.5 -26.5t-24.5 -26.5q-14 -12 -25.5 -27.5t-19.5 -35.5q-11 -16 -15 -43q-8 8 -2 29.5zM496 1128q-16 25 4 65t41 69q16 25 57 18.5t68 -23.5q31 -20 38 -44.5t7 -49.5q-12 -2 -25 -10q-12 -6 -20.5 -17.5t-6.5 -23.5 q6 -31 11.5 -30t-4.5 -7q-14 -16 -40 -8t-44 8q-49 0 -86 53zM698 -37q4 -8 28 2t51.5 21.5t51 27t29.5 25.5q10 20 43 43q14 8 31 16q-6 -14 -14 -24q-4 -14 -25 -35q-4 -4 -30.5 -26.5t-57.5 -37.5l-12 -6q-43 -10 -68 -10q-15 0 -27 4z" />
<glyph unicode="&#xc0;" horiz-adv-x="1216" d="M243.5 90q6.5 31 23 67t36 71.5t25.5 50.5q18 29 30.5 65.5t12.5 56.5q4 16 8 44t31 102q31 72 64.5 145.5t33.5 87.5q0 31 14 72q8 20 20.5 35.5t12.5 30.5q0 12 -9 30.5t-1 42.5q2 27 28.5 67t55.5 19q10 -10 18 -33.5t14.5 -50t10.5 -50t4 -36.5q2 -10 20.5 -50 t41 -93t43 -104.5t32.5 -86.5q10 -33 33.5 -91t49.5 -118.5t45.5 -108.5t27.5 -60q10 -27 32.5 -49.5t20.5 -51.5q-6 -27 -21.5 -39t-54.5 -10q-39 6 -51 39t-18 53q-6 23 -30 69t-34 50q-12 12 -32.5 -6.5t-45.5 -28.5q-27 -12 -57.5 -8t-99.5 4q-68 0 -92.5 -9t-49.5 -9 q-27 0 -35 16t-30 14q-18 0 -13.5 -18t2.5 -37q-2 -18 -13 -54t-28 -65q-20 -25 -32.5 -14.5t-26.5 14.5q-23 4 -16.5 35zM350 25l33 34q10 16 25 50q6 14 12 34q4 -23 -5 -42t-26 -40q-14 -16 -39 -36zM399 332q20 -6 35 -8t58 14q39 14 57 20.5t26 3.5q10 -8 25.5 -11 t52.5 -3q20 0 42 -5t44.5 -11t37 -4t18.5 20q4 29 -0.5 61.5t-20.5 69.5q-12 20 -36.5 76.5t-54.5 118t-54.5 112t-32.5 56.5q-14 6 -20.5 -7.5t-12.5 -29.5q-16 -18 -30.5 -33.5t-4.5 -15.5q4 -6 15.5 -14.5t11.5 -16.5q0 -4 -12.5 -36t-28.5 -75t-31.5 -85t-21.5 -60 q-2 -18 -15.5 -38.5t-25.5 -41t-19.5 -36t-1.5 -21.5zM406 1444q16 29 44.5 34t51.5 -20q16 -27 50 -55.5t60 -42.5q25 -10 49.5 -30t53.5 -34q29 -12 59.5 -37.5t9.5 -25.5q-14 0 -17 -6t-19 -6q-8 0 -21.5 3t-34.5 11q-16 8 -39 18l-63 43q-27 16 -50.5 31.5t-33.5 22.5 q-20 8 -28.5 15t-28.5 15q-16 2 -40 18.5t-3 45.5zM432 156q61 4 121 12q47 2 93 6t71 -4zM471 1329l88 -55q18 -14 53 -29q12 -8 31 -12l31 -21l-107 48l-39 22q-37 16 -53 16q-4 0 0 11.5t-4 19.5zM518 455q10 41 19 71q8 31 19 56.5t19 29.5l-8 -26q-4 -37 -8 -47 q-6 -8 -12 -21.5t-15 -25.5zM547 418h16q14 0 27 6q10 6 18 -9.5t13 -33.5zM723 1018q98 -223 164 -397q31 -72 58.5 -141.5t49 -123t29.5 -82t0 -18.5q-2 4 -15.5 39t-34 89t-48 120.5t-56.5 138.5q-66 166 -147 375z" />
<glyph unicode="&#xc1;" horiz-adv-x="1216" d="M238.5 90q5.5 31 23 67t36.5 70.5t28 51.5q16 29 28.5 66.5t12.5 55.5q6 16 9 44t34 102q27 72 61.5 145.5t34.5 87.5q0 33 14 72q6 23 18.5 37t12.5 26q0 14 -8 33t-2 43q4 25 28.5 66t55.5 20q10 -8 19 -31.5t14.5 -51t8.5 -51t3 -32.5q4 -12 22.5 -53t40 -94 t43 -104.5t33.5 -86.5q10 -33 32.5 -91t49.5 -118.5t46 -108.5t24 -60q12 -29 35.5 -50.5t21.5 -48.5q-8 -31 -22.5 -44t-53.5 -9q-41 8 -54.5 40t-15.5 54q-8 23 -30.5 67t-32.5 52q-12 12 -33.5 -6.5t-48.5 -28.5q-25 -12 -55.5 -8t-98.5 4q-63 0 -88.5 -9t-50.5 -9 t-35 16t-32 14q-16 0 -10.5 -18t-0.5 -37q-4 -18 -14 -54t-29 -67q-18 -25 -30.5 -13.5t-26.5 13.5q-23 6 -17.5 37zM344 27l35 32q10 16 24 50q9 14 11 30q8 -18 -2.5 -39.5t-24.5 -38.5q-14 -18 -43 -34zM396 351.5q-7 -17.5 1 -19.5q16 -6 34 -8t56 10q39 18 56.5 24.5 t27.5 1.5q10 -6 26.5 -10t51.5 -4q16 0 41 -6t46.5 -10t35.5 -2t16 18q6 31 2 63.5t-24 69.5q-8 20 -34.5 76.5t-54.5 118t-52.5 113t-32.5 55.5q-12 4 -18.5 -8.5t-14.5 -28.5q-14 -18 -29.5 -33.5t-7.5 -15.5q8 -6 18.5 -14.5t10.5 -16.5q0 -4 -12.5 -36t-27.5 -75 t-32.5 -85t-19.5 -60q-6 -16 -18.5 -38.5t-25 -42t-19.5 -37zM401 1282q-20 0 10.5 26.5t61.5 37.5q29 14 52.5 33.5t45.5 31.5q23 14 58 43t57 53q16 27 47 21t49 -35t-7 -44t-42 -19q-18 -8 -25.5 -15.5t-29.5 -15.5q-12 -4 -36 -19.5t-50 -33.5q-31 -18 -62 -43 q-20 -12 -34 -17q-20 -8 -33.5 -12t-22.5 -4q-18 0 -22.5 6t-16.5 6zM428 156q61 4 121 10q45 4 92 7t74 -3zM512 1266l29 16q18 6 30 14q31 14 54 29l86 51q-8 -4 -4 -15t-2 -11q-12 0 -50 -17l-41 -22zM514 455q8 39 21 71q6 29 16 55.5t20 30.5l-6 -26q-6 -37 -8 -47 q-8 -8 -14 -21.5t-13 -25.5zM545 418h14q14 0 27 6q8 6 18 -11.5t12 -29.5zM717 1016q96 -221 166 -395q29 -72 58.5 -142.5t49 -123t28.5 -81t1 -18.5q-2 4 -15.5 39t-35 89t-48 120.5t-57.5 138.5q-63 164 -147 373z" />
<glyph unicode="&#xc2;" horiz-adv-x="1202" d="M113 1282q-20 0 10.5 26.5t58.5 39.5q27 14 53.5 33.5t51.5 29.5q27 14 59.5 43t52.5 55q23 25 50.5 19t46.5 -33q16 -31 -7.5 -46t-39.5 -17q-18 -10 -27.5 -16.5t-26.5 -14.5q-10 -6 -36.5 -21.5t-51.5 -31.5q-31 -20 -63 -45q-23 -10 -39 -17q-20 -6 -33.5 -10 t-21.5 -4q-18 0 -19.5 5t-17.5 5zM226 90q5 31 22.5 67t37 70.5t27.5 51.5q16 29 28.5 66.5t12.5 55.5q6 16 8.5 44t32.5 102q29 72 64 145.5t35 87.5q0 33 14 72q4 23 17.5 36t13.5 27t-9.5 33t-3.5 43q6 25 32 65t54 21q12 -8 20.5 -31.5t13.5 -51t8 -51t3 -34.5 q6 -10 24.5 -52t39 -94t43 -103.5t33.5 -86.5q10 -33 32.5 -91t49 -117.5t46 -108.5t25.5 -59q10 -31 34 -52.5t22 -48.5q-8 -31 -22.5 -43t-53.5 -10q-41 8 -53.5 40t-16.5 54q-8 23 -30.5 68t-32.5 53q-10 10 -33 -8.5t-47 -28.5q-27 -10 -56.5 -6t-97.5 4t-92.5 -10 t-48.5 -10q-27 0 -36 16t-32 14q-16 0 -11 -18t1 -37q-4 -16 -15.5 -53t-27.5 -66q-18 -27 -31.5 -15.5t-25.5 15.5q-23 4 -18 35zM227 1266l27 16q16 6 33 14q31 14 53 29l86 53q-4 -6 -2 -17t0 -11q-14 0 -51 -17l-43 -22zM332 27l33 32q12 16 26 52q8 12 10 30 q8 -20 -3 -40.5t-25 -37.5q-12 -20 -41 -36zM384 352.5q-7 -16.5 1 -20.5q16 -4 32.5 -7t55.5 11q39 16 57.5 23.5t28.5 0.5q12 -6 27.5 -10t52.5 -4q16 0 39.5 -5t46.5 -9t36 -3t17 17q4 31 0 64.5t-22 68.5q-8 20 -35 76.5t-54.5 118t-53 113t-33.5 55.5q-12 4 -17.5 -8.5 t-15.5 -28.5q-14 -20 -29.5 -35.5t-7.5 -15.5q8 -4 18.5 -12.5t10.5 -16.5q0 -4 -13.5 -36t-29 -75t-31.5 -85t-19 -60q-6 -16 -18 -38.5t-24.5 -42t-19.5 -36zM416 158q61 2 119 8q49 6 96 8t71 -2zM502 455q8 39 18 71q6 29 17.5 55.5t21.5 30.5l-4 -26q-8 -37 -12 -47 q-8 -8 -13.5 -21.5t-11.5 -25.5zM532 418h15q16 0 26 6t19.5 -11.5t11.5 -29.5zM686 1509q16 27 47 33t49 -20q20 -25 55 -53.5t60 -43.5q25 -12 48 -31.5t52 -31.5q31 -12 62 -39t10 -27q-16 0 -19 -5t-20 -5q-16 0 -53 14q-18 4 -35 17q-35 25 -68 45q-29 16 -53 31.5 t-33 19.5q-23 8 -29.5 15.5t-23.5 15.5q-18 4 -43.5 20.5t-5.5 44.5zM705 1016q98 -223 167 -395q27 -72 56.5 -142.5t49 -122t29 -81t1.5 -17.5q-2 2 -14.5 37t-35 89t-49 120.5t-57.5 138.5q-63 164 -147 373zM752 1395l86 -56q23 -14 57 -28q12 -8 29 -15l30 -16l-104 45 l-43 23q-8 2 -16.5 6t-16.5 8q-10 2 -14 2q-8 0 -2 11t-6 20z" />
<glyph unicode="&#xc3;" horiz-adv-x="1202" d="M236 90q4 31 19 67t34.5 71.5t27.5 47.5q20 33 29.5 70t15.5 55q4 16 6.5 44t30.5 102q27 72 64 145.5t37 87.5q0 33 12 72q8 23 21.5 37t13.5 31q0 10 -10.5 29.5t-4.5 41.5q2 10 10.5 29.5t23 35t28.5 25t24 -3.5q14 -10 21.5 -33.5t12.5 -50t9.5 -50t6.5 -36.5 q4 -8 21.5 -50t40 -94t45 -103.5t30.5 -86.5q10 -33 33.5 -90t46 -116.5t42 -106.5t27.5 -61q12 -29 37 -50.5t17 -52.5q-2 -29 -16.5 -41t-55.5 -10q-39 8 -51.5 41t-18.5 53q0 12 -8 31.5t-18.5 37t-19.5 35t-15 19.5q-8 6 -31.5 -12.5t-50.5 -26.5q-27 -10 -54.5 -5 t-97.5 5t-94 -11t-51 -11q-25 0 -36 18.5t-28 11.5q-18 -2 -13 -17t3 -36q-6 -16 -15 -55t-30 -64q-16 -29 -28.5 -17.5t-28.5 15.5q-18 2 -14 33zM307 1358q2 8 8.5 15t14.5 16q8 6 14 8q0 -2 8 -2q14 0 27 12q12 12 33.5 28.5t52.5 33t61.5 26.5t55.5 10q51 -6 81.5 -57 t65.5 -68q37 -14 49.5 1.5t26.5 9.5q16 -8 19 -33t22 -6q16 16 16 37v14l21 27q8 12 16 21t16 1q6 -8 10.5 -31.5t-3.5 -31.5q-2 -8 -21.5 -24.5t-45.5 -32t-53.5 -30t-51.5 -8.5q-27 2 -52.5 18.5t-47 36t-38 37t-18.5 21.5q-12 10 -37 10t-47 -12q-18 -8 -32.5 -22.5 l-22.5 -22.5q-6 -4 -8.5 -19.5t-12.5 -35.5q-16 -18 -31.5 -18.5t-35.5 7.5q-23 6 -46.5 16.5t-13.5 47.5zM340 27q0 4 6 10q6 8 11 12t12 10q10 20 24 50q9 18 15 34q6 -37 -29 -75q-12 -18 -39 -41zM391 336q16 -6 31.5 -9t54.5 9t56.5 21.5t29.5 2.5q23 -12 84 -12 q12 0 36 -5t46.5 -9t38.5 -3t16 15q15 69 -18 137q-12 16 -36.5 72.5t-53.5 121t-54.5 114t-33.5 53.5q-16 8 -20.5 -4.5t-18.5 -34.5q-14 -16 -27.5 -31.5t-5.5 -19.5q8 -2 19.5 -10.5t11.5 -14.5q0 -4 -13.5 -38t-30 -77t-32.5 -85t-18 -60q-4 -16 -16.5 -38.5t-25 -42 t-20.5 -35t0 -17.5zM424 162q61 6 119 8q51 6 95 7t69 -7zM485 1348l15 8q10 4 35 10q25 0 34 -6q4 -2 11 -4zM510 455q6 39 16 71q8 29 19.5 55.5t23.5 30.5l-10 -26q-8 -31 -12 -45q-4 -6 -9.5 -21.5t-13.5 -27.5zM539 422h12q18 0 29 4q14 4 22 -13.5t14 -29.5zM715 1016 q98 -223 166 -395q27 -72 56.5 -142.5t49 -121t28.5 -78t1 -19.5q-2 2 -14.5 36t-35 88t-49 120.5t-55.5 138.5q-63 164 -147 373zM852 1288q14 6 28.5 17.5t30.5 15.5q18 8 29.5 14t17.5 23q8 23 9 47v29l-9 10q41 16 19 -76q-8 -20 -28.5 -35.5t-44 -27t-41 -15.5 t-11.5 -2z" />
<glyph unicode="&#xc4;" horiz-adv-x="1249" d="M270.5 90q3.5 31 20 67t36 71.5t27.5 47.5q18 31 31.5 69t13.5 56l5.5 44t33.5 102q27 72 62 145.5t35 87.5q0 33 14 72q8 23 20.5 36t12.5 25q0 18 -9.5 36t-1.5 42q2 27 29 66t55 20q10 -10 20.5 -33.5t14.5 -50t8 -50t4 -34.5q2 -10 20.5 -52t41 -94t44 -103.5 t30.5 -86.5q12 -33 35.5 -92t47 -119.5t45 -107.5t27.5 -55q10 -31 34 -52.5t22 -52.5q-8 -27 -22.5 -39t-55.5 -10q-39 8 -51.5 40t-14.5 54q-8 23 -31.5 67t-35.5 52q-8 10 -30 -8.5t-48 -26.5q-25 -12 -55.5 -9t-100.5 3q-68 0 -92.5 -8t-48.5 -8q-25 0 -35 15t-29 13 q-20 0 -15 -18t3 -35q-6 -20 -15.5 -56t-29.5 -65q-16 -25 -28.5 -13.5t-28.5 13.5q-18 4 -14.5 35zM354 1393q0 37 24.5 52t37.5 17q8 6 12 6q12 0 31.5 -7t42 -20.5t36 -39t11.5 -60.5q-6 -74 -46 -91t-69 -13q-55 6 -55 45q0 14 20 25q4 8 17 14q2 14 -10.5 25.5 t-6.5 42.5q0 4 1 8t1 10q-8 -25 -14 -45.5t-8 -32.5q-6 -8 -6 -13t-4 -11q-4 -8 -4 -13q-2 12 -3 27v27q0 8 -4 19t-4 28zM377 25l31 34q10 18 26 50q6 16 8 32q8 -20 -3 -39.5t-23 -40.5q-14 -16 -39 -36zM426 332q16 -8 33.5 -9t56.5 11q41 14 59.5 22.5t26.5 3.5 q10 -6 25.5 -10t52.5 -4q20 0 44 -6l44 -11t35.5 -2t17.5 19q4 29 1 62.5t-23 70.5q-10 20 -35 76.5t-54.5 118t-54 113t-32.5 55.5q-14 8 -20.5 -4.5t-14.5 -32.5q-14 -16 -27.5 -32.5t-9.5 -16.5q8 -4 19.5 -13.5t11.5 -17.5q0 -4 -12.5 -36t-29 -75t-34 -85t-19.5 -60 q-2 -16 -15 -38.5t-25.5 -42t-20.5 -37t0 -19.5zM459 156q61 6 121 12q47 2 94 6t74 -4zM547 455q4 39 16 71q8 29 19.5 55.5t19.5 30.5l-8 -26q-6 -37 -8 -47q-6 -8 -12.5 -21.5t-14.5 -25.5zM573 418h15q16 0 28 4q10 8 18.5 -9.5t14.5 -29.5zM690 1393q0 14 15 37 q8 10 16 18q-10 -16 -5 -59t1 -60q-6 -8 -6 -13t-6 -11q-2 -8 -3 -13q-2 12 -2 27v27q0 8 -5 19t-5 28zM717 1282q0 16 33 37l36 22q0 4 -7 8.5t-18 7.5t-18.5 8t-7.5 24q4 27 9.5 53t21.5 26q12 0 32.5 -7t41 -20.5t36 -39t11.5 -60.5q-6 -74 -47 -91t-68 -13q-55 6 -55 45 zM750 1018q98 -223 165 -397q27 -72 56.5 -142.5t49 -124t29 -80t1.5 -16.5q-2 4 -15.5 38t-35 88t-48 120.5t-55.5 138.5q-63 164 -147 375z" />
<glyph unicode="&#xc5;" horiz-adv-x="1251" d="M223 80q0 18 11.5 48t25.5 59.5t28.5 56t20.5 39.5q16 29 27.5 64.5t15.5 51.5q2 18 7.5 45t29.5 101q12 37 29.5 75.5t33 72.5t26.5 57.5t11 29.5q0 12 2.5 30.5t12.5 41.5q8 20 20.5 35.5t12.5 32.5q0 12 -7.5 29.5t-7.5 39.5q2 12 9.5 28.5t17.5 32t22.5 26.5t22.5 11 q6 0 12 -6q14 -10 22.5 -34.5t13.5 -52t8 -52t5 -35.5q2 -10 20.5 -52t41 -93t44 -103.5t32.5 -85.5q10 -33 33.5 -91t48 -117.5t45 -107.5t26.5 -60q10 -25 31.5 -45.5t21.5 -47.5v-10q-4 -25 -15 -37t-40 -12q-4 0 -9 1t-9 1q-20 2 -32.5 12.5t-20 24.5t-11.5 28.5 t-6 24.5q-2 12 -10 30.5t-17.5 38t-18.5 35t-15 19.5q-2 2 -9 2q-12 0 -32.5 -14.5t-42.5 -24.5q-18 -6 -39 -6q-18 0 -43 2t-66 2q-68 0 -96.5 -11t-50.5 -11q-23 0 -33 16t-27 16q-16 0 -16 -16q0 -4 1 -11t1 -14q0 -8 -2 -12q-2 -18 -12.5 -56t-28.5 -65q-14 -16 -25 -16 q-10 0 -18 6t-16 8q-16 2 -17 25zM332 25q2 4 8 10q4 4 9 11t11 15q6 6 12.5 19.5t12.5 28.5q8 16 14 32q0 -23 -11 -43t-23 -37q-14 -20 -33 -36zM379 342q0 -2 4 -6q8 -4 13 -6t16 -2q20 0 57 14q33 10 50.5 16.5t27.5 6.5q6 0 10 -3q10 -4 26.5 -8t51.5 -4q23 0 54.5 -10 t53.5 -10q25 0 29 18q2 8 3 15.5t1 17.5q1 51 -26 102q-6 12 -19.5 43t-31 70t-37 82t-37 79t-29.5 60.5t-16 26.5t-9 2q-10 0 -14 -12.5t-16 -30.5q-12 -14 -25.5 -27.5t-13.5 -17.5q8 -2 16 -8q6 -4 12.5 -10.5t6.5 -10.5t-13.5 -39t-30 -78t-32 -84t-17.5 -59 q-4 -14 -14 -32.5t-21.5 -37t-20.5 -34t-9 -23.5zM442 1384q0 43 9.5 71t22.5 44.5t27.5 25.5t24.5 13q6 6 11 6q6 2 19 4t26.5 3t25 2t13.5 1h2q2 0 3 1t5 1q8 0 19.5 -6t25.5 -28q6 -10 15 -28.5t18.5 -42.5t15.5 -49.5t6 -49.5v-6q-2 -35 -23.5 -68t-31.5 -49q0 -4 -3 -6 t-5 -4q-4 -4 -28 -10.5t-52 -6.5q-20 0 -31 2q-35 4 -67.5 27.5t-43.5 95.5q-2 16 -3 30.5t-1 26.5zM487 1380q2 -51 21.5 -74.5t26.5 -25.5q4 -4 9 -5t5 -5q4 -6 10 -10q12 -8 27 -9q6 0 14 4q31 8 53.5 29t22.5 74v16q0 59 -24.5 85t-51.5 34q-12 4 -14 4q-10 0 -23 -12 q-29 -16 -52.5 -44t-23.5 -61zM500 455q10 39 18 73q8 29 18.5 54.5t22.5 35.5q-2 -18 -6 -32q-4 -12 -8 -24.5t-8 -18.5q-4 -10 -10.5 -24.5t-12.5 -29.5q-8 -16 -14 -34zM520 1362q0 10 2 16q4 12 9.5 22.5t9.5 20.5q12 18 22 26.5t12 8.5h9l-4 -6q-6 -6 -24.5 -23.5 t-18.5 -56.5q6 -47 28 -67q4 -4 9.5 -7.5t9.5 -5.5t6 -2v-8q-4 0 -8 2q-10 2 -19 12q-4 6 -10 11.5t-12 11.5q-8 10 -14.5 20.5t-6.5 24.5zM528 422q2 -2 7 -2h12q8 0 24 4q14 0 20.5 -15.5t8.5 -27.5zM645 1569v8q4 0 34 -5t58 -34q23 -23 34 -58.5t11 -82.5v-23 q-2 -78 -23.5 -119t-39.5 -55q-23 -16 -41.5 -19t-22.5 -3q0 2 9.5 8t21.5 13t24.5 14.5t18.5 13.5t12.5 13t11.5 21.5t9 39t8 65.5v20q0 55 -20.5 90t-42.5 56q-27 23 -62 37zM705 1018q84 -203 151 -365q29 -70 55.5 -137t48 -121.5t35 -91.5t13.5 -45q-4 2 -18.5 36 t-36 88t-49 121.5t-54.5 139.5q-66 166 -145 375z" />
<glyph unicode="&#xc6;" horiz-adv-x="1802" d="M167 123q13 29 41 63.5t59.5 66.5t43.5 44q27 33 50.5 65.5t27.5 49.5q4 6 8 15t12.5 23.5t22.5 38t39 58.5t54.5 70.5t54 66.5t42 52.5t17.5 27.5q6 16 13 31.5t24 38.5q16 18 32.5 31.5t22.5 29.5q2 10 -1 27.5t7 40.5q6 12 28.5 29.5t50.5 32.5t53.5 21.5t37.5 -4.5 l-4 -2q23 6 67 6.5t90 -1t86 -3.5t52 -2q14 0 42 1t56.5 4.5t52 7.5t33.5 10q18 10 47 16t46 -4q14 -8 32.5 -41t16.5 -55q-2 -23 -17.5 -44.5t-50.5 -25.5q-31 -2 -68.5 3.5t-66.5 5.5q-6 0 -26.5 -1.5t-48 -2.5t-60.5 -2t-66 -3q-78 -4 -172 -6q-4 -10 -5 -54t-1 -95v-133 q23 2 43 4q16 2 33.5 3t28.5 1q8 0 30.5 -1t47 -3t47 -4.5t32.5 0.5q12 0 26.5 6t31 11t31 8t26.5 -1q20 -4 45 -16.5t20 -53.5q0 -39 -10 -60t-51 -32q-20 -4 -31.5 -4t-18.5 2t-14.5 6.5t-17.5 8.5q-10 2 -41 2h-64.5t-63.5 -1t-38 -1q-14 -8 -36.5 -4t-39.5 -3 q-6 -2 -10 -31.5t-6 -65.5t-1 -67.5t5 -37.5q4 -14 7 -34t3 -28q0 -4 -3 -14t-6 -21.5t-3 -21.5t6 -12q8 -2 21.5 -1t28 3t28.5 4t23 2q8 0 50 -4t92 -9.5t94 -8.5t61 -1q16 2 41.5 11.5t52 18.5t50.5 14t38 1q12 -4 19 -18t12.5 -31.5t6.5 -35t1 -29.5q-2 -12 -13.5 -23.5 t-24.5 -22t-26.5 -16.5t-19.5 -6q-10 0 -34 4t-50.5 9.5t-51 9.5t-36.5 4h-38h-71t-89 1t-90 1t-71.5 1t-38.5 1q-20 4 -35.5 31.5t-15.5 37.5q0 6 -5 54.5t-9 101.5q-23 -6 -44.5 -10t-33.5 -6q-14 -6 -27.5 -8.5t-32 -1t-43 2.5t-61.5 1q-35 2 -58.5 1t-42 -4.5 t-31.5 -6.5t-27 -3q-10 0 -16.5 5.5t-11.5 10.5t-11.5 9t-16.5 2q-23 0 -22.5 -16.5t-8.5 -32.5q-4 -16 -23.5 -49t-47.5 -54q10 6 21.5 18.5t21.5 24.5q12 14 26 31q-4 -18 -22.5 -37.5t-38.5 -36.5q-25 -18 -53 -34q2 2 6 4t16 10q-18 -10 -33.5 -10t-26.5 4t-19.5 10 t-14.5 6q-20 4 -7 33zM420 188q68 6 129 11q53 4 104 4t76 -6zM455 350q12 -6 28.5 -9t61.5 11q43 10 65.5 17.5t34.5 -0.5q10 -2 26.5 -6.5t57.5 -4.5q18 0 50 -5t63 -11q-2 20 -2 35.5v25.5q0 18 3 39t6 40.5t7 34.5t6 22q2 10 0 38.5t-5 63.5t-7 69.5t-6 57.5 q0 14 1 34.5t5 45.5q-25 -10 -54.5 -29.5t-39.5 -30.5q-20 -18 -41 -32.5t-15 -16.5q8 0 18.5 -8t10.5 -16q-2 -4 -26.5 -35t-54.5 -71t-57.5 -78.5t-35.5 -55.5q-10 -16 -29.5 -37.5t-38 -40t-30 -32t-2.5 -15.5zM608 461q20 37 43 67q18 27 37 50.5t35 29.5 q-10 -14 -18 -26q-8 -10 -15.5 -22.5t-13.5 -20.5q-6 -6 -18.5 -19.5t-22.5 -25.5q-12 -16 -27 -33zM625 428h16h14.5t16.5 2q16 4 21 -9.5t1 -29.5zM979 684q2 10 6 18q8 20 8 37q-4 6 -3 25.5t1 42.5q0 25 2 57h195q-37 -4 -66 -10q-27 -4 -49 -9t-26 -9q-10 -8 -9 -41 t13 -66q6 -16 28.5 -23.5t47 -8.5t42 -1t11.5 -2q-4 -2 -36 -3t-69 -3q-43 -2 -96 -4zM993 451q6 -20 13 -43q4 -20 8 -49t6 -64q4 -16 6 -30.5t2 -18.5l-24 -2q-4 51 -7 94q-2 37 -3 69.5t-1 43.5zM1028 246l19 4q-2 -4 -7 -8q-4 -4 -7 -4t-5 8zM1040 422q3 4 11 4 q10 2 28.5 6t37 7t35.5 4t28 -5q4 0 -10.5 -2t-36 -3t-45 -3t-37.5 -4q-6 -4 -10.5 -4t-0.5 0z" />
<glyph unicode="&#xc7;" horiz-adv-x="1210" d="M244 555q0 74 14 145.5t39 139.5q27 70 71 111.5t89 63t79.5 28t43.5 6.5q16 0 46.5 6t45.5 14q14 6 15 -1t20 -13q6 -6 36.5 -34t67.5 -62.5t70.5 -70.5t46.5 -59q8 -20 7 -42.5t-5 -41t-11.5 -32t-11.5 -17.5q-4 -6 -26.5 -5t-38.5 28q-12 10 -17.5 39.5t-13.5 42.5 q-4 18 -16.5 38.5t-26.5 34.5q-6 4 -40 13.5t-75 17.5t-79.5 10.5t-53.5 -6.5q-16 -8 -51 -32.5t-68.5 -67.5t-58.5 -104.5t-23 -145.5q6 -172 95 -278q88 -109 178 -123q45 -8 86 8t71.5 40.5t51 51.5t26.5 37q2 8 6.5 32.5t10.5 51.5l11 49.5t9 24.5q4 20 23 27t37 7 q14 0 26.5 -30.5t10.5 -61.5q-4 -16 -12.5 -61t-29 -98.5t-59.5 -102.5t-104 -70q-70 -20 -127 -14q-2 -6 -4 -15t-2 -24v-67q25 -18 47 -37t45 -39q33 -37 57.5 -82t18.5 -92q-8 -49 -31 -81t-54.5 -49.5t-68.5 -23.5t-70 -6q-35 0 -66.5 20.5t-54 47t-36 53.5t-13.5 39 q0 23 -5 48.5t11 35.5q6 6 17.5 -1t21 -19.5t14.5 -27t-1 -26.5q-14 -18 -7 -28.5t25 -28.5q12 -10 28.5 -25.5t37 -29t43 -21.5t45.5 -4q39 8 55 20t29 33q6 14 4 15t-6 1q-4 -2 -1 2.5t7 8.5q8 10 15 22.5t7 28.5t-9 40.5t-22.5 49.5t-31 43t-31.5 20q-31 12 -46 16.5 t-19 22.5q-4 20 -2 30.5t2 33.5q0 8 -1.5 22.5t-3.5 24.5q-4 20 -4 29q-6 8 -6 18q-2 4 -2 12q-152 41 -244 211q-39 68 -56 139.5t-17 145.5zM387 553q-4 59 16 127q16 66 45 104.5t58 59t50.5 24.5t23.5 2q-45 -18 -84 -55q-31 -27 -53.5 -74t-26.5 -118q-4 -72 2 -127.5 t18 -89.5q14 -35 13.5 -52.5t-0.5 -13.5t-14.5 32.5t-29 75t-18.5 105.5zM475 -311q2 0 6 6q8 8 8 29q0 10 -2 18t-4 14q-2 9 -4 13q20 -10 25.5 -24.5t3.5 -27.5q-2 -14 -12 -30l49 -66q-4 0 -8 4q-4 2 -9.5 6t-11.5 9q-6 4 -13 12l-14 16q-8 8 -14 21zM633 -500q10 2 20 6 t21.5 6.5t23.5 6.5q25 4 59 24.5t68 94.5q12 27 12.5 52t-3.5 48q-7 24 -17 47q14 -8 24.5 -28.5t11.5 -49.5t-11.5 -64.5t-40.5 -72.5q-29 -39 -58.5 -53.5t-54.5 -18.5q-29 -4 -55 2zM659 1130q20 0 35 -8l66 -28q37 -18 92 -68.5t98 -124.5q18 -37 27.5 -71.5t11.5 -63.5 t-1 -50.5t-7 -31.5q-4 -16 -29 -16q-12 0 -24 4q8 0 16 8q6 2 31 33q10 18 2 69.5t-57 149.5q-27 45 -70 84t-84 63q-27 14 -53.5 27.5t-53.5 23.5zM672 -10q16 4 33.5 10t37.5 14q31 18 71 44t79 67q43 39 63.5 96.5t28.5 106.5q12 57 12 114q2 -37 0 -75q-6 -35 -14 -83 t-39 -100q-29 -59 -72 -95t-90 -56q-53 -29 -110 -43z" />
<glyph unicode="&#xc8;" horiz-adv-x="1216" d="M256 403q0 35 8 78t15 60q2 8 1 37.5t-5.5 62.5t-8.5 70t-4 57q0 23 3 64.5t8.5 85t13.5 77t22 41.5q16 10 61.5 12.5t93.5 0.5t92 -4.5t58 -2.5t40 2.5t55.5 4.5t53 6t34.5 8q18 12 46.5 17t43.5 -3q18 -4 36.5 -38.5t12.5 -57.5q-2 -20 -16.5 -44t-47.5 -24 q-33 -2 -70.5 0t-64.5 2q-18 0 -76.5 -1t-119.5 -3q-78 -6 -174 -8q-2 -8 -5.5 -53t-3.5 -94v-135q29 4 45 4h36t26 2h32.5t45 -3t44 -3h34.5q20 4 55 17t55 9q23 -8 47.5 -21.5t22.5 -47.5q0 -39 -11.5 -62.5t-50.5 -30.5q-39 -8 -50 -4t-34 11q-10 2 -39.5 5t-62.5 3 t-61.5 -3t-36.5 -5q-18 -4 -40 -1t-36 1q-8 -4 -11 -33t-7.5 -66t-3.5 -67.5t8 -34.5q6 -20 9 -40t3 -28q0 -6 -10.5 -33.5t4.5 -33.5q16 -8 48 -1t48 7q12 0 54 -3t88 -8.5t92.5 -9.5t62.5 -2q14 0 38.5 10.5t53.5 18.5t52.5 13t37.5 3q25 -10 33 -49t6 -67q-4 -20 -37 -42 t-51 -22q-10 0 -30.5 4t-49.5 9.5t-53.5 8.5t-34.5 3h-70.5t-126 3t-127 4t-71.5 1q-18 2 -35.5 30.5t-17.5 36.5q0 4 -4.5 46.5t-9.5 92.5t-8 97t-3 63zM395 682l8 23q8 20 9 36q-4 6 -2 25.5t2 40.5v59h190q-31 -2 -61 -10q-25 -10 -46.5 -12t-29.5 -6q-10 -8 -9 -43 t11 -66q6 -18 29.5 -24.5t49 -8.5t40 -1t10.5 1q-8 -2 -34.5 -2t-67.5 -6q-43 -2 -99 -6zM412 406v43q6 -18 14 -41q6 -16 8 -46t6 -67q2 -59 15 -59q2 0 10 10l-41 -2q-6 49 -8 90q-4 37 -4 72zM428 1444q20 29 48 34t50 -20q18 -25 50 -54.5t57 -43.5q27 -10 52 -30 t54 -34q29 -10 58.5 -37.5t11.5 -27.5q-16 0 -18.5 -5t-18.5 -5q-8 0 -21.5 4t-33.5 10q-16 8 -39 18l-64 43q-29 16 -51 30.5t-35 23.5q-16 8 -25 15t-28 11q-18 6 -40.5 21.5t-6.5 46.5zM457 424q-2 0 14 3t41 8t49.5 9.5t34.5 -4.5q4 0 -14.5 -1t-45 -5t-50 -6t-29.5 -4z M498 1327l84 -51q20 -14 51 -31q16 -6 35 -14l26 -17l-100 48l-43 20q-35 16 -49 16q-4 0 -1 11.5t-3 17.5zM715 696l22 -10q4 -6 15.5 -14t19.5 -15z" />
<glyph unicode="&#xc9;" horiz-adv-x="1230" d="M256 403q0 35 8 78t12 60q4 8 2 37.5t-5 62.5t-7 68.5t-4 58.5t2 62.5t7 83.5t14.5 79t23.5 43t59.5 10.5t94.5 0t93 -4.5t58 -2t42 2t55.5 4.5t51 5.5t36.5 11q16 12 44.5 17t43.5 -3q20 -6 37.5 -41t13.5 -57q-4 -20 -17.5 -43t-48.5 -23q-31 -6 -69.5 -2t-65.5 4 q-14 0 -73.5 -1t-124.5 -7q-80 -2 -172 -6q-4 -8 -6.5 -52t-2.5 -95v-133q25 4 45 4h33t29 2h31.5t45 -3t47 -3h34.5q20 4 55 17t57 9q18 -10 45 -22.5t21 -46.5q0 -39 -9.5 -64t-52.5 -29q-39 -8 -50 -4t-30 8q-12 6 -41.5 8.5t-64.5 2.5t-64.5 -2t-35.5 -9q-18 -2 -39 2.5 t-35 -2.5q-8 -2 -12.5 -30.5t-7.5 -65.5t-2 -67.5t5 -34.5q8 -20 9.5 -40t1.5 -26q0 -8 -8.5 -33.5t6.5 -33.5q12 -10 46 -1t50 9q12 0 53 -4t90 -10.5t93.5 -10.5t60.5 2q18 0 42.5 8.5t51.5 17.5t50.5 15t37.5 0q25 -10 34 -49t5 -65q-4 -20 -35.5 -42t-50.5 -22 q-12 0 -32.5 3t-48 8.5t-53.5 9.5t-36 4h-68.5t-128 2t-128 3t-70.5 1q-23 6 -38 32.5t-15 36.5q0 2 -4.5 44.5t-9.5 92.5t-8 97t-3 63zM395 682l8 23q6 20 7 36q-4 4 -2 23.5t2 42.5v59h194q-37 -6 -65 -12q-25 -8 -46.5 -10t-27.5 -8q-12 -6 -10 -41t12 -66 q4 -18 27.5 -24.5t48 -8.5t41 -1t14.5 1q-8 -2 -38 -2t-68 -6q-41 -2 -97 -6zM410 407v42q8 -18 12 -39q10 -18 11 -48t7 -67q2 -59 13 -59q4 0 12 10l-45 -2q-2 49 -6 94q-4 35 -4 69zM428 1282q-18 0 12.5 26.5t59.5 39.5q29 12 52 33.5t48 29.5q27 16 59.5 44t55.5 52 q20 27 50 23t48 -35q18 -29 -6.5 -45t-44.5 -20q-16 -8 -24.5 -14.5t-28.5 -12.5q-10 -8 -34 -22.5t-52 -32.5q-33 -16 -66 -43q-20 -10 -37 -19q-16 -6 -30.5 -10t-22.5 -4q-16 0 -20.5 5t-18.5 5zM457 424q-4 0 11 3t42 8t52.5 9.5t35.5 -4.5q2 0 -17.5 -1t-47 -5t-51 -6 t-25.5 -4zM539 1264l28 18q20 6 33 14q31 14 53 29l86 55q-4 -8 -2 -19t0 -11q-14 0 -51 -17l-43 -22zM715 696l22 -10q8 -6 17.5 -14t19.5 -15z" />
<glyph unicode="&#xca;" horiz-adv-x="1222" d="M123 1282q-20 0 10.5 26.5t61.5 37.5q29 14 52 35.5t48 29.5q25 16 59.5 44t55.5 52q20 25 49.5 21t48.5 -35q18 -27 -6.5 -44t-44.5 -19q-16 -8 -24.5 -15.5t-29.5 -11.5q-10 -10 -33.5 -23.5t-52.5 -33.5q-33 -16 -67 -41q-18 -12 -35 -21q-16 -4 -30.5 -8t-22.5 -4 q-16 0 -20.5 5t-18.5 5zM233 1264l29 18q18 6 33 14q35 14 53 27l86 57q-4 -8 -2 -19t0 -11q-14 0 -51 -17l-43 -22zM256 403q0 35 8 78t12 60q4 8 2 37.5t-5 62.5t-7 70t-4 57q0 23 3 63.5t7 83.5t13.5 78t23.5 43t60.5 11.5t94.5 0t92 -4.5t58 -1q12 0 41 1t56.5 4.5 t51 6.5t34.5 11q18 10 46.5 16t43.5 -4q18 -4 36.5 -38.5t12.5 -57.5q-2 -23 -16.5 -45.5t-47.5 -22.5q-31 -6 -69.5 -0.5t-67.5 5.5q-12 0 -72.5 -2.5t-121.5 -8.5q-82 -2 -172 -4q-6 -8 -7.5 -53t-1.5 -94v-135q25 4 43 4h34t28 2h32.5t44 -3t46 -3h35.5q18 0 53 15t57 11 q20 -8 46 -21.5t22 -47.5q0 -39 -10.5 -62.5t-51.5 -30.5q-39 -8 -50 -4t-32 11q-10 4 -40.5 6t-64.5 2t-63.5 -2t-33.5 -6q-20 -4 -41 0t-35 0q-8 -4 -12.5 -33t-7.5 -66t-1 -68.5t4 -37.5q8 -16 9.5 -36t1.5 -26q0 -8 -8.5 -34.5t6.5 -34.5q14 -8 47 0t51 8q10 0 52 -4 t89 -9.5t92.5 -9.5t61.5 2q16 0 41.5 8.5l52.5 17.5t50.5 15t35.5 0q27 -10 36 -50t3 -64q-2 -23 -33.5 -43.5t-52.5 -20.5q-10 0 -31.5 3t-49.5 8.5t-52.5 9.5t-36.5 4h-67.5t-127 2t-127 3t-71.5 1q-23 6 -38 31.5t-15 37.5q0 2 -4.5 44.5t-9.5 92.5t-8 97t-3 63zM395 682 l8 23q6 20 7 36q-2 6 -1 25.5t1 42.5v57h192q-33 -6 -61 -10q-25 -8 -47.5 -11t-28.5 -9q-10 -6 -9 -41t13 -66q2 -18 25.5 -23.5t49 -8.5t41 -2t11.5 1q-8 -2 -36 -2t-66 -6q-43 -2 -99 -6zM410 407v42q8 -18 14 -39q8 -18 9 -48t7 -67q2 -61 15 -62q2 0 10 13l-45 -2 q-2 49 -4 94q-6 35 -6 69zM457 424q-2 0 13 3t42 8t50.5 9.5t33.5 -4.5q4 0 -14.5 -1t-46 -5t-52 -6t-26.5 -4zM692 1507q18 31 49 37t47 -20q23 -27 58 -54.5t59 -42.5q27 -12 50.5 -32.5t50.5 -34.5q29 -10 59.5 -37t13.5 -27q-14 0 -18 -6t-21 -6q-20 0 -57 14 q-16 8 -35 21q-31 25 -63 41q-29 20 -54.5 33.5t-33.5 21.5q-23 6 -29 13.5t-23 15.5q-20 2 -44.5 19.5t-8.5 43.5zM715 696l20 -10q10 -6 19.5 -14t17.5 -15zM762 1393l86 -52q23 -18 55 -30q14 -6 31 -15l31 -16l-107 43l-43 23q-6 4 -16.5 8t-14.5 6q-12 6 -14 6 q-8 0 -3 9t-5 18z" />
<glyph unicode="&#xcb;" d="M256 403q0 35 7 78t13 60q2 8 1 37.5t-5 62.5t-7 70t-3 57q0 23 2 64.5t7 83.5t13.5 76t22.5 42q16 10 61.5 12.5t93.5 0t93 -4.5t61 -2q14 0 40 2t55.5 4.5t53 6.5t34.5 8q18 12 46.5 17t43.5 -3q16 -4 34.5 -39t12.5 -57q-2 -20 -16.5 -44t-45.5 -24q-33 -2 -70.5 0 t-64.5 2q-18 0 -76.5 -1t-123.5 -3q-78 -6 -174 -8q-2 -6 -5.5 -51t-3.5 -94v-135q29 4 45 4h36t26 2h32.5t45 -3t46 -3h36.5q20 4 55 17t55 9q23 -8 47.5 -21.5t22.5 -47.5q0 -39 -11.5 -62.5t-50.5 -30.5q-39 -8 -50 -4t-34 11q-10 2 -40.5 5t-64.5 3t-62.5 -3t-36.5 -5 q-18 -4 -40 -1t-36 1q-8 -4 -11.5 -33t-7.5 -66t-3 -67.5t7 -34.5q6 -18 9.5 -38t3.5 -28q0 -6 -10.5 -33.5t4.5 -33.5q16 -8 48 -1t48 7q12 0 54 -3t90 -8.5t94.5 -9.5t62.5 -2q14 0 38.5 10.5t53.5 18.5t51.5 13t36.5 3q25 -10 33 -49t6 -67q-4 -20 -37 -42t-51 -22 q-8 0 -28.5 4t-49 9.5t-53.5 8.5t-35 3h-71.5t-128 3t-128 4t-71.5 1q-18 2 -35.5 30.5t-17.5 36.5q0 4 -4.5 46.5t-8.5 91.5t-7 96t-3 63zM324 1397q0 35 25.5 49t35.5 16q6 8 14 8q10 0 30 -7t41.5 -21.5t36.5 -40t11 -62.5q-8 -72 -48 -90t-69 -10q-53 4 -53 43 q0 16 17 25l20 16q2 14 -10.5 25.5t-9.5 37.5q0 10 2 12.5t2 10.5q-6 -25 -11.5 -47.5t-9.5 -32.5q-8 -6 -8 -11t-2 -13q-6 -6 -6 -13q-2 12 -2 27v29q0 6 -3 17t-3 32zM393 682l8 23q8 20 9 36q-4 6 -2 25.5t2 40.5v59h194q-35 -2 -65 -10q-25 -10 -46.5 -12t-29.5 -6 q-10 -8 -9 -43t11 -66q6 -18 29.5 -24.5t49 -8.5t41 -1t11.5 1q-8 -2 -36 -2t-68 -6q-43 -2 -99 -6zM410 406v43q6 -18 14 -41q6 -16 8 -46t6 -67q2 -57 15 -57q2 0 10 10l-41 -2q-6 47 -8 88q-4 37 -4 72zM455 424q-2 0 14 3t41 8t50.5 9.5t35.5 -4.5q4 0 -15.5 -1t-46 -5 t-50 -6t-29.5 -4zM657 1397q0 12 15 35q8 8 14 16q-8 -12 -4 -56t0 -63q-4 -6 -4 -11t-6 -13q-2 -6 -2 -13q-4 12 -4 27v29q0 6 -4.5 17t-4.5 32zM682 1282q0 18 35 37l35 20q0 8 -6.5 11.5t-17.5 7.5t-18.5 10t-7.5 18q2 29 8.5 56.5t22.5 27.5q10 0 29.5 -7t42 -21.5 t37 -40t10.5 -62.5q-4 -72 -45 -90t-68 -10q-57 4 -57 43zM717 696l22 -10q4 -6 15.5 -14t19.5 -15z" />
<glyph unicode="&#xcc;" d="M367 969q2 27 18 39t34.5 15t41 -1t35.5 -4q29 0 58.5 -2t82.5 4q55 8 67.5 26.5t26.5 26.5q10 4 23.5 17.5t36.5 7.5q39 -10 0 -25q-14 -8 -21 -6l-6 8h27q10 0 22 -4t25 -6q4 -8 7 -26.5t3 -34.5q0 -23 -6 -52q6 6 6 23q0 8 -3 23.5t-5 31.5q-2 20 -15.5 27.5t-29 7.5 t-28.5 -4t-15 -4q-10 -6 1 -13.5t23 -13.5q14 -4 27.5 -19.5t17.5 -35.5q8 -18 -9 -37.5t-34 -40.5q-18 -14 -52 -7t-44 13q-29 14 -51 -6q-14 -6 -14.5 -21.5t-0.5 -39.5v-529v-38.5t2.5 -51.5t3.5 -48.5t9 -21.5q10 -2 31.5 16.5t35.5 18.5q16 0 31.5 -14t30.5 -12 q10 0 22.5 -1t28.5 -12q14 -14 9 -48t-25 -52q-16 -29 -52 -30t-65 7q-31 4 -67 4.5t-72 0.5q-37 0 -94.5 -5.5t-67.5 5.5q-8 6 0 21t18.5 33.5t25.5 34t19 15.5q16 0 29.5 -6t32.5 0q23 6 33 28.5t12 47.5q0 10 -1 90t-4 176t-5 182t-2 113q0 109 -35 153q-8 6 -31 6.5 t-46.5 1.5t-42 11t-13.5 37zM424 1442q16 27 47 34t51 -18q23 -27 54.5 -56.5t56.5 -41.5q27 -14 50 -34t50 -30q31 -14 61.5 -38.5t12.5 -24.5q-16 0 -18.5 -6t-20.5 -6q-16 0 -53 14q-20 8 -37 18q-33 27 -66 43q-29 16 -53 31.5t-33 22.5q-18 8 -26 15t-25 9 q-18 8 -43.5 22.5t-7.5 45.5zM492 1106q16 8 65 7t98 -7q61 -2 136 -8zM492 1323l88 -51q18 -14 51 -29q14 -8 33 -16l28 -15l-106 45l-39 23q-8 2 -16.5 5t-16.5 7q-12 4 -14 4q-8 0 -3 11.5t-5 15.5zM690 803l4 -262q4 -100 6 -185.5t7 -99.5q2 -23 8 -25q0 -2 2 0l-19 -2 zM721 215q8 25 33.5 19.5t62.5 -25.5q37 -16 35 -59.5t-2 -51.5q4 -6 2 12.5t-2 32.5q0 10 -17.5 30t-25.5 26q-4 0 -17.5 2t-31 2t-27.5 2t-10 10z" />
<glyph unicode="&#xcd;" horiz-adv-x="1236" d="M395 971q6 25 21.5 38t33 14t40 -3t36.5 -4q31 0 61.5 -1t80.5 7q53 4 67.5 22.5t28.5 26.5q10 6 22.5 19.5t32.5 5.5q41 -10 0 -25q-14 -8 -16 -2l-8 4h24q10 0 22.5 -2t24.5 -8q8 -6 9.5 -23.5t1.5 -38.5q0 -23 -3 -49q2 8 3 23q0 10 -1.5 24.5t-3.5 32.5 q-6 16 -18 23.5t-26.5 7.5t-29 -3t-18.5 -3q-6 -8 4.5 -15.5t20.5 -9.5q14 -8 29.5 -22.5t17.5 -34.5q8 -20 -8.5 -40t-32.5 -36q-20 -16 -55 -8t-43 10q-31 14 -54 -2q-12 -8 -12 -22.5v-38.5v-531v-38.5t2 -52.5t4 -47t6 -19q12 -4 35 14t35 18q14 0 30.5 -15t31.5 -9 q12 0 24 -3t27 -14q12 -14 8 -46t-23 -54q-16 -27 -53 -28t-67 5q-27 8 -64 8.5t-72 0.5q-37 0 -95 -6.5t-68 6.5q-6 2 1 19t17 34.5t24.5 32t22.5 14.5q14 0 26.5 -6t35.5 2q23 4 30.5 27.5t9.5 48.5q0 10 -1 90t-2 175t-4 182t-3 114q0 109 -37 153q-4 4 -28.5 4.5 t-48 3.5t-41 11t-15.5 39zM455 1282q-18 0 12.5 26.5t58.5 39.5q31 14 53.5 33.5t47.5 29.5q25 14 58.5 43t55.5 55q16 25 47 19t50 -33q16 -31 -8.5 -46t-41.5 -17q-20 -10 -26 -16.5t-29 -14.5q-12 -6 -33.5 -21.5t-52.5 -31.5q-29 -20 -63 -45q-20 -10 -35 -17 q-20 -6 -33.5 -10t-21.5 -4q-18 0 -19.5 5t-19.5 5zM524 1108q12 4 62.5 3t101.5 -3q61 -4 131 -12zM571 1266l27 16q20 6 33 14q29 14 51 29l86 53q-10 -6 -5 -17t1 -11q-12 0 -47 -17l-45 -22zM719 801l8 -260q2 -100 4 -185.5t6 -97.5q4 -23 6 -27q0 -2 7 0l-21 -2z M752 213q6 25 33.5 20.5t64.5 -24.5q35 -16 34 -60.5t-1 -50.5q2 -8 1 10.5t-1 32.5q0 10 -18.5 31t-26.5 27q-2 0 -17.5 1t-31 1t-26.5 3t-11 9z" />
<glyph unicode="&#xce;" horiz-adv-x="1243" d="M125 1282q-18 0 12.5 26.5t61.5 39.5q27 14 50 33.5t50 29.5q25 14 59.5 43t53.5 55q20 25 51 19t47 -33q18 -31 -6.5 -46t-44.5 -17q-16 -10 -23.5 -16.5t-29.5 -14.5q-10 -6 -34 -21.5t-53 -31.5q-33 -20 -65 -45q-20 -10 -37 -17q-16 -6 -31.5 -10t-21.5 -4 q-18 0 -21.5 5t-17.5 5zM240 1266l28 16q18 6 33 14q33 14 55 29l86 53q-10 -6 -5 -17t-3 -11q-10 0 -47 -17l-41 -22zM365 971q6 27 21 39t32.5 13t40 -3t37.5 -4q31 0 61.5 -1t79.5 7q53 4 67.5 22.5t28.5 26.5q10 6 22.5 19.5t32.5 5.5q41 -10 0 -25q-14 -8 -16 -2l-10 6 h26q10 0 22.5 -3t25.5 -9q8 -6 9 -23.5t1 -38.5q0 -23 -2 -49q2 8 2 23q0 10 -1 24.5t-5 32.5q-4 16 -16.5 23.5t-27 7.5t-28.5 -3t-18 -3q-6 -8 3 -14.5t21 -10.5q14 -8 29.5 -21.5t17.5 -35.5q8 -20 -8 -40t-33 -36q-20 -16 -55 -8t-43 10q-31 14 -53 -2 q-12 -8 -12.5 -22.5t-0.5 -38.5v-531v-38.5t2.5 -52.5t4.5 -47t6 -19q12 -4 33.5 14t35.5 18t30.5 -15t31.5 -9q12 0 24.5 -3t26.5 -14q12 -14 8 -46t-22 -54q-16 -25 -53 -27t-68 4q-27 8 -64 8.5t-71 0.5q-37 0 -95.5 -5.5t-68.5 5.5q-6 2 1 19t17.5 34.5t24.5 32t22 14.5 q14 0 26.5 -6t35.5 2q23 4 31 27.5t10 48.5q0 12 -1 91t-2 174t-4 182t-3 114q0 109 -37 153q-4 6 -29 6.5t-48.5 2.5t-41 10t-14.5 39zM494 1108q12 6 62 4t101 -4q61 -4 131 -12zM688 803l8 -262q2 -100 4 -185.5t7 -97.5q4 -23 6 -27q0 -2 6 0l-21 -2zM696 1509 q16 27 47 33t50 -20q23 -25 56.5 -53.5t57.5 -43.5q25 -12 48.5 -31.5t54.5 -31.5q29 -12 59.5 -39t9.5 -27q-14 0 -16 -5t-23 -5q-16 0 -53 14q-18 4 -35 17q-35 25 -67 45q-27 16 -52.5 31.5t-33.5 19.5q-18 8 -27.5 15.5t-26.5 15.5q-18 4 -43.5 20.5t-5.5 44.5zM721 213 q6 25 33.5 20.5t64.5 -22.5q35 -18 34 -62.5t-1 -50.5q2 -8 1 10.5t-1 32.5q0 10 -18.5 31t-26.5 27q-2 0 -17.5 1t-31 1t-26.5 3t-11 9zM768 1395l86 -56q23 -14 53 -28q14 -8 33 -15l29 -16l-103 45l-45 23q-37 16 -49 16q-4 0 -1 11t-3 20z" />
<glyph unicode="&#xcf;" horiz-adv-x="1220" d="M338 1395q0 35 24.5 49t36.5 20q5 4 13 4q12 0 31.5 -6t41 -20.5t36 -41t11.5 -59.5q-8 -72 -47 -90t-69 -12q-53 4 -54 43q0 14 17 27q8 4 20 12q2 14 -10 25.5t-10 39.5q0 8 3 12.5t3 10.5q-8 -27 -14 -47.5t-9 -30.5q-8 -10 -8 -15t-4 -11q-2 -8 -2 -11q-6 10 -6 25 v29q0 8 -2 17t-2 30zM365 969q4 25 20 38t34.5 15t40 -2t36.5 -4q29 0 58.5 -1t82.5 5q55 8 68.5 25.5t25.5 25.5q12 6 24.5 18.5t35.5 8.5q39 -12 0 -27q-14 -8 -21 -4l-4 8h25q10 0 23 -4t24 -8q6 -8 8 -25.5t2 -36.5q0 -20 -4 -49q4 6 4 23q0 8 -2 23.5t-6 31.5 q-2 18 -14.5 25.5t-28 7.5t-29.5 -4t-16 -4q-8 -6 3 -12.5t21 -12.5q14 -6 27.5 -21.5t17.5 -33.5q8 -20 -8 -40t-35 -38q-18 -14 -52 -7t-44 11q-29 14 -49 -4q-14 -6 -14.5 -21.5t-0.5 -39.5v-529v-38.5t1.5 -51.5t2.5 -47t11 -20q10 -4 30.5 14t34.5 18q16 0 31.5 -14 t30.5 -10q10 0 23.5 -2t29.5 -13q14 -14 8 -48t-24 -52q-18 -29 -54 -30t-63 7q-31 6 -69 6.5t-74 0.5q-35 0 -92.5 -6.5t-67.5 6.5q-8 6 0 20t17 32.5t24.5 34t21.5 15.5q16 0 28.5 -5t33.5 -1q23 6 32 28.5t11 47.5q0 10 -1 90t-4 176t-4 182t-1 113q0 109 -37 153 q-8 6 -30 6.5t-45.5 1.5t-42 10t-15.5 38zM489 1106q16 8 66.5 6t101.5 -6q61 -4 134 -8zM674 1395q0 14 16 35q7 12 15 18q-12 -14 -6 -57t-1 -60q-6 -10 -6 -15t-2 -11q-6 -8 -6 -11q-2 10 -2 25v29q0 8 -4 17t-4 30zM690 803l6 -262q2 -100 5.5 -185.5t5.5 -97.5 q4 -23 8 -27q0 -2 4 0l-21 -2zM698 1282q0 18 33 37l37 22q0 6 -7 10.5t-18.5 6.5t-17.5 8t-6 20q2 31 7 56.5t26 25.5q8 0 28.5 -6t42 -20.5t36.5 -41t9 -59.5q-6 -72 -46 -90t-68 -12q-56 4 -56 43zM721 215q8 25 34.5 19.5t61.5 -25.5q37 -16 36 -59.5t-1 -51.5 q2 -6 1 12.5t-1 32.5q0 10 -18.5 30t-26.5 26q-2 0 -16.5 3t-31 3t-27.5 1t-11 9z" />
<glyph unicode="&#xd1;" horiz-adv-x="1288" d="M256 235v168.5t3 163t3 80.5q0 23 8.5 55.5t8.5 59.5t12 69.5t8 59.5q0 8 -9 26.5t-15.5 38t-12.5 41t-6 29.5q6 20 45 38.5t51 29.5q10 12 13.5 23t3.5 3v-23.5t12 -23.5q10 -12 30.5 -61t41.5 -68q6 -10 30.5 -59t51 -104.5t50 -104.5t33.5 -64q16 -31 72 -90 q27 -35 58 -65q-4 -6 -13 -6q-8 -2 -11 -2t-11 -5q-12 -8 -9 -26.5t9 -38.5q4 -20 14 -41t29 -49q14 -25 34.5 -29t34.5 12q18 8 23.5 47t13.5 68q0 12 2 80t6 141.5t5.5 141t1.5 90.5q6 43 -9.5 95t-15.5 71q2 18 19.5 27t31.5 14q12 8 35 40q12 14 25 33q2 -14 10 -28 q6 -12 7 -26.5t7 -21.5q6 -12 -4 -41.5t-16 -78.5q-2 -27 -3 -90.5t-1 -142.5t-3.5 -160.5t-3.5 -145.5q0 -135 16.5 -193.5t8.5 -97.5q-2 -16 -21.5 -26.5t-40 -11.5t-43 0t-32.5 12q-10 2 -17.5 23.5t-12.5 43t-10 41t-7 25.5l-76 96q-4 6 -30.5 48t-62.5 102.5t-78 128 t-80 127t-63.5 101.5t-29.5 46q-14 10 -25.5 0t-32.5 -25q-6 -8 -8 -31.5t2 -50.5t6 -61q10 16 21 31q14 27 18 18q4 -14 -1 -51t-13 -94v-91.5t4 -118t5 -105.5t1 -58q4 -18 20.5 -41t14.5 -41q-6 -10 -26.5 -33.5t-36.5 -29.5q-39 -8 -64 73q-6 16 -6 94zM330 1354 q6 8 10 16t14 14q8 6 15 13q0 -6 8 -6q14 0 31 16q10 10 33.5 25.5t55 33t63.5 28.5t56 11q51 -8 83 -58t71 -69q39 -16 51.5 1.5t28.5 9.5q12 -6 16 -33t23 -8q20 18 20 36v15l21 28q8 10 17 19.5t18 1.5q8 -4 11 -27.5t-3 -36.5q-6 -6 -26.5 -22t-46.5 -31.5t-56.5 -29 t-57.5 -11.5q-25 2 -51 19.5t-48.5 37t-39 36t-20.5 24.5q-10 4 -36 4t-48 -10q-20 -4 -34.5 -19.5t-25.5 -21.5q-4 -8 -7 -21.5t-11 -38.5q-16 -16 -32.5 -16t-41.5 6q-23 8 -47 19.5t-14 44.5zM369 1130q12 -2 24 -10q14 -10 25.5 -16t23.5 -12q16 -8 35 -38t42.5 -70 t45 -82t39.5 -75q18 -29 43 -75.5t49 -89.5q25 -50 52 -103q-4 0 -21 23q-10 14 -34.5 55t-69.5 123q-43 80 -88.5 147.5t-81.5 118.5q-43 57 -84 104zM393 639q10 -37 23 -68q6 -29 11 -56.5t5 -33.5q-2 -8 -2 -64.5v-119.5v-168q0 2 -2 25.5t-6 59.5t-5 82t-7 93 q-6 111 -17 250zM459 412l14 37l6 -17zM516 1346l14 6q12 8 39 10q25 0 31 -2q8 -6 10 -8zM883 0l106 45q-10 -12 -24 -16q-12 -8 -21.5 -14.5t-17.5 -6.5q-23 -8 -27 -8h-16zM899 1288q12 2 26.5 14.5t37.5 18.5q16 6 28.5 11t20.5 22q4 25 4 47v33l-4 10q41 12 16 -78 q-8 -20 -30.5 -35.5t-47 -28t-43 -15.5t-8.5 1zM1016 201v393v149.5t4 133t7 100.5t11 49q-2 -209 -2 -375v-383q0 -12 -8 -21t-8 -18q0 -8 -2 -13t-2 -11v-4zM1024 113v43q4 -6 4 -14.5v-12.5q0 -14 -4 -16z" />
<glyph unicode="&#xd2;" horiz-adv-x="1210" d="M183 527.5q-5 105.5 19.5 208t63.5 171.5q35 68 101.5 101.5t129 46t109.5 12.5t45 4q-20 35 17 16.5t86 -67.5q98 -96 161 -305q14 -51 17.5 -117t-10 -136.5t-35 -139t-47.5 -121.5q-27 -55 -80 -93t-120 -50.5t-147.5 10t-156.5 86.5q-82 63 -115 165.5t-38 208z M291 602q-8 -117 24.5 -197.5t80.5 -132t105.5 -73t106.5 -21.5q47 0 91 38t76 96.5t50.5 127t18.5 131.5q0 61 -15.5 126t-46 121t-77 94t-99.5 46q-14 0 -64 -11t-104.5 -49t-99.5 -108.5t-47 -187.5zM341 500.5q-13 103.5 13 197.5q16 45 42 79t50 59q29 24 62 47 q-39 -37 -72 -84q-29 -39 -49 -100.5t-12 -137.5q2 -78 16.5 -124t29.5 -72.5t33.5 -39t28.5 -24.5q25 -25 47.5 -44t14.5 -28q-2 -8 -23.5 -3t-48.5 18.5t-51.5 37t-38.5 54.5q-29 61 -42 164.5zM377 1427q18 31 49 36t47 -19q23 -27 55.5 -54.5t61.5 -41.5q25 -10 47 -32 t53 -34q27 -12 57.5 -38.5t14.5 -26.5q-18 0 -20.5 -5.5t-20.5 -5.5q-16 0 -53 15q-16 8 -37 18q-33 25 -64 43t-56.5 32.5t-29.5 22.5q-23 4 -30 11.5t-25 15.5q-18 4 -42 20.5t-7 42.5zM444 1315l86 -53q23 -16 54 -31q14 -6 32 -14l29 -17l-102 45l-45 23q-6 2 -15.5 6 t-15.5 8q-10 4 -16 4t0 10.5t-7 18.5zM590 -2q39 10 80 31q37 16 83 41.5t87 68.5q84 82 110.5 159t36.5 169q8 47 4 104.5t-12 118t-23.5 116.5t-29.5 101q-16 43 -53 83t-79 72t-79 51.5t-45 19.5q-4 6 -15.5 8t-25.5 6q-14 6 -33 12q27 0 59 -12q29 -4 65 -22.5t85 -47.5 q43 -33 80 -87t61.5 -110.5t38.5 -106.5t16 -75q6 -23 7.5 -79t-7 -125.5t-27 -144.5t-50.5 -136q-37 -61 -92.5 -103t-110.5 -67q-66 -31 -131 -45zM1071 397q0 4 8 13l6 -35q-14 2 -14 22z" />
<glyph unicode="&#xd3;" horiz-adv-x="1216" d="M180 526.5q-4 104.5 19.5 208t62.5 172.5q37 68 103.5 100.5t129 45t110.5 12.5t44 6q-18 33 18 15.5t85 -68.5q98 -94 161 -303q14 -53 17.5 -118t-9 -135.5t-35 -139t-46.5 -119.5q-29 -57 -82 -94t-120 -50.5t-147.5 9t-158.5 86.5q-80 66 -114 167t-38 205.5z M289 602q-8 -117 24.5 -197.5t81.5 -132t105.5 -72t107.5 -20.5q47 0 90 37t75 95.5t50.5 127t18.5 131.5q0 59 -15.5 125t-46 122t-77 93t-99.5 45q-12 0 -62 -10t-104.5 -48t-100.5 -108.5t-48 -187.5zM338 500.5q-14 103.5 14 197.5q16 45 43 78t51 60q29 24 62 47 q-39 -37 -72 -84q-29 -39 -51.5 -100.5t-13.5 -137.5q4 -78 19.5 -124t30.5 -72.5t32.5 -39t29.5 -24.5q25 -25 47.5 -44t14.5 -28q-4 -8 -24.5 -2t-47.5 18.5t-51.5 36t-38.5 54.5q-31 61 -45 164.5zM436 1280q-23 0 8 27.5t62 40.5q27 12 52.5 31.5t49.5 31.5 q25 14 59.5 43t51.5 53q23 27 52.5 21t45.5 -33q18 -31 -5.5 -46t-39.5 -22q-20 -6 -28.5 -13t-26.5 -15q-12 -8 -37 -21.5t-49 -29.5q-35 -20 -66 -45q-20 -12 -39 -17q-18 -8 -32.5 -12t-22.5 -4q-16 0 -19.5 5t-15.5 5zM547 1264l31 16q16 8 30 14q33 16 56 31l86 53 q-8 -6 -4.5 -17t-2.5 -11q-12 0 -49 -21l-41 -18zM588 -2q39 12 82 31q35 16 81 41.5t89 70.5q82 80 108.5 157t38.5 169q8 47 4 104.5t-13 118t-23.5 116.5t-28.5 101q-16 41 -54 82t-80 73t-78 51.5t-44 19.5q-6 6 -17.5 7t-25.5 7q-12 4 -33 10q29 0 61 -10 q29 -6 65 -24.5t83 -45.5q45 -33 81 -87t60.5 -110.5t38.5 -106.5t16 -75q6 -23 7.5 -79t-7 -125.5t-26 -144.5t-51.5 -136q-35 -61 -91.5 -103t-111.5 -67q-63 -31 -131 -45zM1069 397q0 4 8 13l6 -35q-14 2 -14 22z" />
<glyph unicode="&#xd4;" d="M121 1280q-16 0 14.5 28t57.5 38q29 14 52 33.5t48 31.5t59.5 42t57.5 54q16 25 46.5 20t51.5 -34q16 -31 -8.5 -46t-42.5 -20q-18 -6 -25.5 -13t-30.5 -15q-10 -8 -32.5 -21.5t-53.5 -31.5q-33 -18 -63 -43q-23 -12 -37 -19q-18 -8 -32.5 -12t-22.5 -4q-16 0 -18.5 6 t-20.5 6zM182 526.5q-4 106.5 20.5 210t63.5 172.5q35 66 101.5 99.5t130 46t109.5 12.5t44 6q-20 33 16 14.5t87 -67.5q100 -100 161 -303q14 -53 16.5 -119t-10 -137.5t-35 -139t-46.5 -120.5q-29 -55 -81 -93t-119 -50.5t-146.5 9t-157.5 87.5q-82 63 -116 164.5t-38 208 zM238 1264l28 16q16 8 33 14q31 16 53 29l86 53q-12 -4 -6 -15t0 -11q-10 0 -47 -21l-45 -18zM291 602q-8 -117 24.5 -197.5t81.5 -133t106.5 -73t104.5 -20.5t90 38t76 96.5t50.5 126t17.5 132.5q0 61 -15.5 127t-46 120t-76 92t-98.5 42q-14 6 -63 -5t-103.5 -49 t-100.5 -108.5t-48 -187.5zM340 499.5q-14 104.5 14 200.5q16 43 43 77t52 59q28 24 61 47q-39 -35 -72 -82q-29 -41 -50 -101.5t-13 -140.5q2 -78 17.5 -124t30.5 -72.5t33.5 -39t28.5 -22.5q25 -25 47.5 -44t14.5 -30q-2 -8 -23.5 -2t-48 18.5t-51.5 36t-39 54.5 q-31 61 -45 165.5zM590 -2q39 10 80 31q37 16 83 40.5t87 69.5q84 80 110.5 157t36.5 169q8 47 4 106.5t-12 119t-23.5 116.5t-29.5 102q-16 41 -54 81t-80 73t-78 52.5t-44 19.5q-6 4 -17.5 6t-23.5 6q-14 6 -35 12q29 0 61 -12q29 -4 65 -22.5t83 -47.5q45 -33 81 -87 t61.5 -109.5t38.5 -105.5t17 -75q6 -27 7.5 -82t-7 -124.5t-27 -145.5t-50.5 -137q-37 -61 -92.5 -102t-110.5 -68q-66 -31 -131 -43zM694 1507q20 29 49 34t50 -19q18 -25 52 -54.5t58 -44.5q27 -10 52.5 -29.5t54.5 -33.5q29 -10 58 -38t11 -28q-16 0 -18 -5t-19 -5 q-8 0 -21 3t-34 11q-16 6 -39 17l-63 45q-31 16 -54.5 31.5t-31.5 21.5q-20 8 -28.5 15.5t-29.5 15.5q-16 2 -39.5 17.5t-7.5 45.5zM764 1391l86 -54q23 -14 53 -26q16 -8 35 -17l27 -18l-103 47l-45 23q-37 18 -49 18q-4 0 0 10t-4 17zM1071 395q0 6 8 15l6 -37 q-14 2 -14 22z" />
<glyph unicode="&#xd5;" horiz-adv-x="1239" d="M199 526.5q-4 108.5 19.5 212t62.5 168.5q37 70 103.5 102.5t128.5 45t107.5 12.5t38.5 8q-16 37 20 14.5t87 -69.5q100 -90 164 -301q16 -55 16 -119.5t-11 -135.5t-34.5 -139.5t-48.5 -121.5q-29 -55 -81 -94t-117.5 -51.5t-145.5 8t-158 88.5q-82 63 -114.5 163.5 t-36.5 209zM256 1358q2 8 7 15t16 11q8 8 12 13q0 -4 8 -4q14 0 29 14q10 12 31.5 28.5t52 32t61.5 26.5t57 11q51 -8 81 -58t65 -67q35 -14 48 1.5t28 9.5q14 -8 17 -33t22 -8q16 18 16 34v19l22 27q8 12 16.5 20t16.5 2q6 -8 10.5 -31.5t-4.5 -36.5q-2 -4 -21.5 -21 t-45 -33.5t-54 -29t-53.5 -8.5q-27 4 -51.5 20.5t-46 36t-36.5 37t-21 21.5q-8 8 -35 8t-45 -10q-20 -8 -33.5 -22.5t-22.5 -22.5q-6 -6 -9 -21.5t-13 -33.5q-14 -20 -29.5 -20.5t-38.5 7.5q-23 6 -46 17.5t-11 48.5zM303 602q-8 -117 24.5 -198.5t83 -132t107.5 -72 t107 -21.5q47 0 90 38t75.5 95.5t51 125t18.5 134.5q0 63 -16.5 130t-48 122.5t-78 92t-99.5 42.5q-14 0 -62 -10t-102.5 -49t-101.5 -108.5t-49 -188.5zM355 504.5q-17 105.5 18 195.5q14 47 38.5 79t49.5 57q28 24 61 47q-39 -35 -71 -80q-29 -43 -50.5 -103.5 t-13.5 -138.5q2 -82 16.5 -126t32 -70.5t35.5 -39t29 -24.5q27 -25 48 -46.5t13 -25.5q-2 -4 -24.5 -1t-49 17.5t-51 36t-37.5 56.5q-27 61 -44 166.5zM434 1346l15 8q10 6 34 12q25 0 31 -6q8 -2 12 -6zM604 -2q41 10 80 27q37 20 80 46.5t88 65.5q86 84 111.5 162 t37.5 170q10 47 5 105.5t-13 117t-24.5 116.5t-30.5 99q-16 45 -55 84t-79 73t-75 53.5t-45 21.5q-16 0 -43 14q-16 8 -31 12q31 0 62 -12q31 -6 65.5 -23.5t81.5 -52.5q43 -33 80 -86t61.5 -108.5t39 -106.5t16.5 -76q6 -20 6 -78.5t-7 -128t-24.5 -146.5t-52.5 -138 t-91 -101t-110 -65q-66 -31 -133 -45zM799 1288q14 4 28.5 14.5t32.5 18.5q16 8 27.5 14t17.5 23q8 23 8 47v27l-8 12q41 14 19 -76q-8 -23 -29 -39t-44.5 -26.5t-41.5 -14.5t-10 0zM1085 393q0 8 9 17l4 -37q-20 6 -13 20z" />
<glyph unicode="&#xd6;" horiz-adv-x="1222" d="M182 526.5q-4 106.5 19.5 210t62.5 172.5q37 66 103.5 99.5t129 46t109.5 12.5t45 6q-20 33 16 14.5t87 -67.5q96 -94 161 -303q12 -53 15.5 -120t-9 -137.5t-35 -138t-46.5 -120.5q-29 -55 -81 -93t-119 -50.5t-147.5 10t-158.5 86.5q-80 63 -114 164.5t-38 208z M289 602q-8 -119 25.5 -198.5t81.5 -132t105.5 -73t106.5 -20.5q47 0 90 38t76 96.5t50.5 126t17.5 130.5t-15.5 129t-45 121t-76 93t-99.5 46q-14 0 -64 -11t-103.5 -48t-99.5 -108.5t-50 -188.5zM297 1393q0 35 25.5 50t35.5 19q6 8 15 8q12 0 30.5 -9t41 -22.5t37 -38 t10.5 -61.5q-8 -72 -47 -90t-70 -10q-51 2 -51 41q0 14 16 27q8 8 18 16q4 14 -9 23.5t-9 39.5q0 6 3 10.5t3 12.5q-10 -25 -15 -47.5t-7 -34.5q-8 -4 -8.5 -10t-4.5 -14q-2 -8 -2 -11q-6 10 -6 25v31q0 6 -3 17t-3 28zM340 500.5q-14 105.5 14 199.5q16 45 42 78t53 58 q26 27 61 47q-39 -35 -74 -82q-27 -39 -49 -100.5t-14 -141.5q2 -78 17.5 -124t30.5 -72.5t33.5 -39t28.5 -22.5q27 -27 48.5 -46t13.5 -28q-2 -8 -23.5 -2t-47 18.5t-51.5 36t-38 54.5q-31 61 -45 166.5zM590 -2q39 10 80 31q37 16 83 40.5t87 69.5q84 80 109.5 157 t37.5 169q8 47 4 106.5t-12 119t-23.5 116.5t-29.5 102q-16 41 -54 81t-79 73t-78 52.5t-45 19.5q-6 4 -16.5 6t-24.5 6q-14 6 -33 12q27 0 59 -12q29 -4 65 -22.5t83 -47.5q45 -33 81 -87t61.5 -109.5t38.5 -105.5t17 -75q4 -23 6.5 -81t-6 -127.5t-27 -144.5t-50.5 -136 q-37 -61 -92.5 -102t-110.5 -66q-66 -31 -131 -45zM635 1393q0 16 16 34q4 12 13 21q-10 -14 -5.5 -57.5t0.5 -63.5q-6 -4 -6 -10t-2 -14q-6 -8 -6 -11q-2 10 -2 25v31q0 6 -4 17t-4 28zM659 1280q0 20 33 37l37 22q0 8 -7 11.5t-18.5 7.5t-18.5 9t-7 19q4 27 9 55.5 t26 28.5q8 0 28.5 -9t41 -22.5t36 -38t8.5 -61.5q-4 -72 -45 -90t-67 -10q-55 2 -56 41zM1069 395q0 4 10 15l4 -37q-14 2 -14 22z" />
<glyph unicode="&#xd7;" horiz-adv-x="1191" d="M329 625.5q11 36.5 40 56.5q31 18 58.5 10t43.5 -22q10 -10 15.5 -25.5t13.5 -23.5q2 0 22.5 -21.5t34.5 -36.5q12 -12 20.5 -31.5t22.5 -25.5q27 23 33 31q8 6 20.5 35.5t22.5 39.5q16 27 28.5 58t30.5 51q18 16 54 6t55 -41q20 -27 12 -56.5t-20 -39.5 q-12 -14 -27.5 -20.5t-28.5 -14.5q-2 -2 -33.5 -34t-80.5 -77q53 -55 57 -77.5t12 -24.5q4 -6 24.5 -15.5t44 -31t39 -44t1.5 -48.5q-18 -37 -53 -38t-64 17q-25 16 -29 42t-10 34l-106 109q-47 -47 -88 -101.5t-45 -56.5q-8 -10 -23.5 -12t-56.5 14q-16 8 -20.5 39t13.5 55 q16 29 35 41t27 21q6 6 29.5 22.5t58.5 44.5l-41 43q-18 23 -33.5 34t-33 18.5t-34 14.5t-32.5 29q-20 16 -9 52.5zM748 434l8 10q8 8 13 15.5t17 17.5q16 23 28.5 30t21.5 15q4 2 -7.5 -13t-27 -32.5t-31.5 -32t-22 -10.5z" />
<glyph unicode="&#xd8;" d="M244 473q-23 195 1.5 307.5t66.5 174t89.5 85t67.5 35.5q20 10 57 17.5t72 9.5t63.5 2h34.5q16 0 11 9t6 17q14 4 43.5 -28.5t60.5 -85.5q4 -2 6 -8.5t4 -10.5q33 66 56.5 78t36.5 29q8 18 13 16t13 -10q8 -6 21.5 -33.5t13.5 -50.5q0 -16 -57 -78q-2 -8 -47 -67 q31 -78 54 -174.5t19 -180.5q-4 -63 -25.5 -124.5t-50.5 -110.5q-33 -59 -71 -107l-12 -18q-2 -6 -42 -22.5t-98.5 -23.5t-129.5 3t-130 51q-29 -39 -52.5 -68.5t-33.5 -21.5q-23 18 17 92q4 8 10 16.5t12 20.5q-39 41 -64.5 103.5t-35.5 156.5zM293 621q8 -127 46 -201 t64 -103q27 39 48.5 73t35.5 50q12 14 45 66.5t78 120t92.5 141.5t77.5 131q-37 41 -73.5 63.5t-65.5 28.5q-55 18 -86 6t-51 -26q-4 -8 -41 -32t-77 -68t-70.5 -108t-22.5 -142zM360.5 566.5q-4.5 35.5 10.5 84.5q29 92 53.5 149.5t43.5 90.5t33.5 41t18.5 6 q0 -2 -17.5 -15.5t-43 -52.5t-46 -102t-22.5 -170q-4 -43 -1 -69.5t9 -43.5q2 -20 4 -30q-16 23 -26 49q-12 27 -16.5 62.5zM461 279q2 -4 2 -9q0 -2 16.5 -17t43 -24.5t57 -15.5t67.5 6q35 12 77 33.5t73.5 64.5t54 114t22.5 177q-8 133 -45 207q-41 -66 -96 -145.5 t-108.5 -155.5t-99.5 -140.5t-64 -94.5zM544 292q5 13 21.5 37.5t39 56.5t46.5 69q57 84 137 192q-59 -96 -108 -170q-45 -63 -83 -121.5t-50 -70.5q-8 -6 -3 7zM688 68q45 31 86 55q37 23 68.5 44t48.5 34q16 18 30.5 27.5t31 48t30.5 113.5t33 220q6 49 -2 94.5t-21 79.5 q-12 43 -32 82q23 -14 36 -45q14 -29 24.5 -72.5t10.5 -115.5q0 -217 -54 -333t-118 -165q-74 -61 -172 -67z" />
<glyph unicode="&#xd9;" horiz-adv-x="1200" d="M236 1071q8 23 36.5 41t44.5 21q35 6 62 -50q10 -25 -2 -61.5t-19 -46.5q0 -6 -3 -64.5t-3 -130t3 -139.5t3 -86q2 -49 9.5 -82t15.5 -61q6 -27 1 -33t-9 -17q-2 -8 1 -20t21 -31q16 -18 34 -36.5t28 -12.5q10 2 12 -3t21 -19q8 -8 12 -16.5t21.5 -13.5t49 -4t95.5 11 q68 12 99.5 48t43.5 83t12 100.5t4 96.5q2 43 1 127t-4 170t-2 156.5t7 84.5q16 27 41 44.5t39 13.5q14 -2 33 -46t12 -65q-8 -23 -15 -78t-15 -86q0 -16 -1 -84.5t-1 -146.5t1 -140.5t1 -68.5q2 -6 11 -45t3 -78q-4 -35 -60.5 -81t-189.5 -99q-68 -25 -126 -19.5t-109.5 29 t-90 54t-61.5 57.5q-23 20 -32 116.5t-13 207t-4 204.5v125q0 55 -14.5 104.5t-3.5 69.5zM399 1473q20 27 48 32.5t51 -18.5q18 -27 52 -55.5t58 -42.5q25 -10 50.5 -30t56.5 -34q27 -12 57.5 -37.5t7.5 -25.5q-12 0 -14 -6.5t-21 -6.5q-6 0 -21 3t-32 12q-16 6 -39 16 l-67 45q-27 16 -50.5 31.5t-35.5 21.5q-16 8 -25.5 15.5t-25.5 15.5q-18 2 -42 18.5t-8 45.5zM422 506q4 39 6 135t0 195.5t-4 178.5t-2 83q8 -92 14 -176q8 -72 10.5 -138.5t2.5 -95.5q-4 -31 -4.5 -82t-0.5 -104q0 -61 -6 -125q-4 10 -12 24q-14 33 -4 105zM469 1356 l86 -53q23 -14 53 -29q14 -8 35 -12l27 -21l-103 47l-45 23q-35 16 -49 16q-4 0 -1 11.5t-3 17.5zM586 18q37 4 82 19q35 10 83 27.5t97 44.5q45 27 73.5 65.5t44 77.5t19.5 70.5t10 42.5q0 14 1 118.5t1 225.5q0 143 4 315q8 -172 9 -322q0 -129 -6.5 -258t-22.5 -192 q-35 -84 -100.5 -129t-130.5 -70q-74 -31 -164 -35z" />
<glyph unicode="&#xda;" horiz-adv-x="1208" d="M242 1071q10 23 37.5 41t44.5 21q37 6 61 -50q10 -27 -2 -62.5t-18 -45.5q0 -6 -2.5 -64.5t-2.5 -131t2.5 -138.5t2.5 -86q4 -47 10 -81t14 -60q6 -29 1 -34t-9 -18q-2 -8 1 -20t21 -29q16 -20 34 -37.5t28 -13.5q12 4 13 -2t20 -18q10 -8 14 -17.5t20.5 -14.5t48 -4 t95.5 13q68 10 99.5 46t43.5 84t12 100.5t5 97.5q2 41 1 124t-4.5 169t-2.5 157.5t8 85.5q16 27 42 43.5t40 14.5q12 -2 30.5 -47t12.5 -64q-8 -23 -15.5 -78t-15.5 -86q0 -18 -1 -85.5t-1 -145.5t1 -140.5t1 -66.5q4 -6 12 -45t2 -78q-2 -37 -59.5 -83t-190.5 -97 q-68 -27 -126 -20.5t-109 30t-90 54t-62 55.5q-23 23 -32 119t-13 204.5t-4 203.5v126q0 55 -14.5 103.5t-3.5 70.5zM430 508q2 39 5 134t0 194.5t-4 178.5t-1 81q8 -92 12 -174q8 -74 10.5 -140.5t2.5 -93.5q-4 -31 -4 -82v-104q0 -61 -5 -125q-6 12 -14 24q-14 35 -2 107z M465 1280q-18 0 12.5 27.5t59.5 40.5q29 12 52 31.5t48 31.5q27 14 61.5 43t53.5 53q20 27 49.5 21t48.5 -33q18 -31 -6.5 -46t-44.5 -22q-16 -6 -23.5 -13t-30.5 -15q-10 -8 -33.5 -21.5t-52.5 -29.5q-33 -20 -65 -45q-20 -12 -35 -17q-18 -8 -32.5 -12t-22.5 -4 q-16 0 -19.5 5t-19.5 5zM580 1264l30 16q16 8 31 14q33 16 55 31l86 53q-10 -6 -5 -17t-3 -11q-10 0 -47 -21l-43 -18zM594 18q35 6 80 19q37 12 84 28.5t96 45.5q45 25 74.5 63.5t45 77.5t19.5 70.5t8 44.5q0 12 2.5 116.5t2.5 223.5q0 145 2 317q8 -172 8 -324 q0 -125 -5 -255t-22 -193q-37 -84 -102.5 -128t-128.5 -69q-76 -31 -164 -37z" />
<glyph unicode="&#xdb;" horiz-adv-x="1236" d="M166 1280q-20 0 10.5 27.5t61.5 38.5q29 14 52 33.5t48 31.5t59.5 42t55.5 54q18 25 48.5 20t47.5 -34q20 -31 -5.5 -46t-43.5 -20q-16 -6 -23.5 -13t-30.5 -15q-12 -8 -35.5 -21.5t-50.5 -31.5q-35 -18 -67 -43q-18 -12 -37 -19q-16 -6 -29.5 -10t-21.5 -4 q-18 0 -20.5 5t-18.5 5zM274 1073q8 23 36 40t44 22q37 4 62 -52q10 -25 -2.5 -60.5t-18.5 -47.5q0 -6 -2 -64.5t-2 -130t2 -139.5t2 -86q4 -49 11.5 -82t15.5 -61q4 -27 -1 -33t-7 -17q-4 -8 -1 -21t21 -30q18 -18 34.5 -36.5t27.5 -12.5q12 2 13 -3t21 -19 q8 -8 12.5 -16.5t21 -14.5t47 -4t96.5 12t98.5 47t44.5 84t12 100.5t2 96.5q4 43 2 127t-4 170t-1 156.5t7 84.5q16 29 41 45.5t39 14.5q14 -4 31.5 -48t13.5 -65q-8 -23 -15 -78t-15 -86q0 -16 -2.5 -84.5t-2.5 -146.5t2.5 -140.5t2.5 -68.5q2 -6 10 -45t4 -78 q-4 -37 -60.5 -82t-191.5 -98q-66 -25 -123 -19.5t-109.5 29t-91.5 54t-61 55.5q-23 23 -32 119t-13 206.5t-4 204.5v125q0 53 -14.5 103.5t-2.5 72.5zM279 1266l30 14q16 8 31 14q35 16 55 29l88 53q-12 -4 -6 -15t-2 -11q-12 0 -49 -21l-41 -18zM461 506q2 39 5 136 t0 195.5t-4 178.5t-1 82q8 -92 14 -176q8 -72 9 -138.5t1 -95.5q-2 -31 -2 -82v-104q0 -61 -6 -127q-6 12 -14 26q-14 33 -2 105zM623 16q37 6 79 21q37 10 84.5 26.5t98.5 45.5q45 25 73.5 63.5t44 77.5t19.5 71.5t10 43.5q0 14 1 118.5t1 225.5q0 143 4 317q8 -174 9 -324 q0 -129 -6.5 -258t-22.5 -194q-37 -82 -102.5 -127t-129.5 -70q-76 -31 -163 -37zM739 1507q16 29 46 34t53 -19q16 -25 51 -54.5t59 -44.5q25 -10 50.5 -29.5t56.5 -33.5q27 -10 57.5 -38t7.5 -28q-12 0 -14 -5t-21 -5q-6 0 -21 3t-32 11q-20 6 -39 17l-67 45 q-27 16 -51.5 31.5t-34.5 21.5q-16 8 -26.5 15.5t-27.5 15.5q-18 2 -41.5 17.5t-5.5 45.5zM807 1391l88 -54q20 -14 53 -26q14 -8 33 -17l29 -16l-107 45l-41 23q-37 18 -51 18q-4 0 0 10t-4 17z" />
<glyph unicode="&#xdc;" horiz-adv-x="1212" d="M248 1073q12 23 37.5 40t44.5 22q35 4 59 -52q12 -25 0 -60.5t-18 -47.5q0 -4 -3 -62.5t-3 -130t3 -140.5t3 -89q2 -47 9 -81t15 -60q6 -29 0 -34t-8 -18q-2 -8 0 -20t23 -29q16 -18 32.5 -36.5t28.5 -12.5q10 2 12 -3t21 -19q8 -8 12 -16.5t20.5 -14.5t49 -4t96.5 12 q66 10 98.5 47t45 84t12.5 99.5t2 97.5q6 41 3 126t-6 171t-1 156.5t10 84.5q14 31 39 46.5t39 13.5q14 -4 31.5 -48t13.5 -65q-10 -23 -16.5 -78t-14.5 -86q0 -16 -2 -83.5t-2 -147.5t2 -142.5t2 -66.5q2 -6 10 -45t2 -78q-2 -37 -59 -82t-191 -96q-66 -27 -124 -21.5 t-109 29t-90 54t-62 55.5q-23 23 -33 119t-14 206.5t-4 204.5v125q0 59 -13 106.5t-3 69.5zM338 1393q0 35 24.5 50t34.5 19q11 8 15 8q12 0 31.5 -9t41 -22.5t36 -38t11.5 -61.5q-8 -72 -47 -90t-69 -10q-53 2 -54 41q0 18 19 27q6 8 16 16q4 14 -8 24.5t-8 38.5 q0 6 2 10.5t2 12.5q-8 -25 -14 -47.5t-9 -34.5q-8 -4 -8 -10t-4 -14q-2 -4 -2 -11q-2 10 -2 25v31q0 6 -4 17t-4 28zM434 506q2 39 5 136t0 195.5t-4 178.5t-1 82q8 -92 15 -176q8 -72 9 -138.5t1 -93.5q-2 -31 -2 -84v-106q0 -61 -6 -125q-4 12 -15 24q-12 35 -2 107z M598 16q37 6 80 21q37 10 84 27.5t98 44.5q47 25 75 63.5t43 77.5t19 70.5t11 44.5q0 14 1 117.5t1 228.5q0 143 2 315q8 -172 8 -324q0 -129 -5 -259t-22 -193q-37 -82 -102.5 -127t-128.5 -70q-74 -31 -164 -37zM676 1393q0 16 14 34q7 13 15 21q-12 -14 -6 -57t1 -64 q-8 -4 -8 -10t-2 -14q-2 -4 -2 -11q-6 10 -6 25v31q0 6 -3 17t-3 28zM700 1280q0 20 31 37l37 22q0 8 -7 11.5t-18.5 7.5t-18.5 9t-7 19q6 27 10 55.5t25 28.5q10 0 29.5 -9t42 -22.5t35.5 -38t11 -61.5q-8 -72 -47 -90t-69 -10q-54 2 -54 41z" />
<glyph unicode="&#xdd;" horiz-adv-x="1212" d="M231 1071q6 35 41 40t60 -13q10 -12 20 -37t19.5 -55.5t18.5 -56t18 -36.5q8 -10 27.5 -32.5t43 -50t43 -51t21.5 -36.5q8 -16 8 -27t6 -28q6 -18 11.5 -16t19.5 6q2 0 19.5 17.5t37 43t36.5 49t24 37.5q8 10 26.5 42t39 70t43 74t32.5 56q23 35 45 49t33 2 q12 -10 35.5 -29.5t23.5 -41.5q0 -23 -37 -63t-63 -73q-14 -20 -53 -67t-79 -105.5t-74 -108.5t-40 -71q-8 -23 -8 -66.5t3 -93t6 -92.5t3 -55q2 -14 10 -42t10.5 -54.5t-9 -49t-48.5 -22.5t-50 22.5t-15 49t1 54.5t3 42v65.5t-1 110.5t-3 104.5t-2 51.5q-4 10 -42 58 t-79 110q-23 29 -54.5 75.5t-64.5 95t-52.5 90.5t-13.5 58zM391 1280q-20 0 10.5 27.5t57.5 40.5q31 14 54.5 33.5t49.5 29.5q25 14 57.5 43t55.5 53q20 27 51 21t47 -33q16 -31 -8.5 -46t-42.5 -22q-18 -6 -25.5 -12t-29.5 -14q-8 -10 -32 -23.5t-54 -29.5q-31 -20 -64 -45 q-23 -10 -37 -17q-16 -8 -31.5 -12t-19.5 -4q-20 0 -21.5 5t-17.5 5zM432 1044q37 -55 70 -98q27 -39 46 -74.5t25 -44.5zM504 1264l28 16q18 8 33 14q33 16 53 31l87 53q-8 -6 -4 -17t-3 -11q-10 0 -47 -19l-45 -20zM664 68l4 6l9 6t7 4q12 12 21 33q8 14 10 26 q-2 109 -2 199q-2 78 -2 145.5v71.5q0 8 45 71.5t102 143.5q63 92 143 207q0 -10 -44 -76.5t-95 -140.5q-61 -90 -135 -197v-157q0 -68 -2 -130.5t-2 -97.5q0 -39 -10.5 -58.5t-22.5 -33.5q-14 -16 -26 -22z" />
<glyph unicode="&#xe0;" horiz-adv-x="1187" d="M207.5 90q5.5 31 23 67t37 70.5t27.5 51.5q16 29 28.5 66.5t12.5 55.5q6 16 9 44t34 102q27 72 61.5 145.5t34.5 87.5q0 33 14 72q6 23 18.5 37t12.5 26q0 14 -8 33t-2 43q4 25 28.5 66t55.5 20q10 -8 19.5 -31.5t14.5 -51t8 -51t3 -32.5q4 -12 22.5 -53t40 -94 t43 -104.5t33.5 -86.5q10 -33 33 -91t49.5 -118.5t46 -108.5t23.5 -60q12 -29 35.5 -50.5t21.5 -48.5q-8 -31 -22.5 -44t-53.5 -9q-41 8 -54 40t-15 54q-8 23 -31 67t-33 52q-12 12 -33.5 -6.5t-48.5 -28.5q-25 -12 -55.5 -8t-97.5 4q-63 0 -89 -9t-51 -9t-35 16t-32 14 q-16 0 -10 -18t0 -37q-4 -18 -14.5 -54t-28.5 -67q-18 -25 -31 -13.5t-27 13.5q-23 6 -17.5 37zM313 27l35 32q10 16 25 50q8 14 10 30q8 -18 -2 -39.5t-25 -38.5q-14 -18 -43 -34zM365.5 351.5q-7.5 -17.5 1.5 -19.5q16 -6 33.5 -8t56.5 10q39 18 56 24.5t28 1.5 q10 -6 26.5 -10t50.5 -4q16 0 41 -6t46.5 -10t36 -2t16.5 18q6 31 1.5 63.5t-24.5 69.5q-8 20 -34.5 76.5t-54.5 118t-52.5 113t-32.5 55.5q-12 4 -18 -8.5t-15 -28.5q-14 -18 -29.5 -33.5t-6.5 -15.5q8 -6 18 -14.5t10 -16.5q0 -4 -12 -36t-27.5 -75t-33 -85t-19.5 -60 q-6 -16 -18.5 -38.5t-24.5 -42t-19.5 -37zM371 1444q16 29 44.5 34t51.5 -20q16 -25 50 -54.5t58 -43.5q25 -10 49.5 -30t55.5 -34q29 -10 59.5 -37.5t8.5 -27.5q-14 0 -15.5 -5t-21.5 -5q-6 0 -21.5 4t-32.5 10q-18 8 -39 18l-63 43q-27 16 -50.5 30.5t-33.5 23.5 q-18 8 -27.5 15t-25.5 11q-20 6 -44 21.5t-3 46.5zM397 156q61 4 121 10q45 4 92 7t74 -3zM440 1327l86 -51q16 -14 49 -31q12 -6 33 -14l27 -17l-100 48l-43 20q-36 16 -50 16q-2 0 0 11.5t-2 17.5zM483 455q8 39 21 71q6 29 16 55.5t21 30.5l-6 -26q-6 -37 -9 -47 q-8 -8 -14 -21.5t-12 -25.5zM514 418h14q14 0 27 6q8 6 18.5 -11.5t12.5 -29.5zM686 1016q96 -221 166 -395q29 -72 58.5 -142.5t49 -123t28.5 -81t1 -18.5q-2 4 -15 39t-34.5 89t-48.5 120.5t-57 138.5q-63 164 -148 373z" />
<glyph unicode="&#xe1;" horiz-adv-x="1165" d="M200.5 90q6.5 31 23 67t36 71.5t25.5 50.5q18 29 30.5 65.5t12.5 56.5q4 16 8 44t31 102q31 72 64.5 145.5t33.5 87.5q0 31 14 72q8 20 20.5 35.5t12.5 30.5q0 12 -9 30.5t-1 42.5q2 27 28.5 67t55.5 19q10 -10 18 -33.5t14.5 -50t10.5 -50t4 -36.5q2 -10 20.5 -50 t41 -93t43 -104.5t32.5 -86.5q10 -33 33.5 -91t49.5 -118.5t45.5 -108.5t27.5 -60q10 -27 32.5 -49.5t20.5 -51.5q-6 -27 -21.5 -39t-54.5 -10q-39 6 -51 39t-18 53q-6 23 -30 69t-34 50q-12 12 -32.5 -6.5t-45.5 -28.5q-27 -12 -57.5 -8t-99.5 4q-68 0 -92.5 -9t-49.5 -9 q-27 0 -35 16t-30 14q-18 0 -13.5 -18t2.5 -37q-2 -18 -13 -54t-28 -65q-20 -25 -32.5 -14.5t-26.5 14.5q-23 4 -16.5 35zM307 25l33 34q10 16 25 50q6 14 12 34q4 -23 -5.5 -42t-25.5 -40q-14 -16 -39 -36zM356 332q20 -6 35 -8t58 14q39 14 57 20.5t26 3.5q10 -8 25.5 -11 t52.5 -3q20 0 42 -5t44.5 -11t37 -4t18.5 20q4 29 -0.5 61.5t-20.5 69.5q-12 20 -36.5 76.5t-54.5 118t-54.5 112t-32.5 56.5q-14 6 -20.5 -7.5t-12.5 -29.5q-16 -18 -30.5 -33.5t-4.5 -15.5q4 -6 15.5 -14.5t11.5 -16.5q0 -4 -12.5 -36t-28.5 -75t-31.5 -85t-21.5 -60 q-2 -18 -15.5 -38.5t-25.5 -41t-19.5 -36t-1.5 -21.5zM362 1282q-20 0 10.5 26.5t59.5 37.5q31 14 54.5 35.5t45.5 29.5q25 16 59 44t56 52q18 25 49 21t47 -35q18 -27 -7 -44t-42 -19q-20 -8 -26 -15.5t-29 -11.5q-8 -10 -32.5 -23.5t-53.5 -33.5q-29 -16 -64 -41 q-23 -12 -34 -21q-18 -4 -33.5 -8t-20.5 -4q-20 0 -22.5 5t-16.5 5zM389 156q61 4 121 12q47 2 93 6t71 -4zM473 1264l29 18q18 6 30 14q31 14 54 27l86 57q-6 -8 -3 -19t1 -11q-14 0 -52 -17l-45 -22zM475 455q10 41 19 71q8 31 19 56.5t19 29.5l-8 -26q-4 -37 -8 -47 q-6 -8 -12 -21.5t-15 -25.5zM504 418h16q14 0 27 6q10 6 18 -9.5t13 -33.5zM680 1018q98 -223 164 -397q31 -72 58.5 -141.5t49 -123t29.5 -82t0 -18.5q-2 4 -15.5 39t-34 89t-48 120.5t-56.5 138.5q-66 166 -147 375z" />
<glyph unicode="&#xe2;" horiz-adv-x="1196" d="M218 90q5 31 22.5 67t37 70.5t27.5 51.5q16 29 28.5 66.5t12.5 55.5q6 16 8 44t33 102q29 72 63.5 145.5t34.5 87.5q0 33 15 72q4 23 17 36t13 27t-9 33t-3 43q6 25 31.5 65t56.5 21q10 -8 18.5 -31.5t14.5 -51t8 -52t2 -33.5q6 -10 24.5 -52t39 -94t43 -104.5 t32.5 -85.5q12 -33 34 -91t48.5 -117.5t46 -108.5t25.5 -59q10 -31 33.5 -52.5t21.5 -48.5q-8 -31 -22 -43t-53 -10q-41 8 -53.5 40t-16.5 54q-8 23 -29.5 67t-34.5 54q-10 10 -32.5 -8.5t-46.5 -28.5q-25 -12 -55.5 -7t-98.5 5t-92.5 -10t-48.5 -10q-27 0 -36 16t-32 14 q-16 0 -11 -18t1 -37q-4 -16 -15.5 -53t-27.5 -68q-18 -25 -31.5 -13.5t-25.5 13.5q-23 6 -18 37zM324 27l32 32q12 16 27 52q8 12 10 30q8 -20 -3 -40.5t-25 -37.5q-12 -20 -41 -36zM342 1300.5q-2 -0.5 14 16.5q20 18 41 33.5t45 46.5q27 29 62 63.5t35 44.5q0 14 5 22.5 t36 16.5q31 4 50 9.5t27 -19.5q4 -16 23 -37l12 -10q16 -14 31 -29q16 -10 25.5 -21.5t17.5 -11.5q8 -4 22.5 -14t28.5 -22l35 -27q12 -12 22 -27q23 -25 7 -39q-16 -16 -34 -30.5t-36 12.5q-20 23 -20 34t-13 21q-12 14 -25.5 22.5t-33.5 18.5q-23 14 -50.5 29.5 t-45.5 21.5q-6 6 -16.5 8.5t-18.5 2.5h-17q0 -4 -2 -15q-6 -18 -20 -24q-10 -8 -40 -33t-56.5 -50.5t-48 -37.5t-13.5 2q2 8 -5 5t-16.5 -9t-17.5 -7t-8 11q0 23 -2 22.5zM376 352.5q-7 -16.5 1 -20.5q16 -6 32.5 -8t55.5 12q39 16 57.5 22.5t28.5 1.5q12 -6 27.5 -10 t52.5 -4q16 0 39.5 -5t46 -10t36 -3t17.5 18q4 31 0 63.5t-22 69.5q-8 20 -35 76.5t-54.5 118t-53 113t-34.5 53.5q-12 6 -17 -6.5t-15 -28.5q-14 -20 -29.5 -35.5t-7.5 -15.5q8 -4 18 -12.5t10 -18.5q0 -2 -13 -34t-28.5 -75t-32 -85t-18.5 -60q-6 -16 -18 -38.5t-24.5 -42 t-19.5 -36zM408 158q61 2 118 8q49 4 96.5 7t71.5 -3zM494 455q8 39 18 71q6 29 17.5 54.5t21.5 31.5l-4 -26q-8 -37 -12 -47q-8 -8 -13.5 -21.5t-11.5 -25.5zM524 418h15q16 0 26 6t19.5 -11.5t11.5 -29.5zM696 1016q98 -223 168 -395q27 -72 56.5 -142.5t49 -122t28.5 -81 t1 -17.5q-2 2 -14 37t-34.5 89t-49.5 120.5t-57 138.5q-63 164 -148 373zM713 1528q35 -31 69 -55q31 -23 57.5 -46.5t34.5 -40.5z" />
<glyph unicode="&#xe3;" horiz-adv-x="1198" d="M224 90q5 31 22.5 67t37 70.5t27.5 51.5q16 31 27.5 67.5t13.5 54.5q6 16 9.5 44t27.5 102q31 72 67 145.5t36 87.5q0 33 14 72q6 23 18.5 38t12.5 30q0 10 -8.5 31.5t-6.5 39.5q4 12 13.5 31.5t20.5 36t24.5 24t23.5 -5.5q16 -8 23.5 -31.5t13.5 -51t8 -51t6 -32.5 q4 -12 22.5 -53t40 -94t43 -104.5t34.5 -86.5q10 -33 32.5 -90t46 -116.5t44 -108.5t26.5 -63q12 -25 37 -48.5t18 -50.5q-4 -31 -18 -44t-53 -9q-41 8 -54.5 40t-17.5 54q0 10 -10 29.5t-18.5 38t-19.5 35t-13 20.5q-12 8 -36 -10.5t-48 -28.5q-25 -12 -54.5 -6t-97.5 6 q-63 0 -89 -11t-50 -11q-25 0 -36 18.5t-32 13.5q-16 -2 -10 -19t0 -36q-4 -16 -14.5 -54t-28.5 -63q-18 -31 -30.5 -19.5t-26.5 13.5q-23 6 -18 37zM299 1358q4 6 9 12t14 14q6 10 14 13q0 -2 6 -2q16 0 31 12q10 12 31.5 27.5t52 32t60.5 27.5t54 11q49 -8 80 -58t68 -71 q33 -12 47 4.5t29 8.5q14 -6 18 -31t21 -8q16 16 16 34v15l22 31q8 8 16.5 18t16.5 2q8 -6 11.5 -29.5t-3.5 -36.5q-6 -8 -25.5 -23t-44 -31.5t-54 -29t-54.5 -10.5q-25 6 -50.5 21.5t-47 35t-36.5 36t-21 24.5q-8 6 -33 6t-47 -10q-16 -6 -29.5 -21.5t-24.5 -21.5 q-8 -8 -9 -21.5t-11 -35.5q-14 -16 -30.5 -16.5t-37.5 3.5q-23 8 -46 19.5t-13 48.5zM330 27q0 2 8 10q4 6 9 10t13 12q12 16 27 50q8 14 12 30q4 -35 -26 -73q-14 -18 -43 -39zM382 354.5q-7 -14.5 1 -20.5q16 -4 30.5 -6t55.5 6q39 18 57.5 24.5t26.5 1.5q20 -8 82 -8 q14 0 37.5 -6t45 -11t38 -4t16.5 15q15 69 -20 139q-8 14 -35 70.5t-54.5 121t-52 115t-32.5 52.5q-18 8 -21.5 -4.5t-13.5 -34.5q-16 -18 -30.5 -32.5t-4.5 -16.5q8 -6 18.5 -13.5t10.5 -13.5q0 -4 -12.5 -38t-28 -77t-33 -85t-19.5 -60q-6 -16 -18 -38.5t-24.5 -42 t-19.5 -34zM414 160q61 6 121 10q45 4 91 5t70 -5zM475 1346l17 6q8 8 34 12q25 0 31 -4q8 -2 10 -8zM500 455q8 39 20 71q6 29 16.5 55.5t20.5 30.5l-6 -26q-6 -31 -14 -45q-2 -6 -8.5 -21.5t-12.5 -27.5zM530 424h15q12 0 22 2q12 4 22.5 -13.5t12.5 -29.5zM702 1016 q96 -221 166 -395q29 -72 58.5 -142.5t49 -121t29 -80t1.5 -21.5q-2 4 -15.5 39t-35 89t-48 120.5t-57.5 138.5q-63 164 -148 373zM842 1288q14 2 27.5 13.5t33.5 19.5q16 6 27.5 11t15.5 26q10 18 10 45v31l-10 10q43 14 21 -78q-8 -20 -28.5 -36.5t-45.5 -28t-42 -13.5 t-9 0z" />
<glyph unicode="&#xe4;" horiz-adv-x="1210" d="M231.5 90q6.5 31 22.5 67t35.5 70.5t27.5 51.5q16 29 28.5 65.5t12.5 56.5q6 16 9.5 44t33.5 102q27 72 62 145.5t35 87.5q0 33 14 72q6 23 18.5 37t12.5 26q0 14 -8.5 33t-2.5 43q4 25 29 66t55 20q12 -8 20.5 -31.5t13.5 -51t8.5 -51t3.5 -32.5q6 -12 23 -54t38.5 -94 t43 -103.5t34.5 -86.5q10 -33 32.5 -91t49 -118.5t46 -108.5t25.5 -60q10 -31 34 -51.5t22 -49.5q-8 -31 -22.5 -43t-53.5 -8q-41 8 -54.5 40t-15.5 54q-8 23 -30.5 67t-32.5 52q-12 12 -34 -6.5t-48 -28.5q-25 -12 -55.5 -8t-98.5 4q-63 0 -88.5 -9t-50.5 -9t-35 16t-33 14 q-16 0 -10 -18t0 -39q-2 -16 -13 -52t-30 -67q-18 -25 -30.5 -13.5t-26.5 13.5q-23 6 -16.5 37zM317 1395q0 35 25 49t37 16q6 8 14 8q10 0 29.5 -7t42 -22.5t36 -40t11.5 -61.5q-8 -70 -47 -88t-70 -10q-53 4 -53 43q0 14 16 23q8 8 21 16q2 14 -10.5 25.5t-10.5 37.5 q0 10 3.5 12.5t3.5 10.5q-8 -25 -13.5 -47.5t-9.5 -32.5q-8 -6 -8 -11t-2 -13q-4 -6 -4 -13q-4 12 -4 25v31q0 6 -3.5 17t-3.5 32zM336 25l35 34q10 16 24 50q9 14 11 30q10 -18 -1.5 -39.5t-25.5 -38.5q-14 -18 -43 -36zM388 351.5q-7 -17.5 1 -19.5q16 -6 33.5 -8t56.5 10 q39 16 56.5 23.5t27.5 2.5q10 -6 26.5 -10t51.5 -4q16 0 41 -6t46.5 -10t35.5 -2t16 18q6 31 2 63.5t-24 69.5q-8 20 -35 76.5t-54.5 118t-52 113t-32.5 55.5q-12 4 -17.5 -8.5t-15.5 -28.5q-14 -18 -29.5 -33.5t-7.5 -15.5q10 -6 19.5 -14.5t9.5 -16.5q0 -4 -12.5 -36 t-28 -75t-31.5 -85t-20 -60q-6 -18 -18.5 -39.5t-25 -41t-19.5 -37zM420 156q61 4 121 8q45 6 92 9t74 -3zM506 455q8 39 20 71q6 29 16.5 55.5t20.5 30.5l-6 -26q-6 -37 -8 -47q-8 -10 -14.5 -22.5t-10.5 -27.5zM537 418h14q14 0 27 6q8 6 18 -11.5t12 -31.5zM653 1395 q0 12 15 35q4 8 12 16q-10 -12 -5 -56t3 -63q-8 -6 -8 -11t-2 -13q-6 -6 -6 -13q-4 12 -5 25v31q0 6 -2 17t-2 32zM678 1282q0 16 31 33l36 22q0 8 -7 11.5t-18 7.5t-18.5 10t-7.5 18q2 29 8.5 56.5t24.5 27.5q12 0 31.5 -7t42 -22.5t36 -40t11.5 -61.5q-8 -70 -49 -88 t-68 -10q-53 4 -53 43zM709 1016q98 -221 165 -395q29 -72 59 -142.5t49 -123t28.5 -81t1.5 -18.5q-2 4 -15.5 39t-35 89t-48 120.5t-57.5 138.5q-63 164 -147 373z" />
<glyph unicode="&#xe5;" horiz-adv-x="1212" d="M223 80q0 18 11.5 48t25.5 59.5t28.5 56t20.5 39.5q16 29 27.5 64.5t15.5 51.5q2 18 7.5 45t29.5 101q12 37 29.5 75.5t33 72.5t26.5 57.5t11 29.5q0 12 2.5 30.5t12.5 41.5q8 20 20.5 35.5t12.5 32.5q0 12 -7.5 29.5t-7.5 39.5q2 12 9.5 28.5t17.5 32t22.5 26.5t22.5 11 q6 0 12 -6q14 -10 22.5 -34.5t13.5 -52t8 -52t5 -35.5q2 -10 20.5 -52t41 -93t44 -103.5t32.5 -85.5q10 -33 33.5 -91t48 -117.5t45 -107.5t26.5 -60q10 -25 31.5 -45.5t21.5 -47.5v-10q-4 -25 -15 -37t-40 -12q-4 0 -9 1t-9 1q-20 2 -32.5 12.5t-20 24.5t-11.5 28.5 t-6 24.5q-2 12 -10 30.5t-17.5 38t-18.5 35t-15 19.5q-2 2 -9 2q-12 0 -32.5 -14.5t-42.5 -24.5q-18 -6 -39 -6q-18 0 -43 2t-66 2q-68 0 -96.5 -11t-50.5 -11q-23 0 -33 16t-27 16q-16 0 -16 -16q0 -4 1 -11t1 -14q0 -8 -2 -12q-2 -18 -12.5 -56t-28.5 -65q-14 -16 -25 -16 q-10 0 -18 6t-16 8q-16 2 -17 25zM332 25q2 4 8 10q4 4 9 11t11 15q6 6 12.5 19.5t12.5 28.5q8 16 14 32q0 -23 -11 -43t-23 -37q-14 -20 -33 -36zM379 342q0 -2 4 -6q8 -4 13 -6t16 -2q20 0 57 14q33 10 50.5 16.5t27.5 6.5q6 0 10 -3q10 -4 26.5 -8t51.5 -4q23 0 54.5 -10 t53.5 -10q25 0 29 18q2 8 3 15.5t1 17.5q1 51 -26 102q-6 12 -19.5 43t-31 70t-37 82t-37 79t-29.5 60.5t-16 26.5t-9 2q-10 0 -14 -12.5t-16 -30.5q-12 -14 -25.5 -27.5t-13.5 -17.5q8 -2 16 -8q6 -4 12.5 -10.5t6.5 -10.5t-13.5 -39t-30 -78t-32 -84t-17.5 -59 q-4 -14 -14 -32.5t-21.5 -37t-20.5 -34t-9 -23.5zM442 1384q0 43 9.5 71t22.5 44.5t27.5 25.5t24.5 13q6 6 11 6q6 2 19 4t26.5 3t25 2t13.5 1h2q2 0 3 1t5 1q8 0 19.5 -6t25.5 -28q6 -10 15 -28.5t18.5 -42.5t15.5 -49.5t6 -49.5v-6q-2 -35 -23.5 -68t-31.5 -49q0 -4 -3 -6 t-5 -4q-4 -4 -28 -10.5t-52 -6.5q-20 0 -31 2q-35 4 -67.5 27.5t-43.5 95.5q-2 16 -3 30.5t-1 26.5zM487 1380q2 -51 21.5 -74.5t26.5 -25.5q4 -4 9 -5t5 -5q4 -6 10 -10q12 -8 27 -9q6 0 14 4q31 8 53.5 29t22.5 74v16q0 59 -24.5 85t-51.5 34q-12 4 -14 4q-10 0 -23 -12 q-29 -16 -52.5 -44t-23.5 -61zM500 455q10 39 18 73q8 29 18.5 54.5t22.5 35.5q-2 -18 -6 -32q-4 -12 -8 -24.5t-8 -18.5q-4 -10 -10.5 -24.5t-12.5 -29.5q-8 -16 -14 -34zM520 1362q0 10 2 16q4 12 9.5 22.5t9.5 20.5q12 18 22 26.5t12 8.5h9l-4 -6q-6 -6 -24.5 -23.5 t-18.5 -56.5q6 -47 28 -67q4 -4 9.5 -7.5t9.5 -5.5t6 -2v-8q-4 0 -8 2q-10 2 -19 12q-4 6 -10 11.5t-12 11.5q-8 10 -14.5 20.5t-6.5 24.5zM528 422q2 -2 7 -2h12q8 0 24 4q14 0 20.5 -15.5t8.5 -27.5zM645 1569v8q4 0 34 -5t58 -34q23 -23 34 -58.5t11 -82.5v-23 q-2 -78 -23.5 -119t-39.5 -55q-23 -16 -41.5 -19t-22.5 -3q0 2 9.5 8t21.5 13t24.5 14.5t18.5 13.5t12.5 13t11.5 21.5t9 39t8 65.5v20q0 55 -20.5 90t-42.5 56q-27 23 -62 37zM705 1018q84 -203 151 -365q29 -70 55.5 -137t48 -121.5t35 -91.5t13.5 -45q-4 2 -18.5 36 t-36 88t-49 121.5t-54.5 139.5q-66 166 -145 375z" />
<glyph unicode="&#xe6;" horiz-adv-x="1777" d="M167 123q13 29 41 63.5t59.5 66.5t43.5 44q27 33 50.5 65.5t27.5 49.5q4 6 8 15t12.5 23.5t22.5 38t39 58.5t54.5 70.5t54 66.5t42 52.5t17.5 27.5q6 16 13 31.5t24 38.5q16 18 32.5 31.5t22.5 29.5q2 10 -1 27.5t7 40.5q6 12 28.5 29.5t50.5 32.5t53.5 21.5t37.5 -4.5 l-4 -2q23 6 67 6.5t90 -1t86 -3.5t52 -2q14 0 42 1t56.5 4.5t52 7.5t33.5 10q18 10 47 16t46 -4q14 -8 32.5 -41t16.5 -55q-2 -23 -17.5 -44.5t-50.5 -25.5q-31 -2 -68.5 3.5t-66.5 5.5q-6 0 -26.5 -1.5t-48 -2.5t-60.5 -2t-66 -3q-78 -4 -172 -6q-4 -10 -5 -54t-1 -95v-133 q23 2 43 4q16 2 33.5 3t28.5 1q8 0 30.5 -1t47 -3t47 -4.5t32.5 0.5q12 0 26.5 6t31 11t31 8t26.5 -1q20 -4 45 -16.5t20 -53.5q0 -39 -10 -60t-51 -32q-20 -4 -31.5 -4t-18.5 2t-14.5 6.5t-17.5 8.5q-10 2 -41 2h-64.5t-63.5 -1t-38 -1q-14 -8 -36.5 -4t-39.5 -3 q-6 -2 -10 -31.5t-6 -65.5t-1 -67.5t5 -37.5q4 -14 7 -34t3 -28q0 -4 -3 -14t-6 -21.5t-3 -21.5t6 -12q8 -2 21.5 -1t28 3t28.5 4t23 2q8 0 50 -4t92 -9.5t94 -8.5t61 -1q16 2 41.5 11.5t52 18.5t50.5 14t38 1q12 -4 19 -18t12.5 -31.5t6.5 -35t1 -29.5q-2 -12 -13.5 -23.5 t-24.5 -22t-26.5 -16.5t-19.5 -6q-10 0 -34 4t-50.5 9.5t-51 9.5t-36.5 4h-38h-71t-89 1t-90 1t-71.5 1t-38.5 1q-20 4 -35.5 31.5t-15.5 37.5q0 6 -5 54.5t-9 101.5q-23 -6 -44.5 -10t-33.5 -6q-14 -6 -27.5 -8.5t-32 -1t-43 2.5t-61.5 1q-35 2 -58.5 1t-42 -4.5 t-31.5 -6.5t-27 -3q-10 0 -16.5 5.5t-11.5 10.5t-11.5 9t-16.5 2q-23 0 -22.5 -16.5t-8.5 -32.5q-4 -16 -23.5 -49t-47.5 -54q10 6 21.5 18.5t21.5 24.5q12 14 26 31q-4 -18 -22.5 -37.5t-38.5 -36.5q-25 -18 -53 -34q2 2 6 4t16 10q-18 -10 -33.5 -10t-26.5 4t-19.5 10 t-14.5 6q-20 4 -7 33zM420 188q68 6 129 11q53 4 104 4t76 -6zM455 350q12 -6 28.5 -9t61.5 11q43 10 65.5 17.5t34.5 -0.5q10 -2 26.5 -6.5t57.5 -4.5q18 0 50 -5t63 -11q-2 20 -2 35.5v25.5q0 18 3 39t6 40.5t7 34.5t6 22q2 10 0 38.5t-5 63.5t-7 69.5t-6 57.5 q0 14 1 34.5t5 45.5q-25 -10 -54.5 -29.5t-39.5 -30.5q-20 -18 -41 -32.5t-15 -16.5q8 0 18.5 -8t10.5 -16q-2 -4 -26.5 -35t-54.5 -71t-57.5 -78.5t-35.5 -55.5q-10 -16 -29.5 -37.5t-38 -40t-30 -32t-2.5 -15.5zM608 461q20 37 43 67q18 27 37 50.5t35 29.5 q-10 -14 -18 -26q-8 -10 -15.5 -22.5t-13.5 -20.5q-6 -6 -18.5 -19.5t-22.5 -25.5q-12 -16 -27 -33zM625 428h16h14.5t16.5 2q16 4 21 -9.5t1 -29.5zM979 684q2 10 6 18q8 20 8 37q-4 6 -3 25.5t1 42.5q0 25 2 57h195q-37 -4 -66 -10q-27 -4 -49 -9t-26 -9q-10 -8 -9 -41 t13 -66q6 -16 28.5 -23.5t47 -8.5t42 -1t11.5 -2q-4 -2 -36 -3t-69 -3q-43 -2 -96 -4zM993 451q6 -20 13 -43q4 -20 8 -49t6 -64q4 -16 6 -30.5t2 -18.5l-24 -2q-4 51 -7 94q-2 37 -3 69.5t-1 43.5zM1028 246l19 4q-2 -4 -7 -8q-4 -4 -7 -4t-5 8zM1040 422q3 4 11 4 q10 2 28.5 6t37 7t35.5 4t28 -5q4 0 -10.5 -2t-36 -3t-45 -3t-37.5 -4q-6 -4 -10.5 -4t-0.5 0z" />
<glyph unicode="&#xe7;" horiz-adv-x="1222" d="M244 555q0 74 14 145.5t39 139.5q27 70 71 111.5t89 63t79.5 28t43.5 6.5q16 0 46.5 6t45.5 14q14 6 15 -1t20 -13q6 -6 36.5 -34t67.5 -62.5t70.5 -70.5t46.5 -59q8 -20 7 -42.5t-5 -41t-11.5 -32t-11.5 -17.5q-4 -6 -26.5 -5t-38.5 28q-12 10 -17.5 39.5t-13.5 42.5 q-4 18 -16.5 38.5t-26.5 34.5q-6 4 -40 13.5t-75 17.5t-79.5 10.5t-53.5 -6.5q-16 -8 -51 -32.5t-68.5 -67.5t-58.5 -104.5t-23 -145.5q6 -172 95 -278q88 -109 178 -123q45 -8 86 8t71.5 40.5t51 51.5t26.5 37q2 8 6.5 32.5t10.5 51.5l11 49.5t9 24.5q4 20 23 27t37 7 q14 0 26.5 -30.5t10.5 -61.5q-4 -16 -12.5 -61t-29 -98.5t-59.5 -102.5t-104 -70q-70 -20 -127 -14q-2 -6 -4 -15t-2 -24v-67q25 -18 47 -37t45 -39q33 -37 57.5 -82t18.5 -92q-8 -49 -31 -81t-54.5 -49.5t-68.5 -23.5t-70 -6q-35 0 -66.5 20.5t-54 47t-36 53.5t-13.5 39 q0 23 -5 48.5t11 35.5q6 6 17.5 -1t21 -19.5t14.5 -27t-1 -26.5q-14 -18 -7 -28.5t25 -28.5q12 -10 28.5 -25.5t37 -29t43 -21.5t45.5 -4q39 8 55 20t29 33q6 14 4 15t-6 1q-4 -2 -1 2.5t7 8.5q8 10 15 22.5t7 28.5t-9 40.5t-22.5 49.5t-31 43t-31.5 20q-31 12 -46 16.5 t-19 22.5q-4 20 -2 30.5t2 33.5q0 8 -1.5 22.5t-3.5 24.5q-4 20 -4 29q-6 8 -6 18q-2 4 -2 12q-152 41 -244 211q-39 68 -56 139.5t-17 145.5zM387 553q-4 59 16 127q16 66 45 104.5t58 59t50.5 24.5t23.5 2q-45 -18 -84 -55q-31 -27 -53.5 -74t-26.5 -118q-4 -72 2 -127.5 t18 -89.5q14 -35 13.5 -52.5t-0.5 -13.5t-14.5 32.5t-29 75t-18.5 105.5zM475 -311q2 0 6 6q8 8 8 29q0 10 -2 18t-4 14q-2 9 -4 13q20 -10 25.5 -24.5t3.5 -27.5q-2 -14 -12 -30l49 -66q-4 0 -8 4q-4 2 -9.5 6t-11.5 9q-6 4 -13 12l-14 16q-8 8 -14 21zM633 -500q10 2 20 6 t21.5 6.5t23.5 6.5q25 4 59 24.5t68 94.5q12 27 12.5 52t-3.5 48q-7 24 -17 47q14 -8 24.5 -28.5t11.5 -49.5t-11.5 -64.5t-40.5 -72.5q-29 -39 -58.5 -53.5t-54.5 -18.5q-29 -4 -55 2zM659 1130q20 0 35 -8l66 -28q37 -18 92 -68.5t98 -124.5q18 -37 27.5 -71.5t11.5 -63.5 t-1 -50.5t-7 -31.5q-4 -16 -29 -16q-12 0 -24 4q8 0 16 8q6 2 31 33q10 18 2 69.5t-57 149.5q-27 45 -70 84t-84 63q-27 14 -53.5 27.5t-53.5 23.5zM672 -10q16 4 33.5 10t37.5 14q31 18 71 44t79 67q43 39 63.5 96.5t28.5 106.5q12 57 12 114q2 -37 0 -75q-6 -35 -14 -83 t-39 -100q-29 -59 -72 -95t-90 -56q-53 -29 -110 -43z" />
<glyph unicode="&#xe8;" horiz-adv-x="1222" d="M256 403q0 35 8 78t12 60q4 8 2 37.5t-6 62.5t-7 70t-3 59q0 20 2 62t7 85.5t13.5 76t22.5 40.5q16 12 61.5 13.5t94.5 0.5t93 -4.5t58 -3.5t41 3.5t56.5 4.5t53 5t34.5 10q16 10 45.5 16t44.5 -2q16 -6 34.5 -41t12.5 -57q-2 -18 -16.5 -43t-45.5 -25q-33 -2 -70.5 1 t-66.5 3q-16 0 -74.5 -2t-123.5 -4q-78 -6 -172 -8q-4 -6 -6.5 -51t-2.5 -94v-135q27 4 43 4h36t26 2h34.5t44 -3t45 -3h34.5q23 4 57.5 17t52.5 9q23 -8 48.5 -21.5t21.5 -47.5q0 -39 -10.5 -64t-49.5 -29q-41 -8 -51 -4t-33 8q-12 4 -41.5 7.5t-62.5 3.5t-62.5 -3 t-37.5 -8q-16 -2 -39 1.5t-37 -1.5q-8 -2 -11.5 -30.5t-7.5 -65.5t-2 -67.5t6 -36.5q6 -16 9.5 -36t3.5 -28q0 -6 -10.5 -33.5t4.5 -33.5q16 -8 49 -1t49 7q10 0 52 -3t90 -8.5t94.5 -9.5t62.5 -2q14 0 38.5 10.5t52.5 18.5t50.5 13t36.5 3q27 -12 35 -51t4 -65 q-2 -20 -36 -43t-50 -23q-8 0 -29.5 4t-49 10.5t-52.5 9.5t-37 3h-69.5t-128 2t-128 4t-71.5 2q-18 2 -34.5 29.5t-16.5 35.5q0 6 -4.5 48.5t-9.5 91.5t-8 96t-3 63zM393 682l8 23q10 20 11 36q-6 6 -3 25.5t3 42.5v57h192q-35 -2 -65 -10q-25 -8 -45.5 -11t-30.5 -5 q-10 -8 -9 -43t13 -66q6 -20 29.5 -25.5t48 -8.5t40 -2t13.5 1q-8 -2 -37 -2t-69 -6q-41 -2 -99 -6zM412 406v43q4 -18 12 -41q6 -18 9 -47t5 -66q4 -59 15 -59q2 0 10 12l-41 -4q-6 49 -8 90q-2 37 -2 72zM428 1446q18 27 46 33t50 -19q20 -27 53 -55.5t58 -42.5 q25 -12 51 -32t55 -32q27 -12 57.5 -38.5t12.5 -26.5t-19 -6t-18 -6q-8 0 -22.5 5t-32.5 9q-18 8 -39 20l-66 43q-29 16 -52 29.5t-34 22.5q-16 10 -26 16t-27 12q-20 6 -41.5 21.5t-5.5 46.5zM455 424q-2 0 14 3t42 8t50.5 9.5t36.5 -4.5q2 0 -17.5 -1t-46 -5t-50 -6 t-29.5 -4zM498 1329l86 -51q20 -14 51 -31q16 -6 33 -14l28 -16l-102 47l-43 18q-37 18 -51 18q-2 0 0 11.5t-2 17.5zM715 696l22 -10q6 -6 17.5 -14t19.5 -15z" />
</font>
</defs>
</svg>
