<?xml version="1.0" standalone="no"?>
<!DOCTYPE svg PUBLIC "-//W3C//DTD SVG 1.1//EN" "http://www.w3.org/Graphics/SVG/1.1/DTD/svg11.dtd" >
<svg xmlns="http://www.w3.org/2000/svg">
<metadata></metadata>
<defs>
<font id="impact_labelregular" horiz-adv-x="1226" >
<font-face units-per-em="2048" ascent="1536" descent="-512" />
<missing-glyph horiz-adv-x="1236" />
<glyph horiz-adv-x="2048" />
<glyph horiz-adv-x="2048" />
<glyph unicode="&#xd;" horiz-adv-x="1024" />
<glyph unicode=" " horiz-adv-x="1236" d="M-41 -664v2503h1298v-2503h-1298z" />
<glyph unicode="!" horiz-adv-x="1239" d="M-31 -664v2503h1295v-2503h-1295zM537 297q0 -16 1 -27.5t1 -19.5v-31q0 -10 4 -22q0 4 4 12q6 14 8 24q10 16 4 61.5t6 57.5q-10 -8 -14 -18q-14 -20 -14 -37zM555 814q0 -71 3 -133.5t3 -82.5q0 -25 15.5 -32t37 -6t38 12.5t16.5 19.5v75.5t2 147.5q0 94 4 209 q-6 16 -11.5 38.5t-25.5 22.5q-16 0 -44 -27.5t-38 -53.5v-63.5v-126.5zM561 184q0 -35 51 -45q25 -4 66 13.5t45 89.5q6 37 -9.5 62.5t-35 39.5t-41 22.5t-25.5 8.5q-20 0 -24 -28t-10 -56q0 -12 7 -18.5t17 -11.5t15.5 -9t5.5 -10q-14 -10 -31 -23q-31 -19 -31 -35z M645 1118q-10 -10 9.5 -4t25.5 14q4 12 -12.5 6t-22.5 -16zM709 1081q0 -4 6 -12q6 -14 6 0q0 2 -6 10q-6 0 -6 2zM717 749q2 -44 2 -90v-108h4v10q0 8 3 14.5t3 10.5v135q0 8 -3 58t-3 108q-2 66 -2 145v-94q0 -39 -1 -74t-1 -51q-4 -20 -2 -64z" />
<glyph unicode="&#x22;" horiz-adv-x="915" d="M-57 -664v2503h995v-2503h-995zM209 1124.5q0 -37.5 4 -65.5q8 -29 9 -69t1 -75q0 -16 -2 -41.5t-3 -50t-1 -44t6 -23.5q6 -6 21.5 1t32 17t29.5 22.5t16 18.5q2 16 -4.5 29.5t-0.5 36.5q4 8 8.5 14t8.5 12l8 103q0 6 5 14t11.5 18.5t12.5 18.5t6 14q0 14 -14.5 30.5 t-10.5 33.5q2 12 0 26.5t-18 26.5q-12 10 -43 4t-55 -18q-27 -16 -27 -53.5zM295 1231q-8 4 9.5 0t29.5 -4q14 0 34.5 -17.5t24.5 -21.5q0 -4 1 -18.5t2 -30t5.5 -27.5t10.5 -10q23 4 15 30.5t-24 61.5q-8 18 -25.5 25.5t-34.5 9.5t-31.5 1t-16.5 1zM381 799q6 70 12 129 q4 51 9.5 97t9.5 60q2 12 4 17.5t2 7.5l-15 8zM506 1106q2 -14 6 -26.5t8 -18.5q6 -25 -4 -51l10 -129q8 -8 9.5 -32t2.5 -48.5t10 -43t38 -14.5q27 4 38 20.5t14 36t0 40t-3 34.5q-2 29 -4 60t6 86q10 53 26.5 65.5t20.5 24.5q10 16 22.5 28.5t8.5 30.5q-10 33 -31 7 q-2 -16 4 -23q2 -4 6 -6q0 12 -2 24q-2 10 -4 22.5t-6 23.5q-4 8 -21.5 10t-37.5 2q-23 0 -52 -4q8 2 21 2q25 0 57 -8q18 -2 24.5 -13.5t7.5 -27t-3 -28.5t-6 -17q-4 -10 -11.5 1t-15.5 23q-2 16 -17.5 29.5t-37.5 17.5q-18 4 -38 -9t-36 -32q-8 -12 -10 -27.5t0 -29.5z M715 1169l8 -297q6 16 6 63.5t-4 100.5q-4 61 -10 133z" />
<glyph unicode="#" horiz-adv-x="1144" d="M-74 -664v2503h1301v-2503h-1301zM287 492q-10 -25 11 -40.5t32 -15.5q10 0 34.5 -2t24.5 -16v-135q0 -10 -12 -32t-19 -46q-4 -25 8.5 -39t30.5 -21q18 -6 27.5 1.5t17.5 21.5q4 8 5.5 22.5t0 28.5t-2.5 26.5t-1 16.5t2.5 23.5t4.5 42t5 42t3 25.5q4 10 2 23.5t6 13.5 h49q10 0 28.5 -1t35.5 -1q20 -2 38 -2q0 -18 -2 -35q-2 -14 -5 -28.5t-7 -24.5q-10 -18 -6 -48t-2 -46q-4 -16 -14.5 -32.5t-6.5 -33.5q0 -8 -2 -18t0 -17.5t12.5 -10.5t39.5 1q27 4 37 14.5t11 21.5t-3 22.5t-4 17.5q0 10 4 39t8 43q2 6 4 29.5t6 52.5q4 31 6 69q2 -2 8 -4 q4 -2 9.5 -4t11.5 -4q14 -6 36.5 -3t37.5 7q12 6 8 33t-14 37q-6 12 -20.5 12h-39.5q-12 0 -18 -2t-11 -4l-6 -6v16q4 41 11 78q4 29 7 56.5t3 35.5q0 14 4 35q2 8 6 18q20 -2 39 -6q16 -4 30.5 -6t22.5 -4q12 -2 16.5 7t0.5 24q-2 12 -9.5 26.5t-17.5 20.5q-8 4 -20.5 4 h-24.5q-14 0 -33 -2v14q0 12 4 27.5t4 32.5q0 14 5.5 46t9.5 48q2 12 3 21.5t15 29.5q6 12 7 13t-1 1t-4 2.5t-2 12.5q0 18 -4 27.5t-35 13.5q-14 4 -23.5 -4.5t-13.5 -18.5q-6 -12 -8 -26t-2 -29q-2 -12 -2 -26.5t-2 -24.5t-6 -35t-8 -49q-6 -29 -13 -64l-14 -12 q-12 2 -25 4q-10 2 -21 3t-20 1h-71q2 37 6 74q4 29 7 60.5t7 47.5q6 14 7 17.5t1 1.5t3.5 -4t11.5 6q16 16 5 32.5t-28 39.5q-16 23 -28.5 12.5t-28.5 -21.5q-10 -4 -16.5 -41.5t-10.5 -80.5q-6 -51 -8 -115q0 -8 -2 -17q-2 -6 -5 -12t-11 -8q-16 -2 -31.5 -4t-40.5 -12 q-14 -4 -17 -12.5t0 -18.5t9 -19.5t10 -15.5q8 -10 33.5 -7t44.5 -5q14 -6 14 -17q0 -6 -2 -8q0 -49 -2 -86q-2 -33 -7 -60.5t-13 -29.5q-18 -2 -35 -1t-35 5t-31.5 2t-23.5 -28zM299 668q18 -10 35 -19q14 -6 25.5 -9t15.5 1q0 4 -2 10q-4 10 -19 17q-8 2 -17 2h-18 q-10 0 -20 -2zM481 385q14 -6 29 -10q27 -10 41 -10t27 6q8 4 14 8zM489 506v16q0 8 1.5 19.5t1.5 27.5q0 14 2 38t6 48q4 27 8 60q12 6 27 14q12 4 26.5 9t30.5 3t28.5 -4t18.5 -4q8 -2 10 -4q0 -10 2 -24q2 -12 2 -31v-45q-2 -25 -7 -48.5t-9 -39.5q-6 -20 -12 -37 q-14 -4 -29 -6q-25 -6 -51 -6q-27 0 -41 6q-8 4 -15 8zM528 627l23 41l45 24l-18 6q-12 -4 -23.5 2.5t-17.5 -10.5q-4 -10 -6.5 -21.5t-2.5 -21.5q-2 -10 0 -20zM559 887q2 -12 8 -23l23 164q-6 -14 -12 -29q-4 -12 -9.5 -27.5t-9.5 -31.5q-6 -33 0 -53zM721 211 q0 -14 2 -29l4 25q2 10 4 18t2 13q0 10 6 23t6 30q0 6 1.5 15t3.5 20q2 10 4 22q-8 -18 -15 -35q-6 -14 -10 -28.5t-6 -24.5t-2 -23.5v-25.5zM791 674l16 -8q14 -6 29 -7q10 0 22 17q6 8 10 16q-2 -6 -8 -10q-12 -8 -24 -8h-45z" />
<glyph unicode="$" horiz-adv-x="1249" d="M-31 -664v2503h1301v-2503h-1301zM347 464.5q-11 -20.5 1 -52.5q20 -78 65.5 -119t61.5 -57q20 -14 45 -14.5t27 -10.5q6 -6 7 -29.5t8 -48t21.5 -44t39.5 -17.5q47 6 48 29.5t-5 45.5q-4 35 12 43q2 4 27.5 4.5t55.5 11.5t59.5 31.5t39.5 67.5q20 94 24.5 159.5 t-32.5 98.5q-33 35 -56.5 58.5t-31.5 15.5q-12 -10 -16.5 -16.5t-14.5 -2.5q-10 0 -51 14.5t-66 20.5q-10 4 -36.5 7.5t-57 13.5t-54.5 25.5t-24 43.5q0 59 28 80t48 29q10 4 34 9t51.5 5t54 -4t42.5 -10q29 -16 39.5 -31.5t16.5 -34.5q8 -16 8 -27t14 -18q10 -8 23.5 -4 t15.5 -12v-25q0 -6 -2 -12q2 8 8 21q2 14 15 24q10 8 18 9t16 8q4 6 2 24.5t-9 39t-20 43t-30 34.5q-16 12 -42.5 27.5t-52.5 27.5t-45.5 22.5t-27.5 6.5q-4 -6 -3 7t5 33.5t7.5 40t3.5 29.5q0 20 -18.5 44t-39.5 18q-23 -8 -46 -32.5t-15 -49.5q4 -27 4 -58.5t-4 -41.5 q-6 -8 -33 -19.5t-55.5 -33t-52 -51.5t-23.5 -79q4 -94 41 -150.5t133 -78.5q96 -23 142 -23t57 -6q4 -2 16 -18.5t22.5 -39t12.5 -45t-8 -44.5q-29 -43 -69 -61.5t-64 -18.5q-20 -2 -33 7t-23 9q-12 -6 -7 -11t-9 -5q-8 0 -26.5 3t-42 11t-43 23.5t-21.5 34.5 q-12 51 -6 71.5t-13 36.5q-4 8 -23.5 14.5t-38 0t-29.5 -27zM500 772q6 -6 11 -14t11 4q6 4 23 12q8 6 10 8q-10 -2 -20 0q-23 1 -13 21q8 8 -9 -7.5t-13 -23.5zM594 342l14 -12l-4 22zM684 63q-6 -12 7.5 1.5t19.5 29.5q8 16 12 32.5t20 29.5q20 10 68.5 30.5t79.5 55.5 q35 35 52 115.5t5 127.5q0 -47 -6 -86q-6 -37 -15 -73.5t-32 -65.5q-45 -49 -84 -64.5t-59 -27.5q-18 -8 -23.5 -13t-5.5 -16q-4 -10 -17.5 -37.5t-21.5 -38.5zM834 662q27 14 45 26q16 16 29 37.5t5 48.5q-2 -12 -10 -26q-8 -12 -11 -24.5t-11 -18.5q-10 -18 -29 -29 q-10 -6 -18 -14z" />
<glyph unicode="%" horiz-adv-x="1339" d="M-29 -664v2503h1383v-2503h-1383zM185.5 980q-9.5 -54 2.5 -146q10 -100 53.5 -138.5t86.5 -46.5q49 -4 96 9.5t51 21.5q4 4 4 6q6 8 40 61.5t36 112.5v6q0 70 -25.5 143.5t-44.5 98.5q-31 51 -43 56t-18 3q-6 0 -6 -12q-90 0 -117 -14l-10 -4q-14 -6 -34.5 -22.5 t-41 -48.5t-30 -86zM238 911q4 -72 27.5 -106.5t31.5 -38.5q16 -8 18 -12h-2q2 -6 25.5 -20.5t54.5 -2.5q37 12 69 47t30 121q-6 86 -38 123t-65 47q-27 6 -39 3t-18 -11l-4 -2q-92 -70 -90 -148zM274 913q6 16 11.5 32t13.5 28q25 51 47 51q6 0 6 -2t-6 -8q-8 -6 -31.5 -31 t-23.5 -84v-8q8 -63 37 -90q8 -8 13 -10.5t11 -8.5q8 -2 10 -2v-2h-2v-6q-2 0 -10 6q-10 2 -14 6t-12 11q-16 10 -27 32q-35 33 -23 86zM336 76q4 -8 21.5 10t39 47t43 60.5t39.5 58.5q12 18 49 72.5t87.5 128t108.5 153.5t107.5 150.5t85 121t41.5 58.5q50 60 50 78 q0 23 -9.5 49.5t-21.5 34.5q-8 8 -13.5 9t-17.5 -17q-10 -14 -32.5 -30t-63.5 -99q-16 -39 -68.5 -122t-104.5 -167t-101.5 -155t-59.5 -85q-12 -16 -35.5 -53t-48 -77t-47.5 -78t-33 -56q-41 -76 -16 -92zM438 1186q53 -31 92 -70q33 -35 55.5 -89t16.5 -128 q-10 -66 -17 -103.5t-13.5 -57t-11.5 -26.5t-7 -10l-6 -8q-14 -14 -53 -38.5t-39 -30.5l-11 -7h11q2 0 24.5 3.5t50.5 33.5q27 25 52.5 82.5t33.5 173.5q8 158 -59 230q-39 43 -76 48t-43 5v-8zM496 168q20 6 68 73.5t100 151.5q57 92 124 213q-92 -125 -161 -221 q-61 -84 -104 -151.5t-27 -65.5zM780 393.5q-8 -55.5 2 -145.5q12 -96 55.5 -134t84.5 -46q49 -10 97 5t50 19l6 8q4 6 38 59.5t36 116.5v9q0 63 -24.5 140t-45.5 101q-31 49 -44 52.5t-17 3.5q-4 -6 -4 -15q-45 6 -74 2t-43 -12l-12 -6q-12 -8 -35 -22.5t-42.5 -47 t-27.5 -88zM834 324q2 -72 25.5 -105t31.5 -35q16 -8 20 -18l-4 2q4 -2 27.5 -16.5t54.5 -4.5q33 12 65.5 45t28.5 125q-4 82 -35.5 120t-64.5 48q-25 8 -38 4t-21 -10l-2 -4q-94 -68 -88 -151zM868 326q12 43 25 59q14 31 26.5 43t20.5 14l6 -2v-6v-2q-2 -4 -6 -4 q-8 -8 -31.5 -32.5t-23.5 -78.5v-10q6 -61 37 -92q10 -10 24 -16q8 -6 12 -6v-3l-4 3v-7q-2 0 -10 4q-14 8 -24 19q-8 6 -15.5 13t-13.5 18q-33 37 -23 86zM1032 598q51 -31 92 -70q31 -35 54.5 -88t17.5 -123q-10 -66 -17.5 -103.5t-12.5 -57t-11 -29.5t-8 -12l-6 -2 q-6 -8 -20.5 -19.5t-33.5 -23.5q-18 -12 -38 -27l-11 -8h11q4 0 24.5 4t50.5 31q29 27 53.5 83t32.5 171q6 162 -57 229q-39 41 -77 48t-44 5v-8z" />
<glyph unicode="&#x26;" horiz-adv-x="1187" d="M-57 -664v2503h1300v-2503h-1300zM267 387q-3 -39 6.5 -79t37.5 -70q55 -59 107.5 -76t91.5 -17q29 0 63 13q59 14 89 28.5t47 36.5q18 23 43.5 41.5t29.5 18.5l9 8l8 -12q2 -4 8 -16.5t13 -26t13.5 -25.5t8.5 -16v-5q4 -14 12 -27t18 -13q6 0 9.5 2t9.5 2q66 35 35 88 q-16 31 -29.5 44t-24.5 21h-2q-10 10 -16 29.5t-6 23.5v2l2 3l12 24q4 10 10.5 20.5t10.5 18.5q6 6 16 22.5t19.5 39t15.5 47t2 45.5q-2 6 -5 10t-7 8q-10 8 -18.5 10t-18.5 2q-12 0 -25 -16q-16 -25 -18 -31t-2 -18q0 -18 -4 -29.5t-4 -13.5l-48 -72l-10 10q-2 0 -9 8.5 t-17.5 20.5t-21.5 25.5t-21 21.5q-12 10 -25.5 31.5t-25 43t-19.5 39t-8 19.5l-2 8l10 3q0 2 21.5 17t48 39.5t50 56.5t25.5 69t-5 70.5t-19.5 62.5t-27.5 48t-30 26q-12 10 -38.5 31.5t-63.5 21.5q-18 0 -36.5 -4t-37.5 -8q-61 -16 -100 -49t-47 -78q-10 -49 -1 -106.5 t25 -82.5q8 -14 17.5 -27.5t19.5 -23.5q10 -12 21 -27l4 -6l-19 -24q-12 -8 -34.5 -23.5t-46 -32t-41 -35t-21.5 -32.5q0 -6 -1 -9.5t-1 -13.5q-10 -25 -19.5 -60.5t-12.5 -74.5zM359 499.5q1 28.5 5.5 51t12.5 31.5q6 6 21.5 23.5t33 33.5t31.5 29.5t18 13.5l45 -23 q14 0 36 -25.5t41.5 -57t34.5 -59.5t17 -30q0 -4 7.5 -18t11.5 -20q18 -31 24.5 -62t1.5 -47q0 -10 -6 -23.5t-23.5 -27t-46 -25.5t-75.5 -18q-10 -4 -17.5 -4h-15.5q-43 0 -69.5 15t-44 38.5t-25.5 49.5t-12 44q-4 23 -5.5 52.5t-0.5 58zM420 102q29 -10 51 -18 q20 -6 39.5 -11t30.5 -5q10 2 32.5 10t44.5 18q27 11 58 25q-14 -4 -42 -10.5t-59.5 -11.5t-59.5 -8t-42 -1q-14 4 -24.5 5t-16.5 3q-8 2 -12 4zM428 420q0 -2 6 -10q10 -18 12.5 -16.5t2.5 24.5q0 20 2 35.5t12 25.5q6 4 15 16.5t17.5 27t14.5 25.5t6 15q-14 6 -24 10 q-23 8 -35 -10q-10 -20 -16.5 -60t-6.5 -67q0 -10 -2 -12t-3 -2t-1 -2zM434 332q6 -10 20.5 -25.5t22.5 -15.5h25l-4 8q-2 4 -11 8q-4 0 -12 4t-18 8q-11 7 -23 13zM463 891q0 20 5 41.5t11 44.5q10 20 32 31.5t40 11.5q2 0 22.5 2t45 3t48 -1t33.5 -8q14 -10 22.5 -34 t9.5 -52.5t-4 -57t-17 -49.5q-10 -18 -31 -35.5t-43 -31.5q-25 -16 -55 -31l-9 -6l-6 6l-9 8t-21.5 20.5t-25.5 27t-22 26.5q-14 29 -20 46t-6 38zM508 854q12 -39 27 -55l16 -23q-14 29 -23 53q-8 23 -10 45.5t8 34.5q18 29 34.5 44.5t10.5 27.5q-10 -4 -20 -12 q-10 -6 -20.5 -17.5t-18.5 -27.5q-16 -31 -4 -70zM686 641q4 -6 8 -14q4 -6 7.5 -12.5t7.5 -10.5t11 -17.5t17 -27.5l25 -37q-10 23 -16.5 34t-10.5 17.5t-6 10.5l-6 12q-6 12 -13.5 20.5t-11.5 14.5q-8 6 -12 10q2 2 13.5 9t25.5 16.5t27.5 17.5t19.5 14t13.5 20.5t13.5 30 t11 30t5 18.5q0 8 -4 20q-2 6 -2 12q-2 -2 -4 -10q-2 -10 -6 -35q-6 -25 -9.5 -34t-21.5 -31l-22.5 -22.5t-26.5 -24.5q-16 -14 -33 -31zM745 1098q20 -29 37 -56q14 -23 26.5 -47t14.5 -41q0 -27 8 -34q4 -4 7 -2l-7 94q-6 10 -14 18q-12 14 -26 37q-16 20 -31 27 q-9 4 -15 4z" />
<glyph unicode="'" horiz-adv-x="573" d="M-57 -664v2503h649v-2503h-649zM196 1133.5q-1 -15.5 1 -29.5t6 -26.5t8 -18.5q2 -10 1 -23.5t-7 -25.5l10 -131q10 -8 10 -32t2 -48.5t11.5 -43t35.5 -14.5q27 4 39.5 19.5t15.5 36t0 41t-5 34.5q-2 29 -2 60t8 86q2 27 9 41t14 23.5t13.5 15.5t8.5 12q8 14 20.5 26.5 t10.5 30.5q-6 18 -14.5 18.5t-16.5 -16.5q-4 -8 -2 -12l4 -8t6 -4q0 12 -2 24q-2 10 -3 22.5t-5 22.5q-4 8 -22.5 9.5t-39.5 1.5q-23 -2 -51 -4q10 2 23 2h24.5t30.5 -4q18 -4 24.5 -16.5t7.5 -27t-3.5 -27.5t-6.5 -18q-2 -10 -10 2.5t-14 24.5q-4 12 -19.5 26.5t-33.5 20.5 q-18 2 -40 -12t-38 -33q-8 -10 -9 -25.5zM406 1167l10 -301q4 16 4 65.5t-4 102.5q-4 61 -10 133z" />
<glyph unicode="(" horiz-adv-x="755" d="M-35 -664v2503h803v-2503h-803zM238 408q16 -139 56 -222.5t97.5 -126.5t119.5 -54t116 -3q10 0 18 6q14 16 14 55q-2 39 -24 48q-13 1 -17 -7q-35 -2 -62.5 7.5t-48 22.5t-34.5 26.5t-14 17.5q-4 12 -33 33q-8 2 -28.5 25.5t-43 70.5t-42 116t-21.5 163 q-6 86 22.5 158.5t69.5 123t77 81t42 38.5q18 12 45.5 26.5t79.5 0.5q8 -2 18 6q8 6 12.5 18.5t1.5 46.5q-2 27 -16 39q-8 8 -20 13q-39 -4 -86.5 -9.5t-71.5 -21.5q-23 -16 -67 -42t-87 -97.5t-68.5 -202.5t-4.5 -356zM362 608q-23 -102 3 -176t65 -125q43 -57 111 -96 q-43 23 -78 61q-31 35 -56.5 100.5t-27.5 176.5q-2 106 18.5 177t48 116t49 64.5t21.5 21.5q-4 2 -21.5 -6.5t-41 -44t-49.5 -101.5t-42 -168z" />
<glyph unicode=")" horiz-adv-x="780" d="M-45 -664v2503h856v-2503h-856zM94 1061q-4 -29 11.5 -46.5t23.5 -17.5q12 0 19.5 1t15.5 -1q53 -8 97 -49t76 -101.5t47 -136t15 -139.5q0 -74 -16 -151.5t-50 -140t-77 -103.5t-90 -41q-10 -4 -19 -14q-23 -23 -20 -68q0 -31 4 -39t10 -16q8 -6 19 -2q84 6 145.5 49 t87.5 115q27 61 50.5 137t34.5 152.5t11 149.5t-18 130q-59 231 -164 340q-49 49 -84 73.5t-16 -18.5q0 -2 -29 -1t-49 1q-16 0 -25.5 -19.5t-9.5 -43.5zM147 -88q66 20 129 51q57 29 112.5 74t90.5 117q35 68 52.5 152.5t26.5 164.5t7 143.5t-8 90.5q-2 25 -15.5 83 t-39 122.5t-61.5 123.5t-81 96q-88 66 -147 87q-31 10 -61 10q14 -8 30 -13q8 -8 23.5 -13t21.5 -7q8 0 43 -23.5t75 -57.5t81 -81t57 -94q14 -49 29.5 -111.5t24 -131t12.5 -134t-4 -121.5q-14 -102 -40 -188t-112 -182q-43 -47 -86 -77t-80 -48q-39 -20 -80 -33z" />
<glyph unicode="*" horiz-adv-x="1079" d="M-35 -664v2503h1141v-2503h-1141zM213 829q0 -14 10 -24q8 -8 17 -12q0 -6 6 -15q12 -18 22 -24q2 0 24.5 2t49.5 6t51.5 6t44.5 2q-14 -12 -41.5 -31.5t-54.5 -38t-46.5 -33t-25.5 -18.5q-10 -18 -0.5 -22t15.5 -4q0 -27 16 -45q16 -16 26.5 -10.5t18.5 20.5h33 q4 0 15.5 16.5t25.5 37t28.5 44t24.5 35.5q0 -23 -4 -50.5t-5 -57t-2 -53t-1 -30.5q2 -16 9 -12t9 10q23 -23 43 -22q18 0 21.5 11t-2.5 30q16 14 20 20v25.5t-2 44.5t-5 48.5t3 37.5l4 22q12 -25 30.5 -55.5t41 -49.5t42 -20.5t34.5 29.5q0 -14 8 -37q2 -12 10 -16 q12 25 18 47q8 16 6.5 34.5t-20.5 27.5q-4 -6 -6 -13q-8 -14 -8 -22q-2 14 -23.5 18t-40.5 21q-16 10 -30.5 20t-30.5 23h135q14 0 24.5 -8.5t34.5 -0.5q18 8 34 25.5t20 38.5q1 37 -54 55q-16 2 -48.5 -3t-64.5 -12t-59.5 -16.5t-31.5 -9.5q0 4 -4 8q-6 8 -9 9l136 75 q10 10 19 11.5t26 23.5q14 16 13 39t-13 37q-16 18 -41 32.5t-54 -5.5q-29 -12 -39 -41t-18 -37q-4 -10 -10 -21q-14 -23 -27 -37v111q0 16 5 23.5t3 31.5q-8 51 -47 60q-20 0 -43.5 -10.5t-29.5 -36.5q-8 -35 3 -64t11 -39v-100q-18 0 -23 2q-10 -8 -36.5 -12t-57.5 -5.5 t-55.5 -1.5h-32.5q-18 -10 -27.5 -8t-1.5 -4q6 -8 -2 -16t-14 -17zM309 991q16 -20 42 -29.5t36 -9.5q6 0 -1 16.5t-17 39.5q-14 18 -29 51q-47 -35 -31 -68zM367 1059l8 -12q4 -27 12 -39q15 -37 19 -17q0 20 -19 47q-10 12 -20 21zM762 893l41 -16q-14 25 -29 24 q-8 0 -12 -8z" />
<glyph unicode="+" horiz-adv-x="1243" d="M-35 -664v2505h1299v-2505h-1299zM283 467q16 -41 49 -40t39 1q8 0 57 -1t113 -1v-154q0 -10 -16.5 -30.5t-8.5 -48.5q8 -31 32.5 -54.5t63.5 -13.5q45 8 43 45t-2 47q0 4 2 64.5t7 138.5q61 -2 107 -2h54q14 0 26.5 -7.5t33.5 -7.5q16 0 40.5 14.5t32.5 47.5 q6 37 -9 68.5t-46 31.5q-25 0 -55.5 -11t-61.5 -17q-8 -4 -39.5 -17.5t-44.5 -13.5q-8 0 -20 3t-23 3q-6 14 -17 19.5t-11 21.5q0 20 18.5 62t18.5 44q0 14 7 26.5t7 33.5q0 16 -14.5 44t-53.5 34q-33 8 -64.5 -10.5t-35.5 -45.5q0 -31 6 -46t10 -31.5t9.5 -35t3.5 -44.5 v-62q-45 6 -76 10.5t-33 4.5q-10 0 -35.5 6t-52.5 -2q-31 -8 -50.5 -31t-10.5 -43zM418 379q-2 0 6 -4t20.5 -6t27.5 0t20 10h-52h-22zM707 356q6 -6 26.5 -6t44 2t42 3t16.5 1q-10 0 -23.5 1t-44.5 1q-14 0 -23.5 -1t-17.5 -1h-20zM985 440q0 16 2 31q0 16 3 28.5t-5 18.5 v-78z" />
<glyph unicode="," horiz-adv-x="1236" d="M-35 -664v2503h1295v-2503h-1295zM535.5 94.5q-3.5 -16.5 3.5 -22.5q8 -8 16 -19.5t27 -5.5q16 2 44.5 25.5t49.5 44.5q4 10 11 32.5t15 47.5l15 59q0 27 -19.5 64.5t-50.5 37.5h-41t-18 -16q-6 -20 -3 -40.5t1 -35.5q-4 -16 -16.5 -23t-12.5 -24q0 -18 6 -28.5t6 -26.5 q0 -10 -10 -20.5t-12 -20.5q-8 -12 -11.5 -28.5zM547 283q0 -10 2 -13q2 16 12 33q8 14 9 26.5t3 22.5q-4 0 -12 -8q-14 -14 -14 -27v-34zM688 72q31 29 51 67q16 33 25.5 72t-2.5 84q0 -33 -6 -62q-2 -25 -8.5 -54t-16.5 -46q-16 -37 -31 -49z" />
<glyph unicode="-" horiz-adv-x="1249" d="M-31 -664v2503h1301v-2503h-1301zM342 620.5q2 -8.5 8 -16.5q8 -6 26.5 -19.5t12.5 -23.5q0 -12 -14 -20l-13 -6q0 -10 9 -19q2 -14 18 -20q12 -8 48 -6t61 2h270q14 0 23.5 -7.5t33.5 0.5q27 2 39.5 21.5t14.5 42.5q6 23 -5.5 57.5t-42.5 44.5q-29 10 -57.5 -3 t-36.5 -13h-98q-41 0 -76 -3t-45 3q-27 6 -85 6t-75 -6q-18 -6 -16 -14.5z" />
<glyph unicode="." horiz-adv-x="1239" d="M-31 -664v2503h1299v-2503h-1299zM516 324q0 -18 4 -28.5t4 -19.5v-53q0 4 2 8q8 16 11 29q10 16 4 59.5t6 57.5q-10 -6 -15 -17q-16 -23 -16 -36zM543 213q0 -37 53 -47q29 -4 69 11.5t48 90.5q2 37 -14.5 62.5t-36 40t-42 21.5t-26.5 7q-20 0 -25.5 -26.5t-9.5 -57.5 q0 -14 7 -19t17.5 -8t18.5 -7.5t8 -12.5l-37 -20q-30 -19 -30 -35z" />
<glyph unicode="/" horiz-adv-x="1251" d="M-29 -664v2503h1297v-2503h-1297zM341.5 107.5q-9.5 -21.5 8.5 -31.5q8 -8 25.5 10t37 47t41 60.5t40.5 58.5q12 18 49 72.5t87 128t108.5 152.5t106.5 149.5t85 121t41 60.5q57 62 57 78q0 23 -13.5 47t-21.5 37q-4 8 -10 9t-16 -15q-12 -18 -37 -33t-64 -98 q-20 -39 -69 -122t-103.5 -167t-103.5 -155t-60 -85q-12 -16 -35.5 -53t-48 -77t-47 -78t-30.5 -56q-18 -39 -27.5 -60.5zM515 178.5q-7 -16.5 1 -10.5q14 10 61.5 79.5t96.5 149.5q61 96 133 209q-94 -131 -164 -227q-27 -45 -53.5 -84t-47 -69.5t-27.5 -47z" />
<glyph unicode="0" horiz-adv-x="1245" d="M-29 -664v2503h1297v-2503h-1297zM248 459q12 -127 58 -201t105.5 -108.5t126 -41t125 4t94.5 24t40 17.5l4 18q43 51 73 109q31 51 54.5 112.5t25.5 124.5q2 66 -13 139.5t-36.5 144t-47.5 124t-40 80.5q-29 51 -59.5 82.5t-42.5 23.5q-10 -2 -6 -13.5t-9 -11.5h-33.5 t-67.5 -2t-74 -7t-58 -17q-23 -10 -66 -32.5t-85 -86t-66.5 -178.5t-1.5 -305zM291 608q-2 78 26.5 142.5t67.5 107.5t75 67.5t46 32.5q20 14 51 26.5t84 -5.5q33 -8 72 -30.5t74.5 -67.5t61 -116t25.5 -177q4 -98 -17 -166t-55 -113t-74 -65.5t-77 -34.5t-71.5 -10t-59 18 t-40 27.5t-15.5 17.5q-6 14 -37 25q-8 6 -26.5 26.5t-42 60.5t-43 99t-25.5 135zM375 641q-16 -90 6 -156.5t61 -111.5q41 -49 103 -86q-41 14 -74 55q-29 31 -52.5 91.5t-25.5 154.5q-4 96 15.5 159.5t45 101.5t46 56.5t20.5 20.5q-2 2 -19.5 -6.5t-38 -39t-45 -90 t-42.5 -149.5zM653 1169q121 -57 207 -137q72 -74 126 -182.5t32 -251.5q-23 -141 -39 -219t-29.5 -113t-27 -46t-25.5 -25q-18 -18 -51 -40t-70 -44q-39 -25 -88 -56q88 8 160 70q61 51 118.5 166t71.5 327q10 213 -49 327t-131 165q-90 57 -205 59z" />
<glyph unicode="1" horiz-adv-x="1208" d="M-45 -664v2503h1294v-2503h-1294zM414 815q10 -4 24 -4q23 -8 39 0q14 6 32.5 38t27.5 44q23 31 53 22q4 0 8 -45t10 -105t10.5 -120.5t4.5 -97.5q0 -35 -4.5 -91.5t-10.5 -111.5t-8 -100t-2 -58q2 -25 11 -53.5t61 -26.5q25 0 32 24t2.5 54.5t-11.5 60t-7 40.5v79.5 v144.5t2 143.5t2 78.5q0 10 2 52t4 91.5t3 92.5t1 57t-3 30.5t-7 24.5q-6 16 -10 25q4 6 10 10q8 2 12.5 6t8.5 4q10 2 27.5 -13t6.5 11q-12 18 -38 41q-16 12 -31 21l24 -19v-12q0 -12 -6 -27q-10 -12 -20 -14t-27 -2q-10 0 -33.5 -23.5t-46 -55.5t-45 -61.5t-24.5 -39.5 q-10 -12 -22.5 -31.5t-26.5 -36.5q-12 -23 -35 -47zM760 1087l8 -894v65q0 66 1 160t1 201.5v206t-1 163t-1 66.5q-6 10 -6 24q0 6 -2 8z" />
<glyph unicode="2" horiz-adv-x="1232" d="M-47 -664v2503h1300v-2503h-1300zM285 827.5q0 -32.5 7 -52t15 -23.5q25 -6 64 10q18 10 24 30.5t13 41.5q0 18 -19 12q-6 -2 -14 -12q0 4 2 12q0 2 8 24q6 14 59.5 57.5t149.5 47.5q92 4 134 -39t71 -115q16 -37 -13.5 -73.5t-76.5 -68.5t-97.5 -56.5t-74.5 -38.5 q-53 -31 -99.5 -74t-89.5 -104q-20 -29 -29.5 -76t-9.5 -89t3 -76t12 -34q23 -10 75 -18q14 0 77 -5.5t135.5 -9.5t134 -6t71.5 -2q18 0 37.5 -10t38.5 -10q16 0 51 23.5t47 43.5q6 18 -9 55t-50 52q-33 12 -74 -9.5t-59 -31.5q-12 -2 -45 -2t-75 3t-79 6t-45 3q-25 0 -41 5 t-37 -1q-14 -2 -33.5 -8t-35.5 -2q-18 6 -17.5 18.5t8.5 42.5q2 14 24.5 47t53.5 71t58.5 69.5t48.5 46.5q14 14 56 39.5t88 53.5t86 52.5t52 42.5q8 16 16.5 51t9.5 75t-3 78t-10 54q-8 20 -39 45t-62 51q-41 27 -86 58l8 -33q-31 6 -57 14q-27 8 -50.5 11.5t-31.5 3.5 q-10 0 -35.5 -3t-59.5 -14.5t-70 -35t-64 -62.5q-31 -45 -39 -84t-8 -71.5zM338 690q23 8 37 19q14 6 26.5 15t20.5 24q16 23 19 60.5t34 74.5q31 27 49 35q13 4 21 4q-23 0 -39 -4q-43 -8 -53 -33q-8 -29 -17 -62q-4 -14 -4 -30l4 2l-4 -2q0 -6 -2 -6.5t-2 -2.5 q-6 -14 -16.5 -30.5t-14.5 -20.5q-8 0 -17 -1t-18 -9q-10 -8 -16 -16zM459 291q2 0 4 2q8 6 20 8q23 8 41 8q8 -4 22.5 -4h26.5h27l-100 21q8 12 22 26q16 16 47 39q12 8 47 31.5t77 50.5t79 50.5t51 29.5q31 18 56.5 45t38.5 49q10 12 12 37t10 49q6 29 12 62 q-8 -49 -22 -88q-12 -37 -24.5 -71t-31.5 -42q-16 -10 -45.5 -28.5t-60.5 -35t-57.5 -30t-36.5 -21.5q-12 -4 -43 -23.5t-66 -45t-64.5 -50t-37.5 -43.5q-12 -27 -4 -26zM907 51q25 0 45 2q39 6 41 29q-8 0 -14 -4l-27 -15q-23 -12 -30 -12q-6 -6 -15 0z" />
<glyph unicode="3" horiz-adv-x="1232" d="M-49 -664v2503h1298v-2503h-1298zM267 363.5q1 -29.5 6.5 -58.5t17.5 -49q6 -20 33.5 -51t70.5 -59.5t98.5 -46t122.5 -17.5q63 0 121 20.5t101 56.5t70.5 85t27.5 110q0 55 -19.5 101.5t-42 74t-42 43t-19.5 17.5q0 8 21.5 38.5t39.5 55.5q16 25 26.5 81t6.5 77 q0 12 -17.5 54t-52 85t-89 79t-130.5 36q-72 0 -130 -24.5t-97 -61.5t-62.5 -77t-31.5 -65q-14 -53 1 -69.5t32 -14.5q27 6 38 34t17 46t37 47t92 60q29 14 81 8t103.5 -25.5t86 -54.5t34.5 -74q0 -82 -53 -124t-88 -42q-20 -4 -33.5 5.5t-28.5 17.5q-16 10 -30 23 q-6 0 -13 -7q-2 0 -16 -24q-4 -6 -4 -22.5t2 -35t8 -31t8 -16.5q10 -6 54.5 -16t83.5 -14q41 -8 68.5 -33t41.5 -49q6 -10 18.5 -52.5t2 -86.5t-54.5 -80.5t-150 -36.5q-102 0 -156.5 17.5t-77 36.5t-22.5 40.5v34.5q0 18 -1 25t-22 28q-16 16 -28.5 32.5t-40.5 16.5 q-16 0 -18.5 -19.5t-1.5 -49zM338 731q-6 -8 33 4.5t63 55.5q12 23 20.5 42t20.5 34.5t31.5 25.5t56.5 16q-20 0 -41 -6q-49 -4 -67 -35q-20 -29 -24.5 -53t-29.5 -45q-25 -16 -44 -21.5t-19 -17.5zM352 465q4 -10 17 -23q8 -8 15 -16t15 -16q6 -16 18.5 -46t31.5 -42 q16 -14 26 -24.5t10 1.5l-12 23l-8 12q-4 14 -15.5 13t-19.5 13q-6 12 -15 43t-24 43q-12 8 -26 15q-8 4 -13 4zM758 66q25 0 59 10q25 6 57.5 23.5t61.5 60.5q29 35 40 67.5t13 55.5q6 24 -2 47q-12 -53 -26 -92q-12 -37 -35 -69t-54 -52q-37 -16 -57 -25.5t-35 -15.5 q-14 -8 -22 -10zM907 625q6 18 19 30q8 14 16 26.5t16 27.5q6 12 8.5 25.5t6.5 29.5q2 14 4 31q-25 -39 -39 -74q-12 -29 -23.5 -57.5t-7.5 -38.5z" />
<glyph unicode="4" horiz-adv-x="1239" d="M-31 -664v2503h1299v-2503h-1299zM240 299h182h133t70 2q16 6 38.5 25.5t32.5 11.5q27 -16 27 -37q0 -2 -4 -33.5t-4 -69.5t4 -71t16 -37q31 -10 38 -10t24 14q20 18 28.5 29.5t1.5 42.5q-8 35 -20 88t2 59q14 4 42 -8t44 -20q39 -10 72 14q39 25 39 72q0 29 -32 64.5 t-46 33.5q-18 -8 -24.5 -12t-31.5 -23q-25 -12 -40 -30.5t-21 -4.5q-2 8 -2 40v72v78t-4 60q-4 23 -4 70v98t2 95t8 55q8 10 8 25.5t4 29.5q0 14 4 37q-10 25 -25.5 33t-21.5 20q-8 2 -8 18v9q-2 -6 -2 -15q-4 -4 -4 -10t-4 -8q-6 -8 -36 -25.5t-38 -33.5q-2 -10 -10 -30 t-22.5 -46.5t-23.5 -47t-16 -32.5q-2 -10 -47 -64.5t-97 -118t-99 -121t-54 -71.5q-14 -33 -23 -57.5t-17 -40.5q-6 -18 -13.5 -59.5t-15.5 -49.5zM369 416q-8 10 21.5 55t53.5 72q10 14 36 40.5t49.5 57.5t46 60.5t26.5 39.5q8 8 23.5 31t33 45.5t30.5 35.5t22 11 q12 -12 16 -83.5t4 -155.5t-3 -157t-3 -83q-2 -16 -16.5 -15t-32.5 9q-18 6 -32.5 13t-37.5 7q-20 6 -71.5 6.5t-106.5 -10.5q-31 -2 -42 -2t-14 3t-1 8.5t-2 11.5zM459 471q-4 -10 30.5 1t53.5 11h35q12 0 20 4q-35 -4 -59 -4q-23 0 -36.5 2t-8.5 11q10 8 22 25.5t27 33.5 q12 19 35 33q-33 -25 -58 -49q-20 -23 -40.5 -41.5t-20.5 -26.5z" />
<glyph unicode="5" horiz-adv-x="1239" d="M-33 -664v2503h1299v-2503h-1299zM238 355.5q4 -19.5 12 -42.5q8 -12 26.5 -43.5t53.5 -69.5t88 -67t133 -29t144.5 36t111.5 89.5t71.5 111.5t24.5 112q0 90 -50 177t-124 126q-78 39 -123 44t-84 -5q-18 -8 -36.5 -20.5t-31 -23t-23.5 -14.5t-17 6q-8 12 -9.5 41 t-1.5 63t1.5 64.5t1.5 44.5q0 29 -5.5 29t5.5 6q4 6 39.5 7t77.5 1t82 -1t57 -1q31 0 86 -8t73 0q10 2 25 39l8 35q0 31 -22.5 64.5t-49.5 33.5q-29 0 -41 -11t-43 -17q-14 -2 -44.5 -5.5t-66.5 -4.5t-67 -2t-45 -1q-25 0 -59.5 1t-50.5 1t-17.5 -7t-1.5 -42q0 -20 1 -75.5 t1 -117t3 -111.5t3 -60q0 -20 -7 -36t-1 -28q8 -18 64.5 -8t95.5 16q20 4 68.5 4t101.5 -19.5t90 -63.5t37 -130q0 -88 -40 -136t-88 -71.5t-93 -27.5t-60 -4q-10 0 -37.5 9t-54.5 20.5t-49.5 21.5t-24.5 18q-8 18 -18 41t-29 45q-14 18 -32.5 25.5t-30.5 -2.5 q-12 -8 -8 -27.5zM342 434q4 -2 17.5 -20.5t36 -39t51 -32.5t59.5 -6q8 2 2 2t-19.5 3t-30 8t-26.5 13q-23 29 -60.5 55.5t-29.5 16.5zM432 569q4 0 23.5 5.5t41 9.5t34 10t10.5 8q-4 0 -21.5 -5t-40 -11t-38 -11.5t-9.5 -5.5zM471 863.5q0 -15.5 4 -15.5q4 -4 27.5 2 t55.5 7t72 1t70 -14q33 -14 71 -40t73 -59.5t59.5 -69.5t36.5 -67l23 -90q-4 68 -31 127q-20 49 -63.5 104.5t-123.5 94.5q-78 39 -129 49t-80.5 11t-42 4t-14.5 30q-4 -25 -4 -43q-4 -16 -4 -31.5zM676 88q72 14 139 55q49 41 98.5 118t53.5 216q6 -47 -4 -86 q-8 -37 -26.5 -77t-47.5 -74q-27 -35 -66 -61.5t-69 -49.5q-41 -25 -78 -41z" />
<glyph unicode="6" horiz-adv-x="1218" d="M-66 -664v2503h1299v-2503h-1299zM243 659.5q-5 -96.5 11 -200t62 -191.5t130 -131q82 -43 158 -43t135.5 24.5t101.5 66.5t54 85q14 43 22.5 95.5t0 105.5t-32 98t-68.5 78q-94 61 -131 68.5t-57 1.5q-14 -8 -55.5 -10t-69.5 -2q-31 4 -40 8t-18 -4q-4 -4 -19 -20.5 t-32.5 -35t-36 -31t-26.5 -12.5q-23 4 -35 37t-2 53q14 23 20.5 5.5t10.5 -11.5q6 0 10 28t18.5 63.5t31.5 70.5t48 55q61 33 125 63t125 7q55 -16 85 -64.5t60 -64.5q46 -31 89 -8q27 12 27.5 55t-11.5 57q-4 8 -29.5 34t-66.5 55.5t-95.5 53t-119.5 23.5 q-127 0 -224.5 -92t-134.5 -213q-16 -61 -21 -157.5zM352 430q4 10 17 25q4 10 14.5 28t26.5 41q55 84 227 72q90 -8 144.5 -54t62.5 -126q2 -45 -20.5 -82t-54.5 -66.5t-71 -46t-75 -10.5q-72 4 -107 29.5t-84 58.5q-51 31 -63.5 65.5t-16.5 65.5zM387 733q6 0 15.5 11.5 t27.5 21.5l35 29l-6 -15q45 10 84 17q37 8 80 7t82 -18q41 -16 72.5 -30.5t53.5 -32.5q25 -18 48 -37q-35 37 -78 64q-31 29 -68 48t-67 21q-29 2 -69 1t-74 -4t-57.5 -3t-23.5 6q4 2 10.5 15.5t13.5 26.5t10 20.5t-7 7.5q-12 0 -25.5 -16.5t-24.5 -36t-18.5 -38 t-13.5 -28.5q-10 -37 0 -37zM399 406q-4 -10 19.5 -23.5t52.5 -34.5q33 -16 72 -39q-23 23 -39 37q-18 14 -32.5 26.5t-16.5 20.5q-12 6 -16.5 10.5t-0.5 22.5q0 8 16.5 26.5t36 39t35 34t9.5 13.5q-16 -6 -31 -7t-62 -38q-25 -16 -32 -26.5t-7 -14.5q0 -8 7 -13 q0 -6 -2 -10q-8 -14 -9 -24zM557 926h55q-23 12 -37 10q-10 -6 -18 -10zM688 57q51 10 109 37q47 20 92 62t82 114q33 68 33 129.5t-17 104.5q-18 51 -53 92q10 -16 18 -31q12 -35 27 -63q16 -33 12 -86.5t-37 -153.5q-20 -49 -63 -85t-90 -64q-51 -33 -113 -56zM715 1171 q6 0 16 -2q6 -2 18.5 -8t32.5 -14q16 -8 44 -27.5t48.5 -39t36 -32t11.5 -6.5q-37 51 -73 74t-65 39q-34 14 -69 16z" />
<glyph unicode="7" horiz-adv-x="1251" d="M-31 -664v2503h1299v-2503h-1299zM301 1038q0 -4 54.5 -4t121 2t127 6.5t72.5 4.5q31 2 42 11t32 13q25 0 52 -12t25 -51q0 -20 -23.5 -49t-57 -66t-69.5 -81t-56 -97q-25 -55 -42.5 -111.5t-29.5 -109t-20.5 -89t-8.5 -47.5q-2 -16 -8 -23t6 -7q18 0 19 -23 q-6 -8 -25.5 -44t-5.5 -64q20 -31 28.5 -34t34.5 3q29 12 37 21.5t6 33.5q0 12 -4 55t-1 97.5t8.5 110t21.5 91.5q14 33 44 83.5t61.5 102.5t70.5 96t70 69q70 51 78 60t8 26v29.5t-1 46t-4 47t-12 32.5q-20 16 -29.5 27.5t-25.5 7.5q-8 -8 -30.5 -18t-37.5 -17 q-8 -2 -47 -2h-86t-91 1t-62 1h-53t-72 4q-43 1 -92 3l-19.5 -19.5t-5.5 -19.5t4 -22.5t4 -27.5q0 -14 -7 -26t-1 -21zM688 459q0 4 16.5 53t51.5 121t93 155.5t144 159.5q20 16 25.5 34.5t7.5 37.5q4 19 0 39l-4 -35q-6 -14 -7 -29.5t-5 -21.5q-4 -8 -33 -36t-64.5 -68 t-71.5 -85t-59 -79q-23 -43 -41 -86.5t-28.5 -81t-17.5 -61t-7 -17.5z" />
<glyph unicode="8" horiz-adv-x="1216" d="M-66 -664v2503h1299v-2503h-1299zM295 377q2 -92 41 -145.5t97.5 -82t124 -38t118.5 -9.5q49 0 102 19.5t94 55.5t67 87t26 113q0 63 -19.5 105t-42 73t-42 48.5t-19.5 31.5t14 31.5t30.5 46t30 71.5t13.5 103q0 63 -37 106t-91 73t-111.5 42t-92.5 12q-43 0 -88 -12 t-90 -44t-75 -83t-34 -127q-2 -74 13.5 -110.5t36 -54t39 -28t18.5 -26.5t-21.5 -24.5t-43 -30t-40 -68.5t-18.5 -135zM375 426q-2 47 10 75.5t31.5 45t36 21.5t26.5 5q12 4 38 4.5t48 -4.5q25 -2 64 -2t59 7q23 8 34 10t26 -2q8 -4 27.5 -20.5t40 -44t38.5 -58.5t18 -62 v-14q0 -20 -10 -50t-33.5 -56.5t-64.5 -47t-102 -20.5q-123 -6 -201 56.5t-86 156.5zM395 852q0 35 31 60.5t70 42t83 23.5t62 7q27 0 61.5 -10t64.5 -29.5t53.5 -48.5t23.5 -68t-10.5 -63.5t-24.5 -42.5q-14 -13 -37 -25q-41 -16 -107.5 -13t-109.5 13q-16 6 -45 15.5 t-54.5 28t-43 46t-17.5 64.5zM432 448.5q-2 -30.5 12 -55.5q15 -26 48 -57q-2 8 -11 16q-14 14 -16 35q-6 14 -3 35.5t5 42.5q2 27 2 51q-35 -37 -37 -67.5zM442 840q0 -23 25 -40.5t56.5 -28.5t60 -14t22.5 3q-6 8 -25.5 15t-43 18.5t-44 24t-24.5 26.5q-2 12 14.5 30.5 t36.5 34.5q25 14 58 31q-39 -14 -70 -27q-25 -14 -45.5 -32.5t-20.5 -40.5zM506 315q10 -16 24 -24q31 -23 37 -19q0 2 -2 11q-4 8 -14 16q-8 8 -15.5 8t-15.5 4q-12 0 -14 4zM688 55q35 6 68 11q29 8 57.5 14t56.5 20q55 25 95.5 84.5t58.5 184.5q6 61 -3 113.5t-30 90.5 q-23 45 -53 84q6 14 18 27q20 31 33 51q4 10 3 29.5t-1 42.5q-2 23 -2 49q0 -25 -4 -41q-4 -18 -6 -36.5t-4 -33.5q-10 -31 -37 -63q-12 -14 -25 -33q43 -25 68 -74t30 -108t-3 -122t-33 -120q-31 -61 -77 -93t-93 -52q-55 -16 -117 -25z" />
<glyph unicode="9" horiz-adv-x="1218" d="M-59 -664v2503h1296v-2503h-1296zM282 767q1 -44 19 -71q14 -25 40 -60.5t64.5 -65t95 -53t132.5 -21.5q74 6 103.5 8t34.5 11t-4 15.5t-9 12.5q0 18 -7.5 14t-5.5 16q10 14 26.5 29.5t23.5 22.5q8 8 -15.5 -10.5t-46.5 -18.5q-12 0 -48 5t-76 10t-74.5 9.5t-42.5 12.5 q-16 16 -18.5 22.5t-10.5 14.5t-8 5t-17 17q-12 4 -28.5 22.5t-28.5 42t-13 53.5t15 56q18 25 60 48.5t88.5 41t91.5 19.5t67 -6q51 -18 101.5 -57.5t68.5 -133.5q8 -47 12.5 -104.5t4.5 -109.5t-5.5 -95t-19.5 -66q-10 -23 -33.5 -57.5t-57.5 -66t-77 -55t-96 -21.5 q-53 6 -82 25.5t-45 35.5q-21 22 -23 53q-8 20 3.5 25.5t-17.5 26.5q-31 16 -36 13t-5 7q0 8 -3 29.5t-11 13.5q-6 -6 -7 -14v-10q-23 -12 -34 -27q-14 -10 -25.5 -28.5t-11.5 -41.5q0 -18 23.5 -58t62.5 -77t92 -60.5t104 -15.5q55 6 107.5 15.5t97.5 39t83 84t63 146.5 q27 94 30.5 190.5t-9.5 182.5t-42 152.5t-67 101.5q-84 63 -126 86.5t-51 21.5l-12 -8q-4 -4 0 -4q-51 4 -100 -6q-45 -8 -91 -25.5t-81 -46.5q-35 -33 -56.5 -78t-29.5 -93t-7 -92zM344 467q18 -10 33 -21q14 -6 26.5 -17t20.5 -21q12 -23 32.5 -66t43.5 -55 q10 -6 18 -10.5t17 -6.5q6 -6 12 -6q-25 20 -45 37q-16 18 -28.5 36.5t-10.5 35.5q2 20 9 25t15 12q12 6 21 8q-12 0 -23 2q-8 6 -20 7t-25 7q-10 6 -25.5 11.5t-35.5 11.5q-17 8 -35 10zM406 817q-4 -39 27.5 -66.5t74.5 -45.5q41 -20 100 -35q-39 14 -73 35 q-27 18 -49.5 43.5t-30.5 56.5q-6 35 12 55.5t43 36.5q29 14 63 21q-41 0 -81 -15q-31 -12 -58.5 -31.5t-27.5 -54.5zM641 43q27 -6 75 10.5t92 46t82 62.5t48 53q12 23 36.5 88.5t44 155.5t22.5 191.5t-31 201.5q-35 106 -85.5 163.5t-97.5 90.5q-59 35 -116 49 q31 -18 55 -33q23 -14 47.5 -27.5t48.5 -33.5q23 -16 36 -27.5t23.5 -31t25 -54.5t42.5 -98q25 -68 33 -143.5t0 -151.5t-29.5 -153.5t-46.5 -141.5q-31 -66 -81 -106.5t-99 -67.5q-61 -29 -125 -43z" />
<glyph unicode=":" horiz-adv-x="1251" d="M-23 -664v2503h1299v-2503h-1299zM545 1118q0 -16 4 -27.5t4 -19.5v-53q0 4 2 12q6 14 12 25q4 16 -1 59.5t5 59.5q-4 -8 -12 -19q-14 -23 -14 -37zM559 154q-4 -8 14.5 -13.5t42 -8.5t49 0t35.5 20q8 6 14.5 23.5t10.5 37.5l8 41q0 31 -19.5 68.5t-51.5 37.5h-40.5 t-17.5 -20q-6 -16 -4 -38.5t-2 -37.5q-4 -12 -16.5 -19t-12.5 -28q0 -16 12.5 -13t12.5 -5q0 -12 -13.5 -22.5t-21.5 -22.5zM561 268q6 18 10 33q8 14 10.5 26.5t6.5 24.5q-8 0 -17 -6q-10 -12 -10 -31v-47zM569 1008q0 -39 54 -45q29 -4 68.5 13t45.5 91q2 35 -13 60.5 t-35.5 39t-42 20.5t-30.5 7q-14 0 -19 -26.5t-9 -57.5q0 -14 7 -19.5t14 -8.5t17.5 -7t10.5 -8l-35 -23q-33 -20 -33 -36zM678 104q23 4 37 23q33 27 57 63q23 35 8 74q-8 20 -18 37q18 -49 6 -86t-31 -61q-22 -27 -59 -50z" />
<glyph unicode=";" horiz-adv-x="1259" d="M-20 -664v2503h1300v-2503h-1300zM547 1120q0 -18 4 -28.5t4 -18.5v-29q0 -14 2 -24q0 2 2 10q4 6 4 11.5t8 13.5q2 18 -3 61.5t5 59.5q-6 -8 -14 -21q-12 -23 -12 -35zM553 93.5q-4 -15.5 4 -23.5q6 -8 15.5 -17.5t25.5 -7.5q20 2 48 25.5t42 46.5q8 12 16.5 32.5 t16.5 49.5l14 55q0 31 -19.5 67.5t-49.5 36.5h-39.5t-20.5 -18q-8 -16 -5 -38.5t-3 -37.5q0 -14 -13.5 -20t-13.5 -27q0 -16 6.5 -27.5t6.5 -25.5q0 -10 -8.5 -21.5t-16.5 -21.5q-2 -12 -6 -27.5zM563 285q0 -12 4 -19q6 20 13 35q4 35 10 49q-8 0 -17 -6q-10 -10 -10 -31 v-28zM573 1008q0 -39 54 -43q25 -6 65.5 12t44.5 90q4 35 -10 60.5t-35.5 39t-41 20.5t-29.5 7q-16 0 -21.5 -26.5t-9.5 -55.5q0 -29 25.5 -30t23.5 -15q-18 -12 -33 -23q-33 -20 -33 -36zM705 70q33 29 53 69q16 31 23 71t-7 85q2 -33 0 -64q-2 -25 -8 -52t-16 -48 q-14 -23 -19.5 -32t-13.5 -17z" />
<glyph unicode="&#x3c;" d="M-45 -664v2503h1296v-2503h-1296zM360 655q-2 -10 5.5 -32.5t16.5 -43t19.5 -41t14.5 -26.5q4 -18 16 -21.5t96 -19.5q47 -8 93 -31l6 -8q37 -14 81 -40.5t82.5 -57.5t69.5 -55.5t39 -32.5q16 -16 31.5 -15.5t38.5 17.5q20 20 25 30.5t-9 38.5q-10 23 -40 30t-46 9 q-8 8 -13 14.5t-12 10.5q0 4 3 8q8 6 -1.5 6t-25.5 11l-14 10q-45 29 -92.5 51t-87.5 38.5t-71.5 30t-39.5 29.5q-16 33 1 56.5t38 27.5q25 8 38 7t42 10q14 4 69 27.5t116.5 50t110 48t48.5 27.5q0 8 -11.5 16.5t-19.5 22.5q-4 16 -4 26.5t-10 20.5q-4 14 -12.5 17.5 t-26.5 7.5q-39 -25 -78 -41q-33 -18 -64.5 -33.5t-48.5 -24.5q-16 -6 -57 -27.5t-85 -42t-77 -38.5t-41 -18h-78q-14 0 -20 -12.5t-15 -37.5zM395 457q-4 6 27 -7.5t75 -37t102 -54t110 -63.5q90 -57 144 -107.5t54 -54.5q4 -2 -13 16.5t-43 46t-62.5 60.5t-71.5 59 q-37 25 -89.5 47.5t-103.5 43t-89 35t-40 16.5zM758 647q47 18 88 33q31 14 63.5 28.5t42.5 30.5l-37 -22q-12 -8 -26.5 -15.5t-22.5 -7.5q-10 -2 -39 -10q-14 -4 -24 -6z" />
<glyph unicode="=" horiz-adv-x="1212" d="M-61 -664v2503h1298v-2503h-1298zM256 322q10 -43 47 -41t47 2q2 0 70.5 -2t148.5 -4.5t148.5 -4.5t77.5 -2q14 0 26.5 -7t28.5 -7q20 0 46 14.5t36 46.5q4 37 -13.5 69t-46.5 32q-10 0 -34.5 -5t-49 -11.5t-44 -8.5t-29.5 -2h-305q-12 0 -35 16.5t-49 8.5 q-31 -8 -54.5 -33.5t-15.5 -60.5zM256 618q10 -45 47 -42.5t47 2.5q2 0 70.5 -2.5t148.5 -3.5t148.5 -4t77.5 -3q14 0 26.5 -7t28.5 -7q20 0 46 15.5t36 45.5q4 37 -13.5 71t-46.5 34q-10 0 -34.5 -6t-49 -11.5t-44 -9.5t-29.5 -4h-305q-12 0 -35 16.5t-49 8.5 q-31 -6 -54.5 -33t-15.5 -60zM514 213q16 -6 63.5 -9t96.5 3q61 0 135 6h-295zM944 547q12 16 23 39q6 16 9 38.5t-9 45.5v-35v-29.5t-6 -23.5q-12 -31 -13 -31z" />
<glyph unicode="&#x3e;" horiz-adv-x="1232" d="M-41 -664v2503h1296v-2503h-1296zM344 819q0 -4 48 -26.5t109.5 -49t117 -50t67.5 -25.5q31 -12 44 -11.5t36 -7.5q23 -4 40 -27.5t-1 -56.5q-10 -16 -40 -29.5t-70 -30t-87 -39t-90 -52.5l-16 -8q-16 -10 -26.5 -10.5t-0.5 -6.5l2 -8q-14 -10 -24 -25q-16 -2 -47 -9 t-39 -30q-14 -29 -10.5 -40t28.5 -29q39 -29 64 -2q8 8 38.5 32.5t69.5 55.5t84 57.5t86 40.5l4 8q47 23 92 31q82 16 93.5 19.5t19.5 21.5q6 16 30.5 67t20.5 76q-8 25 -11 38.5t-24 13.5h-73q-8 0 -45 17t-80 38.5t-82 42t-54 26.5l-116 58q-39 16 -78 43q-18 -6 -25.5 -9 t-13.5 -18q-8 -10 -7 -19t-3 -28q-8 -12 -19.5 -21.5t-11.5 -17.5zM440 133q6 2 40 40t98.5 87t152.5 100.5t201 81.5q20 8 37.5 22.5t21.5 29.5q13 11 21 34q-10 -16 -23 -30q-8 -16 -16 -24.5t-17 -16.5q-6 -4 -44 -17.5t-86 -35t-101 -43t-90 -46.5q-35 -27 -72 -59.5 t-62.5 -61t-43 -46t-17.5 -15.5z" />
<glyph unicode="?" horiz-adv-x="1212" d="M-61 -664v2503h1294v-2503h-1294zM224 944q-7 -41 18 -59q10 -8 29.5 3t37 30.5t23.5 43t-4 44.5q-25 31 -12.5 47t42.5 49q16 14 44 40.5t62 49t70.5 35t73.5 4.5q72 -16 93.5 -31.5t46.5 -54.5q10 -23 8 -26t-11 -1q-12 4 -28 15q20 -14 37 -31q12 -18 25.5 -38 t13.5 -48q0 -31 -15.5 -70t-38 -78t-50 -69.5t-52.5 -34.5q-51 -20 -75.5 -27.5t-33.5 -38.5q-6 -33 -3 -50t3 -52q0 -14 -2 -37.5t-4 -40.5q-6 -25 -6 -47q-8 -14 -12 -31q-4 -14 0 -26.5t24 -18.5q18 -8 29.5 -7t17.5 11q9 5 9 17q25 0 31 2t2.5 9t-9.5 25.5t-6 49.5v110 q84 61 152 125q53 59 94 133t31 154q-12 82 -49 133t-90.5 79t-112 39t-115.5 11q-59 0 -109.5 -33.5t-87 -76.5t-60.5 -86t-24 -66q0 -39 -7 -80zM389 1094q16 4 31 12q16 4 30.5 10t24.5 14t37 16.5t56.5 15.5t53 7t25.5 -6q-10 6 -24 8q-29 8 -64 9h-12 q-39 -8 -67.5 -20.5t-41.5 -18.5q-10 -8 -32 -31zM473 139q0 -25 6 -48t35 -46q29 -16 70 -24.5t61 22.5q16 27 39 68t2 65q-37 53 -86 53q-16 0 -44 7.5t-42 -7.5q-10 -12 -5 -10t13 -26q0 -33 -24 -41q-17 -9 -25 -13zM664 563q0 -8 8 -45t8 -55v-43q0 29 4 53 q2 23 2 42.5v33.5q-2 10 21.5 34.5t51 52.5t55.5 50.5t32 30.5q2 2 13 20.5t22.5 39t17.5 37t2 24.5q-6 -16 -16 -33q-6 -14 -17.5 -29.5t-25.5 -25.5q-10 -8 -21.5 -16.5t-23.5 -20.5q-10 -10 -25.5 -28.5t-32 -36t-31 -32t-16.5 -20.5q-29 -12 -28 -33z" />
<glyph unicode="@" horiz-adv-x="1148" d="M-76 -664v2503h1301v-2503h-1301zM154 645q10 -66 23 -140.5t46 -144.5q70 -170 230 -210q80 -23 147 -23q82 0 131 23.5t74 39.5q8 12 16 13q8 6 15.5 8t13.5 4q10 6 17 10t12 13q6 10 13 27.5t1 27.5q0 4 -4 6q8 6 20 6t28.5 1t23.5 1q8 -14 8 -28q0 -39 -19.5 -57.5 t-27.5 -22.5l-45 -41q0 -4 -37 -29t-101 -41q-66 -16 -102.5 -19t-79.5 -3h-20q10 -2 21 -4.5t20 -2.5q25 0 70.5 6.5t98 19.5t103.5 36.5t86 58.5q31 33 44 56.5t13 40t-8 28.5t-18 25l-6 2q-16 29 -50 28h-2q-8 2 -17 6.5t-16.5 6.5t-10.5 -1t1 -12q16 -27 21.5 -36 t-8.5 -17q-16 2 -25.5 5t-19.5 3q-23 0 -29 -22q-8 -31 -35 -43t-63 -23q-10 -4 -52.5 -13t-95.5 -9q-121 0 -172 57q-31 31 -62.5 79t-56 104.5t-37 116t-4.5 110.5q6 41 25.5 104.5t61.5 121.5t112 100t178 42h19q180 -10 262 -157q31 -63 36 -120.5t5 -66.5 q0 -18 -5.5 -58t-19.5 -79q-10 -29 -28.5 -65.5t-55.5 -40.5h-6l-82 4v10q0 2 2 16.5t6 35t8.5 44t10.5 41.5q6 16 11 42t9 50q4 27 8 58v6h2q8 20 11 41q2 16 -1 33.5t-20 27.5l-12 6q-4 -6 -8 -6q-2 -4 -4 -6t-2 -4q-14 -16 -19.5 -42t-9.5 -40l-4 -29l-15 25 q-6 10 -17 26.5t-25.5 32t-29 27.5t-26.5 12h-10q-18 0 -43 -6t-47.5 -15t-41 -20.5t-26.5 -23.5q-6 -14 -19.5 -43t-25.5 -65t-18 -74.5t0 -71.5q10 -76 41.5 -128t66.5 -57q8 -6 23 -6q66 0 102 47q10 10 16.5 19.5t10.5 15.5q6 8 8 13l21 -7v-35.5t10 -37.5q4 -6 12 -7h8 q35 0 86 13.5t84 48.5q18 18 40 54t39 80t27.5 93t8.5 94q-4 43 -21.5 102.5t-50.5 114t-80 96.5t-108 52q-31 6 -59.5 7t-53.5 1q-141 0 -225 -69q-29 -23 -70 -67t-80 -97q-29 -47 -55.5 -109.5t-19.5 -130.5zM307 799q16 31 45 55q10 8 19.5 17.5l17.5 17.5 q23 18 43.5 35.5t52.5 27.5q14 2 37 7.5t47.5 9.5t48 7t41.5 5q-16 8 -53 8q-39 0 -67 -10q-72 -18 -114 -39.5t-52 -40.5q-12 -20 -31.5 -45t-28.5 -33q0 -4 -1 -10t-5 -12zM446.5 594q2.5 31 8.5 58.5t12 45.5q8 20 24.5 32.5t35 19t35 8.5t28.5 2q18 0 33.5 -3t25.5 -5 v-2h4q6 -2 15 -11q4 -6 9 -15.5t7 -21.5q2 -10 3 -35.5t-2 -56t-8 -59.5t-13 -45q-16 -29 -40 -45.5t-71 -16.5h-14.5t-16.5 5q-41 0 -55 32q-14 20 -18.5 51t-2 62zM487.5 578.5q-4.5 -9.5 4.5 -27.5q8 -16 16 -29q4 -6 8 -10q0 4 2 10q4 13 4 29q0 8 -5 23.5t-10 32 t-9 31.5t-2 21q6 10 1 -10t-5 -43q0 -18 -4.5 -27.5zM784 522q4 10 13 21q4 8 10 17l10 15q2 6 8 29t12.5 50.5t10.5 52t2 34.5q-4 10 -7 16.5t-7 12.5t-7 12v-22q0 -10 -2 -22.5t-4 -24.5q-2 -23 -7 -36t-5 -26v-35l-14 -34z" />
<glyph unicode="A" horiz-adv-x="1181" d="M-74 -664v2503h1293v-2503h-1293zM226 90q-1 -5 -1 -9q0 -22 15 -26q12 -4 27.5 -14t31.5 18q16 25 27.5 63t13.5 54q6 20 1 35.5t11 19.5q18 4 27.5 -14t34.5 -18q23 0 51.5 11t93.5 11q68 0 97.5 -6t54.5 8q25 12 48 28.5t34 8.5q2 -2 13 -19.5t20.5 -35t18.5 -38 t9 -30.5q6 -20 18.5 -53t51.5 -37q41 -8 54 4t17 45q10 27 -16.5 50.5t-36.5 50.5q-6 12 -25.5 61t-44 107.5t-46 117t-33.5 88.5q-10 35 -32 87.5t-43.5 102.5t-38.5 92t-22 54q-6 10 -8 35t-8 51.5t-13 51t-20 36.5q-6 5 -12 5t-14 -5q-14 -10 -26.5 -25.5t-22 -32.5 t-13.5 -30q-2 -25 6.5 -43t8.5 -32q0 -12 -12.5 -30t-20.5 -40q-8 -18 -11.5 -35.5t-3.5 -32.5q0 -16 -36.5 -87.5t-63.5 -149.5q-25 -72 -27 -98.5t-8 -47.5q-2 -16 -13 -51t-30 -63q-8 -20 -27.5 -53t-35.5 -71t-20 -69zM332 25q27 23 39 38q26 38 26 71v9q-8 -20 -12 -34 q-14 -35 -25 -48q-8 -6 -14 -11t-8 -13q-6 -6 -6 -12zM381 354q6 16 18.5 34t24.5 39.5t16 39.5t19.5 60t33 86t30 78t12.5 36q0 8 -11.5 15.5t-21.5 13.5q-6 2 8 16t27 31q14 20 18 32.5t23 6.5q8 -4 32.5 -53.5t54 -113t54.5 -122t31 -72.5q18 -35 23 -71q2 -14 2 -26 q0 -20 -5 -38q-2 -12 -16.5 -14t-36 2t-45 10t-37.5 6q-61 0 -84 10q-8 8 -26.5 -1t-57.5 -21q-41 -14 -55.5 -11t-28.5 9q-5 1 -5 7q0 4 3 11zM412 160l284 10q-21 5 -57 5h-13q-44 -1 -94 -5q-59 -2 -120 -10zM498 455l14 32q8 16 14 30.5t9 23.5q12 16 14 41q2 16 8 36 q-10 -8 -21.5 -35.5t-17.5 -58.5q-12 -36 -20 -69zM526 420l76 -39q-4 14 -12 30.5t-23 12.5q-10 -4 -24 -4h-17zM705 1016q80 -209 143 -373q31 -74 57.5 -141.5t47 -119.5t33 -87t20.5 -37q1 -2 2 -2q2 0 -6 22q-10 28 -30 78t-47.5 120.5t-56.5 144.5q-70 174 -163 395z " />
<glyph unicode="B" horiz-adv-x="1202" d="M-59 -664v2503h1298v-2503h-1298zM221 935q4 -7 8 -20q4 -10 4 -53v-71q0 -14 -2 -93.5t-2 -175.5t2 -178t11 -98q14 -37 16 -50.5t2 -31.5q0 -12 10.5 -51t63.5 -52q55 -10 134 -14q26 -1 49 -1q46 0 77 5q53 8 92 8t57 2q23 6 30 3t13 4q2 6 20.5 25.5t38 45t37 59 t17.5 64.5q0 63 -8 104.5t-25 73.5q-16 29 -23 58.5t-18 40.5q-12 8 -20 0l-6 -11q-8 12 -11 23q-12 21 -8 31q25 31 33 51q4 4 6 29.5t8 33.5q9 8 21 54q10 40 10 73v11q-8 41 -24.5 74.5t-22.5 45.5q-8 18 -19.5 46t-15.5 14q-2 -14 5 -26.5t-15 -10.5q-16 4 -42 13 t-46 22q-12 2 -47 3t-68 7q-41 2 -90 2q-35 0 -59 -2q-55 -8 -84 -18q-27 -14 -64 -27.5t-45 -24.5q-2 -5 -2 -9t2 -8zM283 279l8 190h4q2 0 10 10q8 8 29 37l22 31q8 -6 19 -8q6 -4 15 -8.5t22 -6.5q33 0 69 2q31 2 62 5.5t51 3.5q45 0 107.5 -46.5t101.5 -95.5 q18 -25 14 -59.5t-20.5 -68.5t-39 -63.5t-50.5 -41.5q-25 -14 -69 -18q-36 -4 -71 -4h-16q-43 1 -78 7.5t-37 10.5q-8 4 -45 -11q-16 -8 -36.5 -3t-39.5 18q-10 4 -14 25.5t-4 45.5v62q-2 -12 0 -25q0 -23 16 -45q8 -16 16.5 -16h16.5q12 2 9 37t-11 51q-6 20 -8 56t-2 52 q0 12 8 39l4 23l-12 -8q-18 -8 -19 -17q-2 -8 -6 -33.5t-12 -52.5q-6 -37 -14 -75zM291 633v55v93t2 89t4 43q8 6 43 11.5t43 3.5q12 -4 20.5 -20.5t12.5 -2.5l18 4q19 4 44.5 7.5t50 5.5t38.5 2q10 1 21 1q20 -1 43 -5q35 -8 82 -37t47 -77t-8 -101q-8 -31 -17.5 -50.5 t-17.5 -33.5q-14 -12 -23 -25l49 22q-8 -23 -16 -36q-8 -16 -14 -25.5t-11 -9.5q-12 0 -21 19.5t-15 23.5q-10 8 -33 19.5t-49 11.5h-48h-76t-72 -1.5t-42 -1.5q-16 -8 -12 -30.5t10 -40.5q8 -23 -22 -31q-14 -6 -27 -6v49q0 23 -2 42.5t-2 31.5zM291 760q0 -14 11 -34.5 t17 -29.5q8 -8 13.5 -22.5t13.5 -5.5q18 6 14 22.5t-14 42.5q-2 23 -14.5 55.5t-3.5 40.5q2 4 4 9.5t6 13.5q4 6 4 14q0 10 -11.5 16.5t-15.5 -5.5q-8 -10 -9 -24.5t-3 -31.5q-12 -27 -12 -61zM375 816.5q0 -21.5 1 -44t3 -35t2 -2.5q0 23 5 71t13 48q4 0 21.5 2t44.5 8 q25 2 59 4q-20 3 -37.5 3t-33.5 -3q-27 -2 -51.5 -8t-26.5 -18v-25.5zM389 254l100 -25l-86 25v25q0 12 1.5 21t1.5 17t-1.5 28t-1.5 42v53q-8 -2 -8 -31.5t-4 -66.5q-2 -39 -2 -88zM436 721l168 -10q-10 8 -37.5 9t-54.5 1h-76zM682 1112q61 -37 109 -76q43 -37 74.5 -80 t33.5 -88q0 -88 -8 -169t-19 -97q-31 -20 -26 -29q0 -2 18.5 -24.5t38 -54t33.5 -69.5q11 -30 11 -59q0 -8 -1 -16q-8 -72 -27.5 -138.5t-58.5 -121.5q-39 -51 -74 -78q-20 -14 -34 -26q51 29 90 73q35 39 69.5 98.5t46.5 141.5q4 33 4 61q0 42 -9 73q-15 52 -34.5 79 t-37 40t-15.5 30q6 14 17.5 44.5t20.5 72.5q10 42 16 86q2 15 2 29q0 30 -9 60q-10 39 -40.5 82t-64.5 78t-68.5 56.5t-57.5 21.5z" />
<glyph unicode="C" horiz-adv-x="1210" d="M-57 -664v2503h1298v-2503h-1298zM242 558v-15q0 -141 73 -271q75 -137 189 -191q66 -31 140 -31q53 0 110 16q63 23 103 69.5t61.5 101t27.5 99.5t12 61q2 31 -10 61.5t-26 30.5q-18 0 -37 -7t-23 -27q-6 -4 -9 -26.5t-8 -48.5t-11.5 -49.5t-8.5 -33.5q-8 -12 -27.5 -38 t-50 -49.5t-72.5 -40.5q-29 -12 -58 -12q-14 0 -27 3q-90 14 -178 122.5t-95 278.5v12q0 75 23 133q25 62 58.5 105t68.5 67.5t51 32.5q16 6 53 5t79 -8t75 -18t41 -13q14 -14 26.5 -35t16.5 -39q8 -12 13.5 -42t17.5 -40q16 -27 38.5 -28t26.5 5q9 8 23 50q7 20 6 40 q0 22 -8 43q-12 23 -44 59t-71 71.5t-69.5 62.5t-36.5 33q-18 6 -19.5 13t-15.5 1q-14 -8 -45 -14t-47 -6q-12 0 -45 -6.5t-76 -28t-89 -63.5t-73 -111q-49 -134 -53 -284zM384 555q6 -61 20 -105t28 -75t14 -33v-1q-2 1 -26 65q-19 54 -19 150q0 30 2 65q4 72 32 121t59 75 q41 37 84 55q-4 4 -23.5 0t-48.5 -25.5t-59 -61.5t-46 -103q-18 -51 -18 -100q0 -14 1 -27zM657 1133q53 -23 107 -52q41 -25 84 -63.5t70 -83.5q49 -96 57 -148q4 -23 3 -40q0 -21 -5 -31q-23 -29 -31 -33q-8 -8 -16 -8q10 -4 24 -4q25 0 29 16q8 20 8 82.5t-39 134.5 q-43 74 -98 124t-92 69q-16 8 -34.5 15t-31.5 13q-16 8 -35 9zM670 -8q57 16 110 43q47 20 90 56t72 95q31 51 39 99.5t14 83.5q1 19 1 38t-1 37q0 -55 -12 -114q-8 -49 -28.5 -106.5t-63.5 -96.5q-39 -41 -79 -66.5t-71 -44.5q-39 -16 -71 -24z" />
<glyph unicode="D" d="M-49 -664v2503h1298v-2503h-1298zM253 684q1 -74 7 -151.5t11 -139t5 -71.5q0 -18 3.5 -69.5t3.5 -76.5q0 -14 5 -31.5t28.5 -33t73.5 -29.5t142 -14q172 0 255 89t135 222q22 55 22 133v22q-4 92 -24.5 181.5t-48 162t-56.5 103.5q-29 33 -67.5 52.5t-79.5 29.5t-73 11 h-19q-17 0 -27 -1q-19 -8 -59 -8q-12 0 -25 1q-59 3 -88 3t-56.5 -13.5t-33.5 -41.5q-4 -14 -4 -29q-4 -10 -4 -25.5v-23.5q0 -31 -1.5 -54.5t-21.5 -90.5q-3 -26 -3 -79v-28zM352 930v37q33 -14 62 -23q35 -10 60 -10q15 0 26 4q10 4 41.5 10t68.5 6t72 -12t63 -39 q20 -29 50 -91q31 -62 49 -137q16 -65 15 -138v-24q-3 -87 -44 -167q-41 -78 -82 -114.5t-73.5 -47t-58.5 -5.5t-38 7q-14 0 -33.5 3.5t-37.5 3.5q-20 0 -46 2q0 -8 -8 -13q-14 -16 -28 -6q-18 10 -26.5 17.5t1.5 27.5q6 16 10 19.5t-2 27.5q-2 23 -13 66t-11 67q0 10 -2 79 t-6.5 150t-5.5 148.5t-1 87.5q0 16 -1 31.5t-1 32.5zM416 883q0 -164 6 -295q2 -111 3 -203t5 -92q4 -2 7 60.5t6 143.5t4.5 154.5t1.5 91.5v40t4 46q0 27 2 52l94 10q-35 4 -64 4q-25 0 -44 -2t-25 -10zM524 23q28 -5 59 -5t64 5q53 6 114.5 34.5t115.5 94.5 q105 132 125 284q8 61 8 121q0 89 -17 176q8 -83 8 -163v-31q-6 -84 -23 -170t-65 -146q-92 -115 -164.5 -149.5t-105.5 -38.5q-31 -12 -72 -12h-47z" />
<glyph unicode="E" horiz-adv-x="1232" d="M-47 -664v2502h1298v-2502h-1298zM256 403q0 -16 3 -63t8 -97t9.5 -92t4.5 -45q0 -10 14 -36.5t37 -32.5q10 0 68.5 -1t129 -1h131h68.5q10 0 36 -6t53.5 -11.5t48 -8.5t32.5 -3q18 0 50 21.5t36 46.5q0 25 -7 64.5t-36 45.5q-7 2 -15 2q-25 0 -69 -16q-59 -22 -94 -27 q-16 -6 -60.5 -2t-93.5 10.5t-90 10.5t-53 4q-16 0 -50 -9.5t-46 1.5q-14 8 -6 33.5t8 33.5q0 6 -1 25.5t-10 40.5q-4 3 -5 37v17q0 25 2 51q3 34 7.5 62.5t12.5 30.5q10 10 32.5 4t39.5 3q6 0 36.5 2t65.5 2h64.5t41.5 -4q16 -8 28.5 -13.5t51.5 2.5q43 4 51.5 29t10.5 64 q6 41 -20.5 50t-45.5 19q-23 4 -57.5 -9t-54.5 -17h-34t-47.5 3t-45 6t-31.5 3q-12 -6 -29.5 -6t-38.5 -2q-16 -4 -39 -4v133v95t4 56q94 2 175 8q68 2 127 4.5t73 2.5q25 0 65 -6q21 -3 39 -4q17 0 31 3q35 2 48.5 23.5t17.5 42.5q4 23 -13.5 57.5t-37.5 42.5q-9 5 -23 5 q-9 0 -20 -2q-29 -5 -45 -15q-12 -6 -37 -10t-51.5 -8.5t-54 -6.5t-42.5 -2q-14 0 -58 2t-95 4q-26 1 -49.5 1.5t-44.5 -1.5q-43 -2 -58 -8q-14 -10 -23.5 -45t-14.5 -79t-7 -83.5t-2 -62.5t4 -58.5t7 -68.5t5.5 -61.5t-2.5 -38.5q-4 -16 -12 -58.5t-8 -79.5zM395 686 q55 0 97 2q39 6 68.5 6t37.5 2q2 0 -15.5 0t-41 4.5t-47 8.5t-27.5 24q-10 33 -12 64.5t10 38.5q6 6 27.5 8t46.5 10q28 6 65 12h-194q-4 -31 -4 -55v-70q0 -29 -3 -36q-6 -10 -8 -19zM406 451q0 -10 2 -42t6 -71q4 -45 6 -94l45 8q-8 -12 -12 -12q-8 0 -9.5 10t-3.5 45 q-6 37 -9 64.5t-11 50.5q-6 21 -14 41zM457 426q2 0 25.5 2t51 6t47 5t17.5 1q-10 8 -35.5 5t-52.5 -7t-42 -9q-11 -4 -12 -4zM713 698l57 -39q-16 20 -33 29q-14 8 -24 10z" />
<glyph unicode="F" horiz-adv-x="1218" d="M-43 -664v2503h1298v-2503h-1298zM307 1024q-3 -3 -3 -9q0 -9 8 -25q12 -26 12 -36q0 -4 -6.5 -46t-6.5 -79v-55t1 -78t1 -72.5v-37.5v-70.5t-1 -126t-1 -128v-75.5q0 -55 27 -63q12 -2 48 -5t46 3q12 6 25.5 18.5t-11.5 30.5q-25 16 -37 26.5t-16 26.5q-2 8 -2 22.5 v24.5q0 14 -6 25q6 -4 8 -4q4 0 6 35q0 18 4.5 42.5t12.5 47.5q6 25 12 47q-12 -8 -20 -14q-16 -18 -17 -37q0 -10 -3 -17.5t-3 -15.5v-10l-23 186q18 0 31 -4q12 -2 24.5 -3t22.5 -7q6 0 36 -3t64.5 -3h63.5t39 6q20 8 53 3t49 -3q20 8 34 26.5t18 34.5q4 18 -20.5 32.5 t-53.5 8.5q-27 -8 -69 -16.5t-56 -8.5q-12 0 -30.5 1.5t-42 1.5h-44t-26.5 -3q-18 -8 -33.5 -13t-24.5 -15q-4 -2 -10 5t-12 15t-10.5 16.5t-4.5 12.5q0 8 1 28.5t8 30.5v38v70v72.5v47.5q12 39 51 39h34.5t54.5 -2t53.5 -2h35.5q8 0 46 2t81 2h80t39 -4q8 -7 42 -13 q8 -1 15 -2q26 0 49 15q12 12 19.5 29.5t7.5 39t-5 41t-11 27.5q-17 13 -31 13h-5q-16 -3 -59 -21q-45 -16 -98 -34t-96 -18q-23 0 -81.5 -1t-120.5 -2t-110.5 -4t-52.5 -7zM388 794q3 -44 10.5 -82t13.5 -40q4 -2 6 11t2 31.5t-2 36t-6 27.5q0 4 8 22.5t12 38t6 36t-8 20.5 q-6 2 -11 2q-21 -1 -27 -27q-5 -23 -5 -51q0 -12 1 -25zM446 115h9q6 0 14 6q2 2 6 28.5t6 62.5t2 77v67q0 31 -6 52.5t-10 33.5q-12 14 -21 27q8 -14 13 -43q2 -49 10 -164q0 -61 -1 -89t-9 -42q-6 -16 -13 -16zM461 745.5q0 -26.5 6 -26.5q2 -2 7 18.5t12.5 48t17.5 50 t20 22.5q6 0 53.5 3t96.5 3h139q-47 -3 -89 -3t-79 3q-59 0 -112.5 2.5t-61.5 10.5q0 1 -1 1q-2 0 -2 -23q-1 -26 -4 -54.5t-3 -55zM528 440q25 -8 47 -8q11 -2 21 -2q22 0 31 10h-99z" />
<glyph unicode="G" horiz-adv-x="1228" d="M-45 -664v2503h1298v-2503h-1298zM213 502q0 -147 45 -244.5t105.5 -153t128 -79t110.5 -23.5t91 21.5t91 52t73 57.5t38 37q6 12 8 43t2 62.5t-2 62.5t-2 45q0 31 5 51.5t7 44.5q6 23 -12 42.5t-31 35.5q-8 6 -10 11t-6 14q-4 6 -4 8q-14 -25 -27 -39 q-14 -12 -36.5 -23.5t-51.5 -11.5q-59 0 -93 2h-3q-32 0 -45 -39q-5 -14 -5 -27q0 -23 17 -42q25 -31 43 -35q18 -10 38 -3t36 15q16 6 17 14.5t16 -8.5q16 -14 36 -41q11 -15 11 -42q0 -19 -6 -44q-18 -68 -61 -106q-37 -32 -104 -32q-15 0 -30 1q-43 2 -89 31.5t-87 72.5 t-66.5 96.5t-29.5 112.5q-2 30 -2 60t2 62q4 63 16 120t32.5 101t55.5 67q68 45 124 47h16q46 0 81 -10q45 -16 73 -57t46 -60q18 -23 11 -54q-1 -5 -1 -10q0 -25 33 -44q18 -12 33 -5l14 9q18 6 40 36q19 26 19 57q0 5 -1 11q0 18 -13.5 45t-34 55.5t-43 54t-38.5 42.5 q-37 37 -99 59q-42 14 -93 14q-26 0 -54 -4q-39 -8 -95.5 -35.5t-109.5 -92t-91 -163t-38 -245.5zM383 496q2 -94 27.5 -151.5t54.5 -93.5t52.5 -48.5t29.5 -12.5q8 0 33 25q12 14 26 29q-14 2 -28 8q-14 2 -31 8t-31 19q-33 23 -63.5 68.5t-36.5 176.5q-1 17 -1 33 q0 45 8 85q11 54 23 93q14 45 37 84q-31 -29 -53 -74q-18 -39 -36 -98q-13 -41 -13 -98q0 -25 2 -53zM606 1100q0 -8 52.5 -15.5t91.5 -31.5q43 -25 88 -63t67 -68q20 -29 27.5 -61t15.5 -42q0 -8 1 -11t1 -5v-8q-6 47 -18 88q-18 39 -46 81t-77 74q-53 33 -91 46.5 t-63 15.5q-13 1 -25 1t-24 -1zM711 610h123q-25 0 -50 2q-23 0 -45 3q-6 1 -11 1q-13 0 -17 -6zM809 27q35 25 65 55q31 25 56.5 56.5t36.5 70.5q8 37 8 88t-2 97t-9.5 81t-13.5 41q-2 8 -13 24.5t-23.5 32t-23.5 25.5q-6 5 -9 5q-5 0 -7 -7l31 -35q8 -14 19.5 -31.5 t19.5 -27.5q6 -10 9 -41t3 -68t-3 -69.5t-3 -55.5q0 -39 -3 -69.5t-13 -44.5q-8 -8 -27.5 -28t-42.5 -42z" />
<glyph unicode="H" horiz-adv-x="1239" d="M-39 -664v2503h1296v-2503h-1296zM246 830.5q0 -68.5 1 -142.5t11 -136.5t10 -74.5v-73.5t-5 -128t-5 -128v-61.5t5 -18.5t11 -26.5q7 -11 15 -23q7 -10 21 -10h5q29 6 58.5 27.5t29.5 40.5q0 8 -6 20.5t-14 22.5q-8 14 -14 26l6 129q4 47 6 89.5t2 50.5q0 12 -19.5 34.5 t1.5 38.5q18 10 36.5 6t26.5 -4q6 0 37 -1t66.5 -5t78.5 -5t70 -1q53 0 65.5 1t22.5 9q10 2 18 17q10 6 13 10l22 -10q6 -6 16.5 -12.5t12.5 -12.5q2 -8 3 -47t9 -89t9 -95t1 -64q0 -8 -1 -36.5t-8 -56.5t0 -51.5t11 -25.5q16 -6 46 8.5t51 30.5q2 12 1 30.5t-11.5 44.5 t-13.5 47.5t-3 37.5q0 14 1 59t2 106.5t1 134.5v134.5v103.5v56q0 27 12.5 65.5t12.5 53.5q0 20 -23 37l-8 12q2 4 6 10q4 4 13.5 6t13.5 2q12 0 24 13.5t-2 31.5q-35 -20 -69 -34q-27 -12 -50.5 -26.5t-27.5 -25.5q-6 -6 -9 -34.5t0 -58.5t5 -58.5t2 -40.5v-51t-2 -62 t-6 -57.5t-9 -30.5q-6 -20 -14 -27.5t-22 3.5q-16 4 -30.5 20t-29.5 31q-6 4 -21 4q-18 0 -50 -6q-58 -12 -103 -13q-55 0 -78.5 7.5t-31.5 35.5q-8 14 -10.5 25.5t-6.5 24.5q-2 12 -2 20l-6 -31q-2 -10 -8 -21t-15 -16q-29 -10 -33.5 29t-4.5 72q0 31 -1.5 58.5t5.5 53.5 q14 49 14 72q0 12 -8 43q-4 6 -6 10q6 0 16 2q25 8 27 9q2 0 7.5 -38t6.5 -77q2 -59 2 -119l4 225v19q0 18 -8 18h-29.5t-47.5 -4t-51.5 -19.5t-37.5 -43.5q-12 -27 -12 -95.5zM426 41q2 31 8 68q8 27 12.5 64.5t4.5 78.5q0 70 -0.5 102.5t-16.5 40.5q-6 2 -6 -20.5v-59 t3 -69.5t3 -41q4 -25 4 -65t-6 -62q-4 -10 -5 -15.5t-1 -11.5v-10zM469 702q10 -16 43 -17h23q24 0 51 1l100 12zM1008 404.5q0 -25.5 2 -52t4 -33.5q2 -16 2 -44.5v-69.5v-88q2 16 2 35q0 29 2 34v109q0 33 -2 88q0 14 2 31q0 12 4 27.5t4 25.5q0 12 -4 75.5t-6 141.5 q-2 88 -2 197q-2 -39 -2 -78q0 -31 -1 -56.5t-1 -33.5q0 -4 -2 -42t-2 -75v-73v-38v-31.5v-49z" />
<glyph unicode="I" horiz-adv-x="1243" d="M-41 -664v2503h1296v-2503h-1296zM367 967q-2 -7 -2 -13q0 -17 13 -24q17 -10 42.5 -11t48.5 -1t31 -7q35 -45 35 -153q0 -27 2 -111t5 -180t3 -176v-90q-6 -25 -13.5 -46.5t-29.5 -29.5q-18 -6 -31.5 1t-32.5 5q-8 0 -20 -15.5t-22.5 -30.5t-18.5 -31.5t0 -20.5 q7 -7 34 -7q13 0 33 2q58 5 95 5q33 0 71.5 -3t69.5 -7q27 -8 60 -8q2 1 4 1q36 0 53 29q16 25 23 55.5t-7 44.5q-20 20 -55 13q-10 -2 -28.5 12t-29.5 14q-14 0 -35.5 -18.5t-31.5 -15.5q-8 0 -9 22.5t-3.5 48t-2.5 51v37.5v525v45t13 22q27 10 53 0q10 -6 44 -13t52 13 q16 14 33.5 33.5t9.5 40.5q-10 41 -45 53q-16 6 -25.5 13.5t1.5 13.5q4 8 42 9t46 -30q2 -18 2 -32.5v-26.5v-25q6 29 6 51q0 16 -4 35t-12 27q-6 8 -18.5 8t-22.5 2q-15 0 -27 2l6 -4q6 -6 21 0q16 4 16 11.5t-21 13.5q-18 6 -31.5 -7.5t-25.5 -17.5q-12 -8 -24.5 -25.5 t-67.5 -27.5q-40 -4 -67 -4h-17q-31 2 -59 4q-12 0 -35 3t-41.5 0t-34.5 -15.5t-18 -38.5zM492 1104l296 -8q-72 6 -133 8q-51 6 -99 7h-10q-40 0 -54 -7zM692 801l8 -570l17 5q-6 6 -6 10q0 2 -1 6t-1 10q-4 10 -6.5 96t-6.5 185zM723 219q0 -8 10 -11t27.5 -3t31 -2 t17.5 -2q8 -6 24.5 -24.5t16.5 -31.5t3 -31q1 -8 1 -10v-2q-1 0 -2 4q-1 2 -1 49q0 41 -34 56q-35 19 -61 27q-6 2 -10 2q-17 0 -23 -21z" />
<glyph unicode="J" horiz-adv-x="1232" d="M-41 -664v2503h1296v-2503h-1296zM358 320q-1 -6 -1 -12q0 -32 18 -77q31 -113 104.5 -160.5t143.5 -47.5t140.5 58t88.5 155q6 49 9 165.5t5 239.5q4 143 4 313q-4 12 -8 37t-18 25q-12 0 -31.5 -31t-30.5 -53v-55.5t3 -120t3 -149.5t-3 -152.5t-4 -129t-9 -71.5 q-16 -59 -17 -83t-50 -38q-20 -8 -39 -9t-33 -5t-25 -4l25 20q-18 4 -33 10q-29 4 -53 17q-20 10 -53 29.5t-48 74.5q-9 48 -9 81v7q1 35 9 49q2 8 19 15q10 2 20 2l-14 33l-22 -13q-8 -8 -16.5 -14t-10.5 -12q-6 -8 -20.5 -14.5t-27 -26t-16.5 -53.5zM502 334q0 8 3 -28 t13 -52q8 -20 26.5 -34.5t30.5 -14.5q8 0 21 6q8 6 12 12q-8 0 -20 4q-18 6 -27 19q-14 12 -36.5 35.5t-22.5 52.5zM874 1049q-2 -3 -2 -5q0 -5 14 0q19 7 25 15q1 8 -5 8q-4 0 -9 -2q-16 -6 -23 -16zM901 193q4 16 12 30q14 33 19 74q3 15 3 63q0 24 -1 56q-2 96 -2 194 q-4 124 -4 271q-2 -162 -2 -287v-299q0 -10 -4 -36t-11 -36q-10 -18 -10 -22v-8zM920 1012q0 -8 6 -15q0 -9 1 -9t1 5q0 8 -1 9.5t-1 7.5z" />
<glyph unicode="K" horiz-adv-x="1236" d="M-41 -664v2503h1296v-2503h-1296zM268 934q6 -16 6 -29q0 -4 1 -22.5t4.5 -41t5.5 -42t2 -29.5q0 -12 2 -42t3 -62.5t5 -57t4 -28.5q0 -12 2 -51.5t4 -65.5q6 -31 -1 -52.5t-7 -43.5v-59.5v-105t1 -102.5t1 -53q10 -24 33 -24q9 0 20 4q23 10 41.5 26.5t18.5 30.5 q0 12 -6.5 26.5t-6.5 22.5q-2 12 -2 36t-4 40q0 10 -2 31.5t-4 45t-2 44v24.5t-4 8.5t8 20.5q10 20 20.5 34.5t24.5 24.5q4 8 19.5 23.5t31.5 36.5q14 20 37 47l8 -6q2 -2 9.5 -6.5t15.5 -10.5q6 -8 26.5 -33.5t42 -57.5t44 -63.5t30.5 -47.5q10 -18 32 -44t41.5 -56.5 t32.5 -57.5t21 -35q12 -23 24.5 -52.5t29.5 -45.5q12 -16 29.5 -15.5t41.5 15.5q29 16 33 49t2 51q0 14 -12 18.5t-31 14.5q-4 4 -18.5 23.5t-33 44t-34.5 48t-24 37.5q-10 14 -45 63.5t-78 98.5q-45 61 -101 129v6q0 6 13 17q10 12 59 66.5t88 88.5q23 18 52.5 44t56 52.5 t46 48t25.5 30.5q2 4 -3 17t-11 24q-10 14 -18 30l10 6q8 8 12 1t16 -13q8 -2 23 -2h8l4 -22q6 -14 6 -29q0 -8 -6 -8q10 14 8 41.5t-10 33.5q-2 8 -27.5 14.5t-33.5 6.5q-2 -4 -17 -12q-8 -2 -10 -11l-18 -6q-4 -6 -27 -18q-16 -12 -46 -55t-48 -60q-8 -12 -35 -39.5 t-55.5 -55.5t-56 -55.5t-35.5 -41.5q-27 -29 -46.5 -64t-25.5 -39q-6 -6 -30.5 -24.5t-51.5 -44t-52.5 -48t-29.5 -22.5t-14 61q-4 35 -4 70t10 33q4 -6 17.5 -19.5t21.5 -11.5q4 6 3 21.5t-1 33.5v30t1 48.5t1 46v27.5q0 10 -5 28.5t-5 22.5q0 8 13 45t13 53q0 8 -4 19.5 t-6 21.5q-8 12 -10 21q0 6 2 8q8 8 18 8q27 0 35 -10q10 -8 10 -22.5t6 -69.5q3 -28 3 -60t-3 -69q-6 -39 -8 -76q2 6 8 21q2 8 4.5 19t6.5 17q0 8 2 44t2 75t-2 74t-2 41q-4 8 -17.5 27.5t-17.5 25.5q-6 0 -27 -16q-10 -6 -20 -19h-13q-8 0 -11 -4t-11 -6 q-16 -8 -38.5 -27.5t-27.5 -33.5q-8 -9 -8 -20q0 -5 2 -11zM446 63q10 8 17 25q8 20 11 45q2 15 2 36q0 14 -1 32q-4 84 -7 120.5t7 53.5q2 6 6 16l6 15q5 12 9 20q-12 -20 -25 -33q-25 -35 -25 -43q0 -6 1.5 -29.5t5.5 -49t6 -50t2 -26.5q0 -10 2 -48t0 -51l-10 -20 q-4 -6 -7 -13zM709 623q39 -59 73 -117q31 -43 59.5 -89t41.5 -63q18 -20 38.5 -47.5t40 -58.5t36 -53.5t16.5 -24.5q0 -8 4 -26.5t4 -34.5q0 -8 -2 -16.5t-2 -16.5q-4 -12 -4 -15q8 16 12 35q4 18 4 35t-4 35q-4 14 -52 83.5t-104.5 150.5t-107.5 146t-53 77z" />
<glyph unicode="L" horiz-adv-x="1183" d="M-68 -664v2503h1295v-2503h-1295zM274 1049q-3 -7 -3 -16q1 -12 7 -25q12 -23 11 -31q0 -2 -1 -58.5t-4 -125t-3 -133v-87.5q0 -20 4 -93.5t10 -153.5t11 -145.5t7 -76.5q6 -16 37 -27t39 -11q4 0 71.5 -2.5t149.5 -3.5t149.5 -4t74.5 -3q14 0 26 -6t33 -6q16 0 44 13.5 t34 47.5q2 11 2 21q-1 24 -13 47q-18 33 -45 33t-82 -14.5t-77 -14.5h-307q-12 0 -36 -1t-24 9q0 8 -5 62.5t-5 77.5v32.5t-2 78.5t-2 103.5v110.5v314q19 11 19 47q0 8 -2 18q-6 52 -36 66q-10 3 -19 3q-18 -1 -33 -13q-23 -20 -30 -33zM440 517q0 -66 1 -119.5t4.5 -87.5 t5.5 -34l12 -4l-21 758q-2 -209 -2 -375v-138zM555 2q14 -10 61.5 -10h100.5q61 0 131 6zM897 27q29 -13 50 -13h3q16 4 35 22t25 75q-6 -23 -17 -37q-8 -14 -17 -26.5t-20 -18.5q-14 -6 -38 -6q-12 0 -21 4z" />
<glyph unicode="M" horiz-adv-x="1243" d="M-41 -664v2503h1294v-2503h-1294zM135 933q4 -22 14.5 -45.5t21.5 -44t11 -28.5t-2 -30.5t-6 -52.5t-6 -58.5t-8 -42.5q-4 -14 -6 -90t-5 -163t-4.5 -161t-1.5 -84q-4 -20 -1 -30.5t51 -24.5q23 -8 42 5t31.5 35.5t22.5 43t12 33.5q0 9 1 71v64v68q-1 70 -5 128t-10 58 q-18 -2 -30.5 -39t-27.5 -64q-6 -13 -6 -49v-20q2 -52 2 -111v-109q0 -52 -8 -51l-8 65q-4 66 -9 148t-6 156t-4 92q-8 31 -8 84t4 76q6 18 24.5 22t37.5 -4q8 -2 29.5 -30.5t45 -66.5t48 -80t45.5 -68q41 -59 78.5 -130t62.5 -92q25 -14 54.5 5.5t41.5 17.5q10 -2 5 -29.5 t6 -27.5q10 0 15 10t15 28q6 8 18.5 25.5t26.5 34.5l35 45l-49 -62l86 164l-123 -182l117 219l-19 12v66q0 16 5.5 42t11.5 34q8 6 34.5 42t36.5 36q12 6 17.5 -9.5t17.5 -44.5q9 -31 17 -111q4 -39 4 -84q0 -47 -4 -100q0 -55 -3 -113.5t-3 -111.5v-90t6 -51 q2 -16 17 -21.5t27.5 -5.5h26t15.5 -4q8 -12 8 -18q0 -3 2 -3t8 5q4 0 27 26q4 14 16 25q-4 -2 -6 -10q-8 -14 -10 -17q-8 -4 -21 -4h-6v15q0 6 6 43q2 7 2 17q0 22 -13 54q-19 46 -19 86q0 20 2 117.5t3 210.5t4 210t3 116q0 31 24 51q10 10 25 16q14 10 4 16.5t-29.5 6.5 t-44.5 -2.5t-41 -6.5q-20 -4 -43.5 -29.5t-47 -62.5t-46 -79t-45.5 -68q-20 -31 -46 -80t-52.5 -97t-56 -91t-56.5 -60q-29 -20 -45 -1.5t-26.5 47t-15.5 58t-7 35.5q-8 12 -30.5 51.5t-65.5 77.5q-20 23 -55 69t-70 93t-64.5 80t-40.5 21q-9 -8 -9 -22q0 -4 1 -10zM377 965 l-1 2q0 2 18 -39q22 -49 54.5 -110.5t63.5 -109.5t43 -32q-45 70 -84 131q-33 51 -59.5 97t-34.5 61zM518 670q0 -16 6 -31q8 -37 33 -37q6 -4 -1 7.5t-13 23.5q-10 14 -25 37zM1073 428q0 -78 2 -140.5t4 -104.5t8 -52q1 -2 2 -2q3 0 5 29q2 37 2 96t-2 139t-2 162 q-5 194 -9 446q-6 -231 -10 -417v-156z" />
<glyph unicode="N" horiz-adv-x="1212" d="M-49 -664v2503h1298v-2503h-1298zM238 235.5q0 -77.5 6 -98.5q24 -74 58 -74h3q16 8 36 32t24 34q4 16 -12.5 41t-20.5 41q0 10 -1 57t-3 107.5t-2 117v91.5q4 59 9 94t1 51q-4 6 -19 -20q-8 -14 -18 -27q-2 31 -6 61q-2 25 -1 48.5t7 29.5q18 12 29.5 23.5t25.5 1.5 q2 -2 28 -44t61.5 -100.5t76.5 -127t76 -130t60.5 -101.5t29.5 -50l72 -96q2 -2 7 -21.5t10 -42t12.5 -44t17.5 -26.5q8 -6 29.5 -9t42 0t39 11.5t20.5 28.5q3 13 3 27q1 31 -11 69q-16 56 -17 191q0 63 3.5 145t3.5 162t1 142.5t3 87.5q6 51 15 79.5t5 42.5q-6 8 -7 20.5 t-7 26.5q-8 14 -10 29q-12 -16 -23 -31q-23 -35 -35 -43q-12 -4 -29.5 -14t-19.5 -27q0 -20 15 -71q11 -37 12 -70q0 -13 -2 -26q0 -18 -1 -85t-5.5 -143t-6.5 -141.5t-2 -81.5q-8 -29 -12 -65.5t-23 -49.5q-14 -14 -33.5 -11t-33.5 32q-16 27 -26.5 46t-14.5 42 q-6 23 -9 41t9 22q8 4 10 4t12 7q8 0 11 2q-29 33 -54 63q-53 61 -69 92q-10 14 -34 63.5t-49.5 104.5t-49 104.5t-29.5 59.5q-18 23 -37.5 72t-32.5 59q-10 8 -10 23.5v21.5q0 8 -3 -3t-13 -23q-12 -10 -49 -29t-43 -37q0 -12 5 -31.5t14 -40t15.5 -39t6.5 -22.5 q1 -5 1 -12q0 -19 -8 -51q-12 -44 -12 -68q0 -29 -8 -60.5t-8 -54.5q0 -10 -3 -83t-3 -161v-165.5zM342 34q2 -14 4 -7q0 6 9.5 15t15.5 21q12 12 24 31l-18 -18q-23 -13 -33 -25q-3 -3 -3 -10q0 -3 1 -7zM346 1126q41 -47 80 -102q37 -51 80 -120.5t86 -147.5 q43 -82 66.5 -121t31.5 -57q19 -19 21 -19q-25 49 -49 100q-23 45 -46.5 90.5t-42.5 75.5q-18 31 -39.5 73t-43 81t-40 69.5t-32.5 38.5t-24.5 15.5t-22.5 13.5q-14 8 -25 10zM371 635q8 -135 16 -246q4 -47 5 -95t5 -84t5 -58.5t1 -26.5v168v121t5 63q0 8 -6.5 35t-10.5 55 q-12 31 -20 68zM432 412l21 16l-4 16zM842 -2h14q4 0 27 8q8 0 16 5t21 14q14 8 24 18zM969 197v8q0 2 2 8t2 14q0 6 8 16.5t8 22.5v381q0 168 2 377q-8 -12 -11 -52t-7 -98.5t-4 -132v-151.5v-393zM977 111q4 2 4 14v14.5t-4 16.5v-45z" />
<glyph unicode="O" d="M-43 -664v2503h1294v-2503h-1294zM179 522q3 -108 38 -206.5t113 -163.5q82 -63 162 -86q53 -15 100 -15q24 -1 47 3q68 12 119 52.5t80 92.5q25 53 47 121q23 70 35 140q11 61 10 118v19q-2 67 -15 120q-61 201 -165 301q-49 47 -84 66.5t-19 -13.5q0 -6 -44 -6 t-108.5 -12.5t-130 -44t-100.5 -101.5q-40 -70 -64 -173q-21 -91 -21 -187v-25zM285 602q4 119 50 189.5t100 108.5t104.5 48t62.5 6q57 -6 101.5 -44t75 -92t47 -119.5t16.5 -129.5q0 -63 -17.5 -133.5t-50.5 -127t-76 -93.5t-90 -37q-49 0 -107.5 21.5t-108.5 72 t-83 130.5q-26 63 -26 151q0 23 2 49zM338 500q14 -106 43 -166q16 -31 40.5 -53.5t50.5 -35t46.5 -18.5t26.5 -2q6 10 -15.5 29.5t-46.5 42.5q-12 10 -29.5 24.5t-35 41t-30.5 72.5t-15 124q-3 26 -3 50q0 45 12 85q19 62 48 101q33 47 72 84q-31 -16 -60 -41 q-27 -23 -51 -58t-39 -80q-19 -63 -19 -130q0 -35 5 -70zM586 -6q70 18 133 47q53 25 109.5 67t91.5 103t52 136q18 75 26 145q8 62 7 113v11q-1 56 -4 84q-6 20 -20 70.5t-38.5 109t-60.5 112.5t-79 85q-47 27 -83 45.5t-65 26.5q-33 10 -61 10l76 -24q6 -2 42 -23.5 t77.5 -52.5t79.5 -70t55 -82q16 -43 29.5 -99t22.5 -118t13 -120q1 -20 1 -37q0 -36 -5 -66q-14 -94 -39.5 -170t-107.5 -160q-43 -41 -87 -68.5t-81 -43.5q-45 -20 -84 -31zM1067 395q0 -10 2 -16t12 -10l-6 39q-8 -8 -8 -13z" />
<glyph unicode="P" horiz-adv-x="1220" d="M-63 -664v2503h1296v-2503h-1296zM279 217q-3 -15 -3 -30q0 -22 7 -44q12 -37 63 -65q25 -15 40 -15q14 -1 20 11q12 26 18 45q0 16 -8 38.5t-15 35.5q-8 8 -15 40.5t-7 63.5v52t4 69q0 39 4 86q6 -2 21 -6q8 -4 20.5 -7.5t24.5 -3.5q16 -8 27.5 -8t35.5 8q3 1 14 1 q20 0 68 -3q13 -1 26 -1q60 0 122 16q76 18 140 71.5t64 173.5q0 121 -39 188.5t-89 99.5t-97 39t-68 7h-64h-99.5h-95.5t-52 -4q-16 -4 -27.5 -22.5t-11.5 -36.5q0 -6 -3 -34t-6 -64.5t-4 -73.5t-1 -72q0 -31 1 -77t5 -87t9 -75.5t5 -45.5q0 -16 -5 -51t-10 -78t-10 -84 t-9 -57zM399 618q0 29 2 54q2 23 4.5 42.5t2.5 33.5q0 10 -2.5 40.5t-3.5 61.5t-2 58.5t1 33.5q6 14 11.5 11t13.5 -3q12 0 35.5 -5t40.5 -5h106q8 0 31 1t46.5 1t48 -1t38.5 -9q29 -16 52.5 -47t23.5 -113q0 -39 -19.5 -66.5t-44 -50t-49 -34t-35.5 -11.5h-43.5t-64.5 6 q-39 0 -82 2q-8 0 -18 -2q-6 -6 -17.5 -7t-19.5 -3q-39 -12 -56 12zM434 707q8 2 21 16q8 8 16 24.5t14 32.5v10q1 35 -11 77q-14 48 -34 38q-6 -2 1.5 -32.5t7.5 -47.5q0 -18 3 -39.5t-3 -37.5q-8 -20 -11 -29q-4 -8 -4 -12zM438 457l15 -37q8 -14 12 -27.5t4 -21.5 q0 -6 2 -36t2 -63v-86l6 220l137 20q-20 -3 -38.5 -3t-36.5 3q-29 2 -59 8.5t-44 22.5zM565 879q20 -12 45 -2q11 2 17 10h-35q-14 0 -22 -3q-6 -2 -6 -4zM571 678q10 -10 25 -16q21 -12 39 0zM786 467q61 8 121.5 67.5t83.5 114.5q25 55 25 129v11q-2 81 -25 147 q-12 31 -29.5 55.5t-33.5 42.5q-18 16 -45 31q8 -2 14 -10q8 -6 15.5 -16.5t21.5 -20.5q31 -29 51.5 -90.5t20.5 -118.5q1 -11 1 -23q-1 -47 -19 -106q-24 -74 -54 -113q-16 -16 -40 -34.5t-50 -30.5q-27 -14 -58 -35z" />
<glyph unicode="Q" horiz-adv-x="1232" d="M-47 -664v2503h1294v-2503h-1294zM215 645q-4 -36 -4 -71q0 -71 17 -134q24 -94 65 -165.5t87 -117.5t85 -61q43 -20 82 -24q19 -2 38 -2t37 2q37 4 65 10t36 8q23 8 30 16.5t29 6.5q20 -2 27.5 -2t24.5 -21q20 -14 21 -18t13 -4q10 0 30 6t28 16q29 31 18 51 q-6 10 -31.5 28.5t-25.5 43.5q0 14 13 42t25.5 59.5t21.5 62.5t9 47q0 20 4 78q1 22 1 47q0 39 -3 84q-6 74 -23 148.5t-52 131.5q-39 49 -73 86t-65 56q-30 25 -55 43v-11q0 -8 -12 -8h-35t-60.5 -1t-65.5 -6t-46 -11q-14 -8 -53 -34t-79 -73t-77 -122.5t-47 -186.5z M340 626q6 74 37 142q33 70 71.5 108.5t78.5 57t75 19.5t57 -1q47 -8 86 -41.5t89 -117.5q23 -41 30 -99q5 -51 5 -101v-15q-1 -58 -8 -108t-15 -77q-14 -49 -38 -71.5t-38 -18.5q-2 8 -2 19q-4 6 -4 19.5t-8 31.5q-10 27 -13.5 42t-13.5 15q-12 0 -10 -12t-4 -21 q-6 -8 -18.5 -10t-24.5 -6q-12 -12 26 -43q18 -16 17.5 -28.5t5.5 -41.5q2 -33 -6 -44t-25 -27q-20 -23 -34.5 -19t-49.5 4q-20 0 -50 14.5t-60.5 34t-56 41t-38.5 39.5q-14 16 -31.5 64.5t-26.5 112.5q-5 39 -5 81q0 28 2 57zM385 629q-9 -40 -9 -76q0 -40 12 -75 q22 -64 52 -105q43 -51 92 -84l-10 10q-12 12 -20 25q-2 4 -15.5 19t-30 43t-28.5 75t-14 123q-3 22 -3 43q0 47 15 86q23 57 47 100q29 41 70 78q-4 2 -23.5 -6t-45 -39t-50.5 -84t-39 -133zM559 4q29 -1 54 -1t46 1q39 0 74 4t43 10v9l-12 8q-18 0 -70.5 -15.5 t-70.5 -15.5h-64zM682 1149q47 -16 94 -47q39 -25 83 -64t85 -94q72 -113 79 -220.5t15 -193.5v-14q0 -38 -9 -77q-11 -46 -24.5 -86t-27.5 -66.5t-14 -34.5q-6 -10 2 -32.5t14 -55.5q8 -35 6 -44t-12 -24q-8 -16 -13.5 -14t-19.5 -6q-14 -2 -12 -6t10 -21q2 -6 6 -6 q13 0 19 6q6 4 15 26.5t15 39.5q6 8 2 32.5t-8 49.5q-8 27 -10 55l24 31q12 10 20.5 43.5t13.5 71.5t9.5 70t4.5 48q0 14 2 52q1 12 1 25q0 30 -4 67q-4 55 -22 119.5t-53 133.5q-41 66 -90 112t-92 75q-57 33 -109 49z" />
<glyph unicode="R" d="M-53 -664v2503h1294v-2503h-1294zM250 276.5q0 -49.5 2 -94.5t10 -61q14 -27 14 -29t25 -10q25 -6 48.5 13.5t27.5 45.5q2 25 -13.5 60t-15.5 51q0 12 3 36.5t5 52.5t4 50.5t2 32.5q-4 20 -6 51t11 41q12 6 66 6t79 8q31 4 56.5 16.5t56.5 -1.5q14 -8 32.5 -44t38 -81 t38 -88t28.5 -68q10 -27 24.5 -62.5t33 -66.5t38 -50t37.5 -9q39 18 45 37.5t-2 50.5q-4 10 -21.5 35.5t-40 57.5t-44 63.5t-31.5 62.5q-41 113 -41 129q0 12 -3 15t5 10q2 6 31.5 27.5t61.5 61.5q31 40 57 84q22 38 23 77q0 6 -1 12q-2 86 -36 143t-69 84q-31 31 -54 44 t-44 15q-16 8 -12 11.5t-12 -2.5q-6 -6 -46 -7.5t-84.5 -1.5t-90.5 -1t-62 -1h-87t-58 -4q-16 -10 -22.5 -53t-6.5 -74v-95t2 -173t2 -171v-91q0 -10 -2 -53t-2 -92.5zM311 106q16 -16 31 -30q35 -25 47 -8q8 12 17.5 42.5t15.5 69.5l12 78t6 68q-4 27 -2 48t2 38q0 18 6 32 l19 -10q31 -14 47 -12q20 2 5 20.5t-32 18.5q-23 0 -42 11t-40 20q-16 6 -15 -16t1 -32q0 -6 3 -40.5t6 -78.5t7.5 -83t4.5 -54q2 -31 1 -45t-16 -30q-16 -18 -16 -20.5t-12 -2.5t-33 6q-16 6 -23 10zM350 659q-4 4 -4 12.5t4 22.5q8 27 15 37q8 12 5 18.5t-5 26.5 q0 10 -3.5 31.5t-5.5 45.5t-4 42t-2 20q0 23 4 33q10 12 43 0q14 -8 21.5 -5t27.5 3q16 0 36 3t38 3q16 0 60.5 -3t58.5 3q6 8 14.5 9.5t28.5 3.5q41 0 86 -27q25 -14 39 -46t18 -69q2 -11 2 -21q0 -26 -14 -54q-20 -38 -49 -64q-27 -25 -69 -32q-33 -5 -68 -5h-21 q-20 0 -50 6t-56.5 10.5t-46 8.5t-25.5 4q-4 0 -37 -14.5t-41 -2.5zM397 887q-3 -3 -3 -8q0 -7 6 -15q12 -16 12 -26q0 -8 12 -21l4 -4q-8 12 -12 27q-14 25 0 34q12 4 41 5h28l-45 8q-16 4 -29.5 4t-13.5 -4zM401 739l27 -18l109 -6q-27 2 -50 10q-16 6 -34.5 12t-24.5 15 l-12 18l-4 6q0 -12 -9 -24q-2 -8 -2 -13zM748 1145q53 -31 98 -62q39 -31 72.5 -68.5t44.5 -84.5q11 -54 11 -111q0 -39 -6 -79q-12 -98 -53 -132q-39 -31 -66.5 -57.5t-27.5 -34.5t16.5 -45t43.5 -82q27 -51 61 -115q-27 61 -43 111q-18 45 -28.5 83t-8.5 48q2 6 24.5 31.5 t48.5 62.5t43 85q15 43 15 87v11q-6 51 -9 94t-24.5 85t-70.5 83t-141 90zM926 51q-1 -2 -1 -3q0 -3 4.5 -3t12.5 3q20 7 39 40q14 27 14 53q0 14 -2 25l-8 -45q-4 -16 -9 -30.5t-15 -22.5q-18 -10 -23.5 -10.5t-11.5 -6.5z" />
<glyph unicode="S" horiz-adv-x="1239" d="M-45 -664v2503h1296v-2503h-1296zM213 395q0 -31 14.5 -72.5t44 -83.5t66.5 -75t84 -53q44 -23 102 -28q29 -2 57 -2t55 2q54 5 101 22.5t76 39.5q53 47 93 117q33 58 33 119q0 12 -1 25q-6 76 -45 129t-64 81q-29 29 -48 42.5t-27 9.5q-2 -6 -2 -19q0 -2 2 -4 q-23 -4 -39 0q-35 0 -72 12q-29 10 -83 18.5t-89 26.5q-37 16 -33 16.5t-16 4.5q-12 4 -47 34.5t-35 73.5q0 23 20.5 42.5t47 37t55.5 30.5t47 15q36 8 96 12q12 1 21 1q43 0 63 -15q29 -14 56.5 -44.5t37.5 -51.5q8 -16 6 -32.5t19 -32.5q14 -14 37 -15q8 0 16 6 q23 8 38 44q8 19 8 38q0 18 -7 37q-4 16 -25.5 47t-52 61.5t-67.5 57.5t-86 35q-22 4 -51 4t-65 -4q-73 -8 -139.5 -38t-114.5 -84t-48 -132q0 -84 22.5 -133t53 -79t67.5 -40t66 -18q31 -6 77 -13.5t94 -16.5t87 -20.5t57 -25.5q34 -30 48 -88q6 -25 6 -46q0 -27 -11 -46 q-14 -35 -71.5 -82t-157.5 -47q-49 0 -80 5t-49.5 14t-30.5 24.5t-29 31.5q-29 35 -40 48.5t-11 31.5q0 16 11.5 27.5t3.5 28.5q-8 20 -18.5 21t-14.5 9q-10 6 -16.5 16.5t-4.5 26.5q0 14 8 27l3 12q-8 -4 -19 -6q-20 -8 -20 -23q-4 -10 4 -18q2 -4 2 -6q-18 6 -37 0 q-12 -8 -25.5 -22.5t-13.5 -47.5zM322 532q-3 0 -3 -1q0 -2 8 -9q13 -10 23 -24q14 -16 38 -78t48 -88q16 -14 39 -18.5t47 -4.5h62q-18 6 -35 6h-28.5t-22.5 2q-14 2 -31.5 9.5t-30.5 15.5q-10 8 -22.5 43t-18.5 55q-8 16 -20 35q-4 12 -10 14q8 -2 22 -8q8 -2 19.5 -2 h15.5q10 0 22.5 -2t28.5 -2h41q-18 4 -33 12q-14 2 -29.5 6.5t-19.5 8.5q-20 2 -60 16t-50 14zM397 803q8 -23 30 -34t46.5 -16t48 -6.5t35.5 -1.5q8 -4 30.5 -4h47.5q30 0 57 -2l-26 15q-23 10 -45 16q-6 0 -31 5t-54.5 11.5t-53 17.5t-29.5 21q-18 29 8 48.5t57 18.5h82 q-20 2 -43 9q-16 2 -38.5 3t-37.5 1q-33 -3 -65 -33q-23 -21 -23 -46q0 -11 4 -23zM481 27q2 1 43 -5q23 -3 49 -4q21 0 47 2q56 4 120.5 20.5t119.5 55.5q53 39 84 94.5t44 110.5q12 55 16 103q1 16 2 29q0 26 -5 42q-4 23 -22 57.5t-41 63.5t-42.5 50.5t-29.5 15.5 q-12 -4 11 -17l22 -14q33 -43 53 -88q18 -39 30 -93q6 -29 5 -59q0 -25 -4 -51q-25 -117 -71 -162t-99 -78q-55 -31 -116.5 -52t-100.5 -21t-81 3q-35 3 -35 -1q0 -1 1 -2zM618 1174q63 -23 119 -41q47 -20 88 -45t60 -48q14 -25 21 -39t16 -26q6 -12 6 -19l4 -20l8 -16 q8 -31 12 -56q6 -23 1 -46t-17 -34q-20 -14 -29.5 -17t-17.5 -9l-12 -2q0 -14 12 -24q7 -5 12 -5q4 0 8 4q6 8 30 32.5t24 53.5q0 10 -1 29.5t-4 40.5q-6 18 -10 41q4 0 10 4q10 10 11 10q0 6 -17 12l-14 9q-2 2 -6 10q-8 8 -4 16t-31 52t-61 61q-31 18 -92.5 43.5 t-77.5 25.5h-35q-10 0 -13 3z" />
<glyph unicode="T" horiz-adv-x="1191" d="M-68 -664v2503h1297v-2503h-1297zM203 1065q0 -25 30.5 -55.5t40.5 -36.5q6 -6 27 -7t44.5 -2t44 -1t24.5 2q16 8 23 18t44 10q14 0 22.5 -15t13.5 -39t7 -49.5t6 -43.5q3 -12 3 -51q0 -19 -1 -45q-2 -78 -6 -169.5t-9 -183.5t-9 -135q-3 -31 -3 -55q1 -48 13 -74 q20 -39 35 -45q4 -1 8 -1q14 1 34 11q26 14 36 25q8 8 4 25.5t-12 37.5l-15 60v717h13q8 0 13 1t13 1q20 -2 28.5 -8.5t33.5 -6.5q27 0 28.5 2t18.5 11q20 2 46.5 6t45.5 -13q18 -14 27.5 -10t42.5 8q37 8 49 39q4 10 4 24q0 30 -17 79q-8 31 -30 40q-16 6 -32 6 q-6 0 -14 -1q-24 -4 -43.5 -15.5t-29.5 -13.5q-18 -8 -51 -8h-54q-16 -2 -30 -6q-12 -2 -31 -2h-35q-20 0 -75.5 1t-117 4t-111.5 6t-60 3q-23 0 -29 -11.5t-8 -33.5zM670 115q12 0 20 16q6 8 10 35q2 13 3 31q0 20 -3 45q0 51 -2 156.5t-2 212v188.5v88q0 16 19 16h36.5 t66.5 4t66.5 6t41.5 7q23 16 37 30q12 12 16 23q-8 -16 -25 -25q-30 -28 -65 -28h-2q-20 0 -55 3t-69 3h-59.5t-29.5 -6q0 -203 4 -361q0 -72 2 -138.5t3 -120.5t1 -91v-39q0 -20 -6 -39q-4 -12 -8 -16z" />
<glyph unicode="U" horiz-adv-x="1196" d="M-68 -664v2503h1297v-2503h-1297zM221 1071q-4 -8 -4 -20q-1 -19 9 -51q16 -50 16 -105v-69.5v-119t1 -139t7 -142.5t17.5 -119t23.5 -64q23 -23 61.5 -53.5t91.5 -52.5q52 -22 112 -28q11 -1 22 -1q50 0 104 20q129 51 188.5 95t63.5 83q0 39 -8 76t-11 47v67.5v139.5 v144.5v84.5q8 31 16.5 87.5t16.5 76.5q2 23 -15.5 67t-31.5 46q-14 0 -37.5 -16.5t-40.5 -45.5q-8 -15 -10 -83q-1 -27 -1 -57q0 -45 2 -97q3 -86 6 -170q1 -28 1 -51q0 -46 -4 -72q0 -45 -1 -98.5t-13 -100.5t-45 -83t-99 -48q-66 -10 -98.5 -12t-48.5 4t-19.5 14t-13.5 17 q-18 14 -18 19t-10 3q-12 -6 -30 12.5t-38 36.5q-16 18 -17 30.5t-1 21.5q2 6 8 14t-4 35q-4 27 -12.5 61.5t-8.5 77.5q0 23 -2 89.5t-2 139v130t4 65.5q4 10 17.5 45t1.5 57q-23 54 -56 54h-6q-16 -4 -44 -21.5t-40 -40.5zM410 510q-4 -32 -4 -57q0 -34 8 -52q6 -20 14 -26 q0 68 2 129q0 49 2 102t2 80q0 31 -2 95.5t-6 136.5q-8 84 -16 176q0 -4 2 -82t4 -178q1 -50 1 -98.5t-1 -94.5q-2 -92 -6 -131zM582 18q86 8 159 37q66 25 131.5 70t100.5 129q18 63 22 191t4 253q0 150 -8 322v-313v-120t-2 -105t-3 -78.5t-1 -36.5q-6 -14 -10 -46 t-19.5 -70t-43 -75t-74.5 -63q-51 -29 -97.5 -44.5t-81.5 -27.5q-39 -14 -77 -23z" />
<glyph unicode="V" horiz-adv-x="1245" d="M-35 -664v2503h1299v-2503h-1299zM215 1008q10 -29 46 -128.5t79 -214t81 -209t48 -118.5q20 -51 36.5 -91t24.5 -59q4 -8 14.5 -21t26 -26.5t34 -21.5t32.5 -4q25 4 40 17t15 46t-3 48.5t7 27.5q2 8 30 83t55.5 168t53 174t33.5 101q8 16 18.5 47t23 62t21.5 55.5 t15 34.5q10 12 25.5 38t19.5 40q2 12 -9 30.5t-24.5 33t-27.5 19.5q-10 4 -19 4q-3 0 -6 -1q-20 -8 -36.5 -43t-24.5 -92q0 -27 -25.5 -112t-56.5 -181.5t-61.5 -181t-45.5 -113.5q-25 -57 -41 -95t-28 -44q-10 0 -25.5 34.5t-23.5 49.5q-6 14 0 34.5t-2 38.5 q-8 10 -23.5 44t-35 81t-41 96.5t-32.5 88.5q-20 78 -42.5 139t-22.5 92q0 12 -2 38.5t-12.5 54.5t-22.5 49.5t-27 21.5q-6 1 -11 1q-25 0 -41 -32q-12 -24 -12 -58q0 -21 5 -46zM395 1069l70 -213q31 -84 54.5 -156.5t25.5 -81.5q6 -31 16 -53q8 -14 12 -24q2 6 -10 50 t-29.5 100.5t-34 104.5t-18.5 60q-6 4 -18 41t-29 76q-20 45 -39 96zM616 39q18 2 37 10q14 6 29.5 13.5t26.5 25.5q8 6 34.5 79t63.5 176t76 219t71 218t54 172q18 59 19 77q0 3 -1 5q-72 -225 -133 -407q-25 -76 -50.5 -151t-45 -137.5t-31.5 -102t-18 -48.5 q-8 -27 -24.5 -54.5t-27.5 -33.5q-14 -8 -26 -8h-11q2 -8 3 -14q0 -20 -9 -23z" />
<glyph unicode="W" horiz-adv-x="1220" d="M-45 -664v2503h1298v-2503h-1298zM131 1038q-2 -4 -2 -14q0 -15 4 -45q6 -49 13.5 -118.5t17.5 -151.5t19.5 -156t17.5 -127t10 -72q6 -51 10 -98t4 -57v-38t25 -44q29 -12 56.5 -3t51.5 60q12 25 25.5 63.5t31 77.5t32 71t34.5 52q29 31 44.5 48.5t15.5 43.5 q2 20 -9.5 27.5t-17.5 28.5q-8 14 -2 38.5t23 26.5q14 6 35.5 -21.5t33.5 -41.5q8 -6 34 -42t54.5 -83t54 -86t27.5 -51q2 -10 13.5 -46t29 -74t34.5 -63.5t36 -19.5q20 8 27.5 31.5t7.5 56.5v64.5t4 56.5t11 111.5t14 184t15.5 182.5t18.5 103q19 39 35 84q11 32 12 53 q0 8 -2 15q-8 23 -26.5 43t-30.5 20q-14 0 -44 -46t-30 -93q0 -23 -6 -101.5t-15.5 -170.5t-20.5 -172t-13 -103q-9 -39 -9 -62q0 -27 -24 -11q-29 12 -49.5 26.5t-24.5 38.5q-8 27 -14 51.5t12 24.5q16 0 23.5 1t7.5 19q0 16 -18.5 48t-34.5 55q-14 25 -36 51.5t-26 50.5 q-2 31 -10 70t-14 51q-2 10 -8.5 25.5t-14.5 13.5q-4 -6 -13 -16.5t-16 -12.5q-8 -8 -36.5 -35.5t-28.5 -56.5q-4 -18 -9 -48t-14 -52q-6 -23 -3 -32t-3 -30q-10 -16 -35.5 -31.5t-33.5 -33.5q-2 -12 -13.5 -36t-24 -47.5t-25.5 -44t-17 -32.5q-18 -18 -14 -24.5t-7 2.5 q-8 4 -12 28.5t-12 58t-11.5 65.5t-3.5 48q0 20 -5 68.5t-11 105t-10 103.5t-4 61q6 27 8 80t2 74q0 20 -20.5 42.5t-28.5 26.5q-14 2 -39 -28.5t-33 -59.5zM313 1067q8 -68 19 -129l8 -98q2 -24 2 -41t-2 -27q-4 -16 -4 -37.5v-38.5v-37q4 27 12 50q8 16 11 32.5t3 24.5 q0 6 -9 54t-17 102zM322 68q-2 -11 9 -11q1 1 3 1q14 2 47 34q14 16 37.5 59.5t44 91.5t39 85t20.5 45q8 6 13.5 22.5t9.5 34.5q8 20 14 47q-39 -90 -78 -164q-33 -68 -63.5 -126t-42.5 -78q-27 -35 -35 -34t-18 -7zM641 891q23 -39 39 -72q18 -29 31.5 -53.5t17.5 -32.5 q6 -8 14.5 -26.5t18.5 -38t15 -33.5t5 -10q0 2 -17 43t-42 89t-48.5 90t-33.5 44zM899 113l14 -21q13 -19 27 -19q3 0 6 1q49 8 53 96q0 23 8.5 89.5t15.5 142t14 141t10 82.5q0 18 4 79.5t10 129.5q8 80 12 178q-6 -98 -18 -178q-8 -68 -14.5 -129.5t-6.5 -77.5 q0 -14 -7 -78t-14 -140.5t-14.5 -138t-7.5 -71.5q0 -16 -5 -47t-19 -43q-23 -23 -47 -15q-8 4 -15 12q-6 2 -6 7z" />
<glyph unicode="X" horiz-adv-x="1239" d="M-33 -664v2503h1299v-2503h-1299zM252 1022q4 -20 27.5 -56t54.5 -74t57.5 -74t42.5 -58q33 -41 75 -87t48 -57l10 -16q-2 -8 -10 -22q-8 -18 -20 -31q-8 -8 -29 -35t-33 -37q-8 -4 -27.5 -28.5t-44 -55.5t-47 -61.5t-34.5 -46.5q-18 -31 -41 -60.5t-17 -58.5 q2 -26 36 -48q14 -9 27 -9q19 0 38 18q27 31 38 72t54 96q47 59 77.5 98t38.5 55q2 16 4.5 18.5t-16.5 10.5q-33 4 -20 23q8 4 16 21.5t18 19.5q6 0 11.5 5t15.5 15q4 4 16 12v-30q0 -33 9 -43q2 -10 20.5 -39t41 -63t43 -65.5t32.5 -47.5q25 -31 45 -66t33 -53 q10 -18 21 -34.5t26 -25.5q14 -10 35.5 -10t40.5 19q33 21 33 53q0 6 -1 12q-8 20 -53 58t-72 77q-14 16 -41.5 54.5t-57.5 75t-52.5 70.5t-28.5 40l-12 18q4 4 8 13q2 2 3 5t11 7q2 2 6.5 3t6.5 7q4 2 8 2q-4 4 -10 8q-14 6 -23 0q-6 -8 -22 -16q-6 -2 -9 -2l-16 18 q8 4 19 15q6 6 17 16t23 21q10 8 29 34.5t36 57.5t32.5 57.5t27.5 40.5q18 27 62.5 69t56.5 56q27 30 31 55q8 31 -13.5 54.5t-27.5 35.5q-10 10 -10 17v10l-15 -4q-14 -8 -14 -18q-8 -4 -31.5 -30t-36.5 -44q-6 -12 -25.5 -45t-44 -75t-48 -81t-35.5 -59q-25 -39 -47.5 -70 t-26.5 -47l-12 -23q0 2 -2 9q-6 2 -13 16q-10 8 -27.5 27.5t-6.5 25.5q8 8 14 4t10 13q2 14 -7 29.5t-28 31.5q-10 14 -37.5 41t-50.5 66q-16 37 -39.5 87t-33.5 72q-4 20 -10.5 26.5l-16.5 16.5q-12 8 -12 4v-8q-27 -12 -47 -26q-32 -26 -32 -58q0 -7 1 -14zM322 51 q12 2 28 4q25 8 33 21q6 2 37 44t64.5 89t61.5 93q23 38 22 54q0 4 -1 6q-39 -70 -75 -122q-27 -47 -58 -87t-39 -49q-16 -14 -30 -14q-8 0 -15 2zM453 1081q37 -51 61 -92q23 -43 41 -81q13 -29 13 -51q0 -7 -1 -13q0 -8 7.5 15.5t0.5 31.5q-2 2 -20 32.5t-41 67.5 q-25 39 -61 90zM752 606q8 -18 14 -31q6 -8 31.5 -42.5t55.5 -75.5t51.5 -72t17.5 -18q-8 10 -26.5 36.5t-38 55t-36 54.5t-16.5 34q-6 14 -10 29.5t-11 21.5l-12 14q-6 4 -8 4l221 355q-63 -86 -111 -152q-45 -61 -77.5 -116.5t-42.5 -59.5q-6 -11 -6 -21q0 -8 4 -16z M961 55q4 -2 8 -2t8 23q0 2 -2 2t-6 -8z" />
<glyph unicode="Y" horiz-adv-x="1243" d="M-33 -664v2503h1293v-2503h-1293zM254 1069q-2 -18 17.5 -60t50 -89.5t62.5 -95.5t54 -74q45 -59 83 -108.5t40 -55.5q0 -6 1 -53.5t4 -104.5t3 -110.5v-65.5q0 -14 -4 -44t-3 -56.5t16.5 -48t52.5 -21.5t46 21.5t8 48t-8 56.5t-9 44q-6 12 -9.5 54t-5.5 92q-1 26 -1 50 t1 46q2 45 9 67q8 18 39.5 66.5t73.5 106t80 106.5t52 65q27 33 64 76t37 66t-23.5 42t-32.5 31q-5 4 -11 4q-10 0 -25 -10q-23 -16 -46 -51q-10 -16 -31.5 -52t-44 -74t-40 -69.5t-23.5 -48.5q-8 -8 -26.5 -33.5t-38 -49t-36 -44t-18.5 -20.5q-14 -4 -20 -4t-8 20 q-8 14 -8.5 24.5t-6.5 30.5q-6 10 -25.5 35t-43 50.5t-43 50t-25.5 34.5q-8 10 -16 36t-17.5 56.5t-23 55t-23.5 33.5q-23 18 -56.5 14t-41.5 -39zM459 1044l139 -217q-4 8 -23.5 42t-50.5 73q-30 43 -65 102zM686 63q14 6 31 23q12 14 21.5 34.5t9.5 63.5q0 33 3 97.5 t3 128.5v159q70 102 131 193q49 76 93 143.5t44 71.5q-78 -111 -143 -203q-55 -82 -100.5 -143.5t-45.5 -69.5v-71.5t4 -143.5q0 -94 6 -207q-10 -14 -14 -24q-12 -23 -20 -29z" />
<glyph unicode="Z" horiz-adv-x="1253" d="M-33 -664v2503h1301v-2503h-1301zM287 1116q6 -22 6 -37v-71h145h109.5t64.5 2q25 8 35 4t27 4q16 6 50 12t50 -20q18 -27 10 -49.5t-14 -28.5q-2 -2 -49 -62.5t-104.5 -134t-110.5 -138.5t-68 -83q-16 -16 -39.5 -57t-46 -80t-36 -71t-13.5 -38q0 -12 -11 -56 q-6 -23 -6 -40q0 -16 5 -27q12 -20 48 -22t58 -2q8 0 66.5 -2t126 -4t126 -5.5t72.5 -3.5q34 0 54 -8q14 -5 33 -5q10 0 22 1q33 8 59.5 42t26.5 77q0 41 -43 52q-15 4 -30 4q-26 0 -48 -13q-16 -8 -55 -16.5t-81 -12.5t-80 -7t-48 3q-25 2 -51.5 16.5t-42.5 8.5 q-14 -8 -28.5 -15.5t-33.5 -7.5q-18 0 -46.5 9.5t-28.5 19.5q0 2 33.5 50t73.5 103.5t81 105.5t57 71q14 16 61.5 78.5t96.5 131t89 125t48 64.5q12 12 24.5 49t12.5 60q0 18 -30 48q-28 29 -44 29h-2q-18 -2 -32.5 -17t-34.5 -15q-4 0 -58.5 -2t-119 -2t-121 -1.5 t-64.5 -1.5q-10 0 -29.5 1.5t-35.5 5.5q-22 4 -49 8q-10 0 -20.5 4t-14.5 -4q-5 -5 -5 -14q0 -6 3 -15zM500 338l98 14q-14 -8 -25 -8q-23 0 -14 25q2 16 51 84.5t106.5 146.5t106.5 147.5t60 83.5q10 14 31.5 44t41.5 62q19 31 30 65q5 16 5 31t-6 28q-2 -25 -4 -45 q-8 -20 -14 -40t-17 -32q-6 -10 -37.5 -53t-78 -101.5t-96.5 -125t-94 -126t-74.5 -99.5t-32.5 -48q-8 -12 -12.5 -20.5t-12.5 -16.5q-8 -10 -12 -16z" />
<glyph unicode="\" horiz-adv-x="1126" d="M-100 -664v2503h1247v-2503h-1247zM217 1020q0 -23 49 -84q6 -8 43 -56.5t85 -120t104.5 -152.5t106.5 -154.5t89 -127t47 -71.5q20 -29 41 -60.5t43.5 -60.5t38 -46t23.5 -9q27 16 -15 88q-10 20 -33.5 58t-49 77t-49 75t-31.5 52q-10 18 -59.5 88t-103.5 156 t-103.5 169t-69.5 126q-16 41 -32.5 64.5t-30 32.5t-21.5 17.5t-10 14.5q-12 14 -17.5 13t-13.5 -7q-12 -8 -21.5 -35t-9.5 -47zM588 723q74 -115 135 -211q49 -84 95 -151.5t61 -79.5q16 -8 -26 57t-101 151q-72 99 -164 234z" />
<glyph unicode="^" horiz-adv-x="1232" d="M-41 -664v2503h1298v-2503h-1298zM279 285q8 -18 10 -25.5t16 -15.5q10 -6 21.5 -4t25.5 -4q12 -8 22.5 -19.5t16.5 -11.5q4 0 26.5 48t50.5 109.5t51.5 118t27.5 66.5q10 31 9 45t5 35q8 20 30.5 38.5t57.5 2.5q14 -12 28.5 -41t31 -70t37 -88t55.5 -92q4 -14 4 -15 q12 -16 12 -25t8 -1q8 2 9 2q8 -14 24 -25q4 -16 10 -46.5t29 -39.5q29 -14 40 -11t28 28q18 23 20 35t-14 32q-8 4 -34 35t-56.5 72t-57 85t-43.5 83l-4 6q-23 47 -35 92q-14 82 -18 93t-21 20q-18 6 -69 31.5t-76 19.5q-25 -8 -37 -12.5t-12 -20.5v-76q0 -8 -18.5 -45 t-41 -80t-42 -81.5t-27.5 -53.5l-55 -117q-18 -39 -45 -77zM684 872q16 -10 31 -22q10 -8 22.5 -16.5t18.5 -16.5q6 -6 19 -44t32.5 -86t43 -101.5t50.5 -87.5q25 -37 58.5 -73t61.5 -62.5t45 -44t15 -17.5q-2 4 -41 39t-88 100.5t-99 152.5t-81 200q-8 23 -21.5 39 t-31.5 22q-12 10 -35 18z" />
<glyph unicode="_" horiz-adv-x="1048" d="M-45 -664v2503h1110v-2503h-1110zM184.5 -71.5q1.5 -10.5 10.5 -14.5q4 -8 22.5 -21.5t15.5 -23.5q0 -10 -14 -19l-14 -6q0 -12 6 -20q6 -12 22 -19q10 -8 47 -7t62 1h412q16 0 24 -7t35 1q25 4 37 23.5t18 42.5q2 20 -9 55t-38 43q-31 12 -58.5 -2t-39.5 -14h-168 q-66 0 -126.5 -1t-70.5 1q-25 8 -82 8t-77 -8q-16 -2 -14.5 -12.5z" />
<glyph unicode="`" horiz-adv-x="1216" d="M-41 -664v2503h1292v-2503h-1292zM377 1427q-18 -27 6.5 -43t42.5 -18q18 -8 24.5 -15.5t28.5 -15.5q8 -6 34 -21.5t52 -31.5q35 -18 68 -45q16 -10 37 -16q35 -14 51 -15q16 0 19.5 5.5t19.5 5.5q20 0 -10.5 27.5t-61.5 37.5q-29 14 -52.5 33.5t-47.5 30.5 q-25 14 -59.5 43.5t-53.5 52.5q-20 25 -51 19.5t-47 -34.5zM444 1313q10 -6 5 -17.5t4 -11.5q2 0 12 -2q10 -6 18.5 -8t16.5 -6l41 -23l106 -47l-31 19q-16 8 -30 16q-33 12 -56 27z" />
<glyph unicode="a" horiz-adv-x="1181" d="M-74 -664v2503h1293v-2503h-1293zM226 90q-1 -5 -1 -9q0 -22 15 -26q12 -4 27.5 -14t31.5 18q16 25 27.5 63t13.5 54q6 20 1 35.5t11 19.5q18 4 27.5 -14t34.5 -18q23 0 51.5 11t93.5 11q68 0 97.5 -6t54.5 8q25 12 48 28.5t34 8.5q2 -2 13 -19.5t20.5 -35t18.5 -38 t9 -30.5q6 -20 18.5 -53t51.5 -37q41 -8 54 4t17 45q10 27 -16.5 50.5t-36.5 50.5q-6 12 -25.5 61t-44 107.5t-46 117t-33.5 88.5q-10 35 -32 87.5t-43.5 102.5t-38.5 92t-22 54q-6 10 -8 35t-8 51.5t-13 51t-20 36.5q-6 5 -12 5t-14 -5q-14 -10 -26.5 -25.5t-22 -32.5 t-13.5 -30q-2 -25 6.5 -43t8.5 -32q0 -12 -12.5 -30t-20.5 -40q-8 -18 -11.5 -35.5t-3.5 -32.5q0 -16 -36.5 -87.5t-63.5 -149.5q-25 -72 -27 -98.5t-8 -47.5q-2 -16 -13 -51t-30 -63q-8 -20 -27.5 -53t-35.5 -71t-20 -69zM332 25q27 23 39 38q26 38 26 71v9q-8 -20 -12 -34 q-14 -35 -25 -48q-8 -6 -14 -11t-8 -13q-6 -6 -6 -12zM381 354q6 16 18.5 34t24.5 39.5t16 39.5t19.5 60t33 86t30 78t12.5 36q0 8 -11.5 15.5t-21.5 13.5q-6 2 8 16t27 31q14 20 18 32.5t23 6.5q8 -4 32.5 -53.5t54 -113t54.5 -122t31 -72.5q18 -35 23 -71q2 -14 2 -26 q0 -20 -5 -38q-2 -12 -16.5 -14t-36 2t-45 10t-37.5 6q-61 0 -84 10q-8 8 -26.5 -1t-57.5 -21q-41 -14 -55.5 -11t-28.5 9q-5 1 -5 7q0 4 3 11zM412 160l284 10q-21 5 -57 5h-13q-44 -1 -94 -5q-59 -2 -120 -10zM498 455l14 32q8 16 14 30.5t9 23.5q12 16 14 41q2 16 8 36 q-10 -8 -21.5 -35.5t-17.5 -58.5q-12 -36 -20 -69zM526 420l76 -39q-4 14 -12 30.5t-23 12.5q-10 -4 -24 -4h-17zM705 1016q80 -209 143 -373q31 -74 57.5 -141.5t47 -119.5t33 -87t20.5 -37q1 -2 2 -2q2 0 -6 22q-10 28 -30 78t-47.5 120.5t-56.5 144.5q-70 174 -163 395z " />
<glyph unicode="b" horiz-adv-x="1220" d="M-59 -664v2503h1298v-2503h-1298zM221 935q4 -7 8 -20q4 -10 4 -53v-71q0 -14 -2 -93.5t-2 -175.5t2 -178t11 -98q14 -37 16 -50.5t2 -31.5q0 -12 10.5 -51t63.5 -52q55 -10 134 -14q26 -1 49 -1q46 0 77 5q53 8 92 8t57 2q23 6 30 3t13 4q2 6 20.5 25.5t38 45t37 59 t17.5 64.5q0 63 -8 104.5t-25 73.5q-16 29 -23 58.5t-18 40.5q-12 8 -20 0l-6 -11q-8 12 -11 23q-12 21 -8 31q25 31 33 51q4 4 6 29.5t8 33.5q9 8 21 54q10 40 10 73v11q-8 41 -24.5 74.5t-22.5 45.5q-8 18 -19.5 46t-15.5 14q-2 -14 5 -26.5t-15 -10.5q-16 4 -42 13 t-46 22q-12 2 -47 3t-68 7q-41 2 -90 2q-35 0 -59 -2q-55 -8 -84 -18q-27 -14 -64 -27.5t-45 -24.5q-2 -5 -2 -9t2 -8zM283 279l8 190h4q2 0 10 10q8 8 29 37l22 31q8 -6 19 -8q6 -4 15 -8.5t22 -6.5q33 0 69 2q31 2 62 5.5t51 3.5q45 0 107.5 -46.5t101.5 -95.5 q18 -25 14 -59.5t-20.5 -68.5t-39 -63.5t-50.5 -41.5q-25 -14 -69 -18q-36 -4 -71 -4h-16q-43 1 -78 7.5t-37 10.5q-8 4 -45 -11q-16 -8 -36.5 -3t-39.5 18q-10 4 -14 25.5t-4 45.5v62q-2 -12 0 -25q0 -23 16 -45q8 -16 16.5 -16h16.5q12 2 9 37t-11 51q-6 20 -8 56t-2 52 q0 12 8 39l4 23l-12 -8q-18 -8 -19 -17q-2 -8 -6 -33.5t-12 -52.5q-6 -37 -14 -75zM291 633v55v93t2 89t4 43q8 6 43 11.5t43 3.5q12 -4 20.5 -20.5t12.5 -2.5l18 4q19 4 44.5 7.5t50 5.5t38.5 2q10 1 21 1q20 -1 43 -5q35 -8 82 -37t47 -77t-8 -101q-8 -31 -17.5 -50.5 t-17.5 -33.5q-14 -12 -23 -25l49 22q-8 -23 -16 -36q-8 -16 -14 -25.5t-11 -9.5q-12 0 -21 19.5t-15 23.5q-10 8 -33 19.5t-49 11.5h-48h-76t-72 -1.5t-42 -1.5q-16 -8 -12 -30.5t10 -40.5q8 -23 -22 -31q-14 -6 -27 -6v49q0 23 -2 42.5t-2 31.5zM291 760q0 -14 11 -34.5 t17 -29.5q8 -8 13.5 -22.5t13.5 -5.5q18 6 14 22.5t-14 42.5q-2 23 -14.5 55.5t-3.5 40.5q2 4 4 9.5t6 13.5q4 6 4 14q0 10 -11.5 16.5t-15.5 -5.5q-8 -10 -9 -24.5t-3 -31.5q-12 -27 -12 -61zM375 816.5q0 -21.5 1 -44t3 -35t2 -2.5q0 23 5 71t13 48q4 0 21.5 2t44.5 8 q25 2 59 4q-20 3 -37.5 3t-33.5 -3q-27 -2 -51.5 -8t-26.5 -18v-25.5zM389 254l100 -25l-86 25v25q0 12 1.5 21t1.5 17t-1.5 28t-1.5 42v53q-8 -2 -8 -31.5t-4 -66.5q-2 -39 -2 -88zM436 721l168 -10q-10 8 -37.5 9t-54.5 1h-76zM682 1112q61 -37 109 -76q43 -37 74.5 -80 t33.5 -88q0 -88 -8 -169t-19 -97q-31 -20 -26 -29q0 -2 18.5 -24.5t38 -54t33.5 -69.5q11 -30 11 -59q0 -8 -1 -16q-8 -72 -27.5 -138.5t-58.5 -121.5q-39 -51 -74 -78q-20 -14 -34 -26q51 29 90 73q35 39 69.5 98.5t46.5 141.5q4 33 4 61q0 42 -9 73q-15 52 -34.5 79 t-37 40t-15.5 30q6 14 17.5 44.5t20.5 72.5q10 42 16 86q2 15 2 29q0 30 -9 60q-10 39 -40.5 82t-64.5 78t-68.5 56.5t-57.5 21.5z" />
<glyph unicode="c" horiz-adv-x="1222" d="M-57 -664v2503h1298v-2503h-1298zM242 558v-15q0 -141 73 -271q75 -137 189 -191q66 -31 140 -31q53 0 110 16q63 23 103 69.5t61.5 101t27.5 99.5t12 61q2 31 -10 61.5t-26 30.5q-18 0 -37 -7t-23 -27q-6 -4 -9 -26.5t-8 -48.5t-11.5 -49.5t-8.5 -33.5q-8 -12 -27.5 -38 t-50 -49.5t-72.5 -40.5q-29 -12 -58 -12q-14 0 -27 3q-90 14 -178 122.5t-95 278.5v12q0 75 23 133q25 62 58.5 105t68.5 67.5t51 32.5q16 6 53 5t79 -8t75 -18t41 -13q14 -14 26.5 -35t16.5 -39q8 -12 13.5 -42t17.5 -40q16 -27 38.5 -28t26.5 5q9 8 23 50q7 20 6 40 q0 22 -8 43q-12 23 -44 59t-71 71.5t-69.5 62.5t-36.5 33q-18 6 -19.5 13t-15.5 1q-14 -8 -45 -14t-47 -6q-12 0 -45 -6.5t-76 -28t-89 -63.5t-73 -111q-49 -134 -53 -284zM384 555q6 -61 20 -105t28 -75t14 -33v-1q-2 1 -26 65q-19 54 -19 150q0 30 2 65q4 72 32 121t59 75 q41 37 84 55q-4 4 -23.5 0t-48.5 -25.5t-59 -61.5t-46 -103q-18 -51 -18 -100q0 -14 1 -27zM657 1133q53 -23 107 -52q41 -25 84 -63.5t70 -83.5q49 -96 57 -148q4 -23 3 -40q0 -21 -5 -31q-23 -29 -31 -33q-8 -8 -16 -8q10 -4 24 -4q25 0 29 16q8 20 8 82.5t-39 134.5 q-43 74 -98 124t-92 69q-16 8 -34.5 15t-31.5 13q-16 8 -35 9zM670 -8q57 16 110 43q47 20 90 56t72 95q31 51 39 99.5t14 83.5q1 19 1 38t-1 37q0 -55 -12 -114q-8 -49 -28.5 -106.5t-63.5 -96.5q-39 -41 -79 -66.5t-71 -44.5q-39 -16 -71 -24z" />
<glyph unicode="d" horiz-adv-x="1224" d="M-49 -664v2503h1298v-2503h-1298zM253 684q1 -74 7 -151.5t11 -139t5 -71.5q0 -18 3.5 -69.5t3.5 -76.5q0 -14 5 -31.5t28.5 -33t73.5 -29.5t142 -14q172 0 255 89t135 222q22 55 22 133v22q-4 92 -24.5 181.5t-48 162t-56.5 103.5q-29 33 -67.5 52.5t-79.5 29.5t-73 11 h-19q-17 0 -27 -1q-19 -8 -59 -8q-12 0 -25 1q-59 3 -88 3t-56.5 -13.5t-33.5 -41.5q-4 -14 -4 -29q-4 -10 -4 -25.5v-23.5q0 -31 -1.5 -54.5t-21.5 -90.5q-3 -26 -3 -79v-28zM352 930v37q33 -14 62 -23q35 -10 60 -10q15 0 26 4q10 4 41.5 10t68.5 6t72 -12t63 -39 q20 -29 50 -91q31 -62 49 -137q16 -65 15 -138v-24q-3 -87 -44 -167q-41 -78 -82 -114.5t-73.5 -47t-58.5 -5.5t-38 7q-14 0 -33.5 3.5t-37.5 3.5q-20 0 -46 2q0 -8 -8 -13q-14 -16 -28 -6q-18 10 -26.5 17.5t1.5 27.5q6 16 10 19.5t-2 27.5q-2 23 -13 66t-11 67q0 10 -2 79 t-6.5 150t-5.5 148.5t-1 87.5q0 16 -1 31.5t-1 32.5zM416 883q0 -164 6 -295q2 -111 3 -203t5 -92q4 -2 7 60.5t6 143.5t4.5 154.5t1.5 91.5v40t4 46q0 27 2 52l94 10q-35 4 -64 4q-25 0 -44 -2t-25 -10zM524 23q28 -5 59 -5t64 5q53 6 114.5 34.5t115.5 94.5 q105 132 125 284q8 61 8 121q0 89 -17 176q8 -83 8 -163v-31q-6 -84 -23 -170t-65 -146q-92 -115 -164.5 -149.5t-105.5 -38.5q-31 -12 -72 -12h-47z" />
<glyph unicode="e" d="M-47 -664v2502h1298v-2502h-1298zM256 403q0 -16 3 -63t8 -97t9.5 -92t4.5 -45q0 -10 14 -36.5t37 -32.5q10 0 68.5 -1t129 -1h131h68.5q10 0 36 -6t53.5 -11.5t48 -8.5t32.5 -3q18 0 50 21.5t36 46.5q0 25 -7 64.5t-36 45.5q-7 2 -15 2q-25 0 -69 -16q-59 -22 -94 -27 q-16 -6 -60.5 -2t-93.5 10.5t-90 10.5t-53 4q-16 0 -50 -9.5t-46 1.5q-14 8 -6 33.5t8 33.5q0 6 -1 25.5t-10 40.5q-4 3 -5 37v17q0 25 2 51q3 34 7.5 62.5t12.5 30.5q10 10 32.5 4t39.5 3q6 0 36.5 2t65.5 2h64.5t41.5 -4q16 -8 28.5 -13.5t51.5 2.5q43 4 51.5 29t10.5 64 q6 41 -20.5 50t-45.5 19q-23 4 -57.5 -9t-54.5 -17h-34t-47.5 3t-45 6t-31.5 3q-12 -6 -29.5 -6t-38.5 -2q-16 -4 -39 -4v133v95t4 56q94 2 175 8q68 2 127 4.5t73 2.5q25 0 65 -6q21 -3 39 -4q17 0 31 3q35 2 48.5 23.5t17.5 42.5q4 23 -13.5 57.5t-37.5 42.5q-9 5 -23 5 q-9 0 -20 -2q-29 -5 -45 -15q-12 -6 -37 -10t-51.5 -8.5t-54 -6.5t-42.5 -2q-14 0 -58 2t-95 4q-26 1 -49.5 1.5t-44.5 -1.5q-43 -2 -58 -8q-14 -10 -23.5 -45t-14.5 -79t-7 -83.5t-2 -62.5t4 -58.5t7 -68.5t5.5 -61.5t-2.5 -38.5q-4 -16 -12 -58.5t-8 -79.5zM395 686 q55 0 97 2q39 6 68.5 6t37.5 2q2 0 -15.5 0t-41 4.5t-47 8.5t-27.5 24q-10 33 -12 64.5t10 38.5q6 6 27.5 8t46.5 10q28 6 65 12h-194q-4 -31 -4 -55v-70q0 -29 -3 -36q-6 -10 -8 -19zM406 451q0 -10 2 -42t6 -71q4 -45 6 -94l45 8q-8 -12 -12 -12q-8 0 -9.5 10t-3.5 45 q-6 37 -9 64.5t-11 50.5q-6 21 -14 41zM457 426q2 0 25.5 2t51 6t47 5t17.5 1q-10 8 -35.5 5t-52.5 -7t-42 -9q-11 -4 -12 -4zM713 698l57 -39q-16 20 -33 29q-14 8 -24 10z" />
<glyph unicode="f" horiz-adv-x="1232" d="M-43 -664v2503h1298v-2503h-1298zM307 1024q-3 -3 -3 -9q0 -9 8 -25q12 -25 12 -36q0 -4 -6.5 -46t-6.5 -79v-55t1 -78t1 -72.5v-37.5v-70.5t-1 -126t-1 -128v-75.5q0 -55 27 -63q12 -2 48 -5t46 3q12 6 25.5 18.5t-11.5 30.5q-25 16 -37 26.5t-16 26.5q-2 8 -2 22.5 v24.5q0 14 -6 25q6 -4 8 -4q4 0 6 35q0 18 4.5 42.5t12.5 47.5q6 25 12 47q-12 -8 -20 -14q-16 -18 -17 -37q0 -10 -3 -17.5t-3 -15.5v-10l-23 186q18 0 31 -4q12 -2 24.5 -3t22.5 -7q6 0 36 -3t64.5 -3h63.5t39 6q20 8 53 3t49 -3q20 8 34 26.5t18 34.5q4 18 -20.5 32.5 t-53.5 8.5q-27 -8 -69 -16.5t-56 -8.5q-12 0 -30.5 1.5t-42 1.5h-44t-26.5 -3q-18 -8 -33.5 -13t-24.5 -15q-4 -2 -10 5t-12 15t-10.5 16.5t-4.5 12.5q0 8 1 28.5t8 30.5v38v70v72.5v47.5q12 39 51 39h34.5t54.5 -2t53.5 -2h35.5q8 0 46 2t81 2h80t39 -4q8 -8 42 -13 q8 -2 15 -2q26 0 49 15q12 12 19.5 29.5t7.5 39t-5 41t-11 27.5q-17 13 -31 13h-5q-16 -3 -59 -21q-45 -16 -98 -34t-96 -18q-23 0 -81.5 -1t-120.5 -2t-110.5 -4t-52.5 -7zM388 794q3 -44 10.5 -82t13.5 -40q4 -2 6 11t2 31.5t-2 36t-6 27.5q0 4 8 22.5t12 38t6 36t-8 20.5 q-6 2 -11 2q-21 0 -27 -27q-5 -22 -5 -51q0 -12 1 -25zM446 115h9q6 0 14 6q2 2 6 28.5t6 62.5t2 77v67q0 31 -6 52.5t-10 33.5q-12 14 -21 27q8 -14 13 -43q2 -49 10 -164q0 -61 -1 -89t-9 -42q-6 -16 -13 -16zM461 745.5q0 -26.5 6 -26.5q2 -2 7 18.5t12.5 48t17.5 50 t20 22.5q6 0 53.5 3t96.5 3h139q-47 -3 -89 -3t-79 3q-59 0 -112.5 2.5t-61.5 10.5q0 1 -1 1t-2 -23q-1 -26 -4 -54.5t-3 -55zM528 440q25 -8 47 -8q11 -2 21 -2q21 0 31 10h-99z" />
<glyph unicode="g" horiz-adv-x="1232" d="M-45 -664v2503h1298v-2503h-1298zM213 502q0 -147 45 -244.5t105.5 -153t128 -79t110.5 -23.5t91 21.5t91 52t73 57.5t38 37q6 12 8 43t2 62.5t-2 62.5t-2 45q0 31 5 51.5t7 44.5q6 23 -12 42.5t-31 35.5q-8 6 -10 11t-6 14q-4 6 -4 8q-14 -25 -27 -39 q-14 -12 -36.5 -23.5t-51.5 -11.5q-59 0 -93 2h-3q-32 0 -45 -39q-5 -14 -5 -27q0 -23 17 -42q25 -31 43 -35q18 -10 38 -3t36 15q16 6 17 14.5t16 -8.5q16 -14 36 -41q11 -15 11 -42q0 -19 -6 -44q-18 -68 -61 -106q-37 -32 -104 -32q-15 0 -30 1q-43 2 -89 31.5t-87 72.5 t-66.5 96.5t-29.5 112.5q-2 30 -2 60t2 62q4 63 16 120t32.5 101t55.5 67q68 45 124 47h16q46 0 81 -10q45 -16 73 -57t46 -60q18 -23 11 -54q-1 -5 -1 -10q0 -25 33 -44q18 -12 33 -5l14 9q18 6 40 36q19 26 19 57q0 5 -1 11q0 18 -13.5 45t-34 55.5t-43 54t-38.5 42.5 q-37 37 -99 59q-42 14 -93 14q-26 0 -54 -4q-39 -8 -95.5 -35.5t-109.5 -92t-91 -163t-38 -245.5zM383 496q2 -94 27.5 -151.5t54.5 -93.5t52.5 -48.5t29.5 -12.5q8 0 33 25q12 14 26 29q-14 2 -28 8q-14 2 -31 8t-31 19q-33 23 -63.5 68.5t-36.5 176.5q-1 17 -1 33 q0 45 8 85q11 54 23 93q14 45 37 84q-31 -29 -53 -74q-18 -39 -36 -98q-13 -41 -13 -98q0 -25 2 -53zM606 1100q0 -8 52.5 -15.5t91.5 -31.5q43 -25 88 -63t67 -68q20 -29 27.5 -61t15.5 -42q0 -8 1 -11t1 -5v-8q-6 47 -18 88q-18 39 -46 81t-77 74q-53 33 -91 46.5 t-63 15.5q-13 1 -25 1t-24 -1zM711 610h123q-25 0 -50 2q-23 0 -45 3q-6 1 -11 1q-13 0 -17 -6zM809 27q35 25 65 55q31 25 56.5 56.5t36.5 70.5q8 37 8 88t-2 97t-9.5 81t-13.5 41q-2 8 -13 24.5t-23.5 32t-23.5 25.5q-6 5 -9 5q-5 0 -7 -7l31 -35q8 -14 19.5 -31.5 t19.5 -27.5q6 -10 9 -41t3 -68t-3 -69.5t-3 -55.5q0 -39 -3 -69.5t-13 -44.5q-8 -8 -27.5 -28t-42.5 -42z" />
<glyph unicode="h" horiz-adv-x="1243" d="M-39 -664v2503h1296v-2503h-1296zM246 830.5q0 -68.5 1 -142.5t11 -136.5t10 -74.5v-73.5t-5 -128t-5 -128v-61.5t5 -18.5t11 -26.5q7 -11 15 -23q7 -10 21 -10h5q29 6 58.5 27.5t29.5 40.5q0 8 -6 20.5t-14 22.5q-8 14 -14 26l6 129q4 47 6 89.5t2 50.5q0 12 -19.5 34.5 t1.5 38.5q18 10 36.5 6t26.5 -4q6 0 37 -1t66.5 -5t78.5 -5t70 -1q53 0 65.5 1t22.5 9q10 2 18 17q10 6 13 10l22 -10q6 -6 16.5 -12.5t12.5 -12.5q2 -8 3 -47t9 -89t9 -95t1 -64q0 -8 -1 -36.5t-8 -56.5t0 -51.5t11 -25.5q16 -6 46 8.5t51 30.5q2 12 1 30.5t-11.5 44.5 t-13.5 47.5t-3 37.5q0 14 1 59t2 106.5t1 134.5v134.5v103.5v56q0 27 12.5 65.5t12.5 53.5q0 20 -23 37l-8 12q2 4 6 10q4 4 13.5 6t13.5 2q12 0 24 13.5t-2 31.5q-35 -20 -69 -34q-27 -12 -50.5 -26.5t-27.5 -25.5q-6 -6 -9 -34.5t0 -58.5t5 -58.5t2 -40.5v-51t-2 -62 t-6 -57.5t-9 -30.5q-6 -20 -14 -27.5t-22 3.5q-16 4 -30.5 20t-29.5 31q-6 4 -21 4q-18 0 -50 -6q-58 -12 -103 -13q-55 0 -78.5 7.5t-31.5 35.5q-8 14 -10.5 25.5t-6.5 24.5q-2 12 -2 20l-6 -31q-2 -10 -8 -21t-15 -16q-29 -10 -33.5 29t-4.5 72q0 31 -1.5 58.5t5.5 53.5 q14 49 14 72q0 12 -8 43q-4 6 -6 10q6 0 16 2q25 8 27 9q2 0 7.5 -38t6.5 -77q2 -59 2 -119l4 225v19q0 18 -8 18h-29.5t-47.5 -4t-51.5 -19.5t-37.5 -43.5q-12 -27 -12 -95.5zM426 41q2 31 8 68q8 27 12.5 64.5t4.5 78.5q0 70 -0.5 102.5t-16.5 40.5q-6 2 -6 -20.5v-59 t3 -69.5t3 -41q4 -25 4 -65t-6 -62q-4 -10 -5 -15.5t-1 -11.5v-10zM469 702q10 -16 43 -17h23q24 0 51 1l100 12zM1008 404.5q0 -25.5 2 -52t4 -33.5q2 -16 2 -44.5v-69.5v-88q2 16 2 35q0 29 2 34v109q0 33 -2 88q0 14 2 31q0 12 4 27.5t4 25.5q0 12 -4 75.5t-6 141.5 q-2 88 -2 197q-2 -39 -2 -78q0 -31 -1 -56.5t-1 -33.5q0 -4 -2 -42t-2 -75v-73v-38v-31.5v-49z" />
<glyph unicode="i" horiz-adv-x="1232" d="M-41 -664v2503h1296v-2503h-1296zM367 967q-2 -7 -2 -13q0 -17 13 -24q17 -10 42.5 -11t48.5 -1t31 -7q35 -45 35 -153q0 -27 2 -111t5 -180t3 -176v-90q-6 -25 -13.5 -46.5t-29.5 -29.5q-18 -6 -31.5 1t-32.5 5q-8 0 -20 -15.5t-22.5 -30.5t-18.5 -31.5t0 -20.5 q7 -7 34 -7q13 0 33 2q58 5 95 5q33 0 71.5 -3t69.5 -7q27 -8 60 -8q2 1 4 1q36 0 53 29q16 25 23 55.5t-7 44.5q-20 20 -55 13q-10 -2 -28.5 12t-29.5 14q-14 0 -35.5 -18.5t-31.5 -15.5q-8 0 -9 22.5t-3.5 48t-2.5 51v37.5v525v45t13 22q27 10 53 0q10 -6 44 -13t52 13 q16 14 33.5 33.5t9.5 40.5q-10 41 -45 53q-16 6 -25.5 13.5t1.5 13.5q4 8 42 9t46 -30q2 -18 2 -32.5v-26.5v-25q6 29 6 51q0 16 -4 35t-12 27q-6 8 -18.5 8t-22.5 2q-15 0 -27 2l6 -4q6 -6 21 0q16 4 16 11.5t-21 13.5q-18 6 -31.5 -7.5t-25.5 -17.5q-12 -8 -24.5 -25.5 t-67.5 -27.5q-40 -4 -67 -4h-17q-31 2 -59 4q-12 0 -35 3t-41.5 0t-34.5 -15.5t-18 -38.5zM492 1104l296 -8q-72 6 -133 8q-51 6 -99 7h-10q-40 0 -54 -7zM692 801l8 -570l17 5q-6 6 -6 10q0 2 -1 6t-1 10q-4 10 -6.5 96t-6.5 185zM723 219q0 -8 10 -11t27.5 -3t31 -2 t17.5 -2q8 -6 24.5 -24.5t16.5 -31.5t3 -31q1 -8 1 -10v-2q-1 0 -2 4q-1 2 -1 49q0 41 -34 56q-35 19 -61 27q-6 2 -10 2q-17 0 -23 -21z" />
<glyph unicode="j" horiz-adv-x="1230" d="M-41 -664v2503h1296v-2503h-1296zM358 320q-1 -6 -1 -12q0 -32 18 -77q31 -113 104.5 -160.5t143.5 -47.5t140.5 58t88.5 155q6 49 9 165.5t5 239.5q4 143 4 313q-4 12 -8 37t-18 25q-12 0 -31.5 -31t-30.5 -53v-55.5t3 -120t3 -149.5t-3 -152.5t-4 -129t-9 -71.5 q-16 -59 -17 -83t-50 -38q-20 -8 -39 -9t-33 -5t-25 -4l25 20q-18 4 -33 10q-29 4 -53 17q-20 10 -53 29.5t-48 74.5q-9 48 -9 81v7q1 35 9 49q2 8 19 15q10 2 20 2l-14 33l-22 -13q-8 -8 -16.5 -14t-10.5 -12q-6 -8 -20.5 -14.5t-27 -26t-16.5 -53.5zM502 334q0 8 3 -28 t13 -52q8 -20 26.5 -34.5t30.5 -14.5q8 0 21 6q8 6 12 12q-8 0 -20 4q-18 6 -27 19q-14 12 -36.5 35.5t-22.5 52.5zM874 1049q-2 -3 -2 -5q0 -5 14 0q19 7 25 15q1 8 -5 8q-4 0 -9 -2q-16 -6 -23 -16zM901 193q4 16 12 30q14 33 19 74q3 15 3 63q0 24 -1 56q-2 96 -2 194 q-4 124 -4 271q-2 -162 -2 -287v-299q0 -10 -4 -36t-11 -36q-10 -18 -10 -22v-8zM920 1012q0 -8 6 -15q0 -9 1 -9t1 5q0 8 -1 9.5t-1 7.5z" />
<glyph unicode="k" horiz-adv-x="1236" d="M-41 -664v2503h1296v-2503h-1296zM268 934q6 -16 6 -29q0 -4 1 -22.5t4.5 -41t5.5 -42t2 -29.5q0 -12 2 -42t3 -62.5t5 -57t4 -28.5q0 -12 2 -51.5t4 -65.5q6 -31 -1 -52.5t-7 -43.5v-59.5v-105t1 -102.5t1 -53q10 -24 33 -24q9 0 20 4q23 10 41.5 26.5t18.5 30.5 q0 12 -6.5 26.5t-6.5 22.5q-2 12 -2 36t-4 40q0 10 -2 31.5t-4 45t-2 44v24.5t-4 8.5t8 20.5q10 20 20.5 34.5t24.5 24.5q4 8 19.5 23.5t31.5 36.5q14 20 37 47l8 -6q2 -2 9.5 -6.5t15.5 -10.5q6 -8 26.5 -33.5t42 -57.5t44 -63.5t30.5 -47.5q10 -18 32 -44t41.5 -56.5 t32.5 -57.5t21 -35q12 -23 24.5 -52.5t29.5 -45.5q12 -16 29.5 -15.5t41.5 15.5q29 16 33 49t2 51q0 14 -12 18.5t-31 14.5q-4 4 -18.5 23.5t-33 44t-34.5 48t-24 37.5q-10 14 -45 63.5t-78 98.5q-45 61 -101 129v6q0 6 13 17q10 12 59 66.5t88 88.5q23 18 52.5 44t56 52.5 t46 48t25.5 30.5q2 4 -3 17t-11 24q-10 14 -18 30l10 6q8 8 12 1t16 -13q8 -2 23 -2h8l4 -22q6 -14 6 -29q0 -8 -6 -8q10 14 8 41.5t-10 33.5q-2 8 -27.5 14.5t-33.5 6.5q-2 -4 -17 -12q-8 -2 -10 -11l-18 -6q-4 -6 -27 -18q-16 -12 -46 -55t-48 -60q-8 -12 -35 -39.5 t-55.5 -55.5t-56 -55.5t-35.5 -41.5q-27 -29 -46.5 -64t-25.5 -39q-6 -6 -30.5 -24.5t-51.5 -44t-52.5 -48t-29.5 -22.5t-14 61q-4 35 -4 70t10 33q4 -6 17.5 -19.5t21.5 -11.5q4 6 3 21.5t-1 33.5v30t1 48.5t1 46v27.5q0 10 -5 28.5t-5 22.5q0 8 13 45t13 53q0 8 -4 19.5 t-6 21.5q-8 12 -10 21q0 6 2 8q8 8 18 8q27 0 35 -10q10 -8 10 -22.5t6 -69.5q3 -28 3 -60t-3 -69q-6 -39 -8 -76q2 6 8 21q2 8 4.5 19t6.5 17q0 8 2 44t2 75t-2 74t-2 41q-4 8 -17.5 27.5t-17.5 25.5q-6 0 -27 -16q-10 -6 -20 -19h-13q-8 0 -11 -4t-11 -6 q-16 -8 -38.5 -27.5t-27.5 -33.5q-8 -9 -8 -20q0 -5 2 -11zM446 63q10 8 17 25q8 20 11 45q2 15 2 36q0 14 -1 32q-4 84 -7 120.5t7 53.5q2 6 6 16l6 15q5 12 9 20q-12 -20 -25 -33q-25 -35 -25 -43q0 -6 1.5 -29.5t5.5 -49t6 -50t2 -26.5q0 -10 2 -48t0 -51l-10 -20 q-4 -6 -7 -13zM709 623q39 -59 73 -117q31 -43 59.5 -89t41.5 -63q18 -20 38.5 -47.5t40 -58.5t36 -53.5t16.5 -24.5q0 -8 4 -26.5t4 -34.5q0 -8 -2 -16.5t-2 -16.5q-4 -12 -4 -15q8 16 12 35q4 18 4 35t-4 35q-4 14 -52 83.5t-104.5 150.5t-107.5 146t-53 77z" />
<glyph unicode="l" horiz-adv-x="1191" d="M-70 -664v2503h1295v-2503h-1295zM272 1049q-3 -7 -3 -16q1 -12 7 -25q12 -23 11 -31q0 -2 -1 -58.5t-4 -125t-3 -133v-87.5q0 -20 4 -93.5t10 -153.5t11 -145.5t7 -76.5q6 -16 37 -27t39 -11q4 0 71.5 -2.5t149.5 -3.5t149.5 -4t73.5 -3q14 0 26.5 -6t33.5 -6 q16 0 44 13.5t34 47.5q2 11 2 21q-1 24 -13 47q-18 33 -45 33t-82 -14.5t-77 -14.5h-308q-12 0 -35.5 -1t-23.5 9q0 8 -5 62.5t-5 77.5v32.5t-2 78.5t-2 103.5v110.5v314q19 11 19 47q0 8 -2 18q-6 52 -36 66q-10 3 -19 3q-18 -1 -33 -13q-23 -20 -30 -33zM438 517 q0 -66 1 -119.5t4 -87.5t6 -34l12 -4l-21 758q-2 -209 -2 -375v-138zM553 2q14 -10 61.5 -10h100.5q61 0 131 6zM895 27q29 -13 50 -13h3q16 4 35 22t25 75q-6 -23 -17 -37q-8 -14 -17 -26.5t-20 -18.5q-14 -6 -39 -6q-12 0 -20 4z" />
<glyph unicode="m" horiz-adv-x="1236" d="M-41 -664v2503h1294v-2503h-1294zM135 933q4 -22 14.5 -45.5t21.5 -44t11 -28.5t-2 -30.5t-6 -52.5t-6 -58.5t-8 -42.5q-4 -14 -6 -90t-5 -163t-4.5 -161t-1.5 -84q-4 -20 -1 -30.5t51 -24.5q23 -8 42 5t31.5 35.5t22.5 43t12 33.5q0 9 1 71v64v68q-1 70 -5 128t-10 58 q-18 -2 -30.5 -39t-27.5 -64q-6 -13 -6 -49v-20q2 -52 2 -111v-109q0 -52 -8 -51l-8 65q-4 66 -9 148t-6 156t-4 92q-8 31 -8 84t4 76q6 18 24.5 22t37.5 -4q8 -2 29.5 -30.5t45 -66.5t48 -80t45.5 -68q41 -59 78.5 -130t62.5 -92q25 -14 54.5 5.5t41.5 17.5q10 -2 5 -29.5 t6 -27.5q10 0 15 10t15 28q6 8 18.5 25.5t26.5 34.5l35 45l-49 -62l86 164l-123 -182l117 219l-19 12v66q0 16 5.5 42t11.5 34q8 6 34.5 42t36.5 36q12 6 17.5 -9.5t17.5 -44.5q9 -31 17 -111q4 -39 4 -84q0 -47 -4 -100q0 -55 -3 -113.5t-3 -111.5v-90t6 -51 q2 -16 17 -21.5t27.5 -5.5h26t15.5 -4q8 -12 8 -18q0 -3 2 -3t8 5q4 0 27 26q4 14 16 25q-4 -2 -6 -10q-8 -14 -10 -17q-8 -4 -21 -4h-6v15q0 6 6 43q2 7 2 17q0 22 -13 54q-19 46 -19 86q0 20 2 117.5t3 210.5t4 210t3 116q0 31 24 51q10 10 25 16q14 10 4 16.5t-29.5 6.5 t-44.5 -2.5t-41 -6.5q-20 -4 -43.5 -29.5t-47 -62.5t-46 -79t-45.5 -68q-20 -31 -46 -80t-52.5 -97t-56 -91t-56.5 -60q-29 -20 -45 -1.5t-26.5 47t-15.5 58t-7 35.5q-8 12 -30.5 51.5t-65.5 77.5q-20 23 -55 69t-70 93t-64.5 80t-40.5 21q-9 -8 -9 -22q0 -4 1 -10zM377 965 l-1 2q0 2 18 -39q22 -49 54.5 -110.5t63.5 -109.5t43 -32q-45 70 -84 131q-33 51 -59.5 97t-34.5 61zM518 670q0 -16 6 -31q8 -37 33 -37q6 -4 -1 7.5t-13 23.5q-10 14 -25 37zM1073 428q0 -78 2 -140.5t4 -104.5t8 -52q1 -2 2 -2q3 0 5 29q2 37 2 96t-2 139t-2 162 q-5 194 -9 446q-6 -231 -10 -417v-156z" />
<glyph unicode="n" horiz-adv-x="1202" d="M-57 -664v2503h1298v-2503h-1298zM229 235.5q0 -77.5 7 -98.5q24 -74 58 -74h3q16 8 35.5 32t23.5 34q4 16 -12 41t-20 41q0 10 -1 57t-3.5 107.5t-2.5 117v91.5q4 59 9.5 94t1.5 51q-4 6 -19 -20q-8 -14 -18 -27q-2 31 -6 61q-2 25 -1 48.5t7 29.5q18 12 29.5 23.5 t25.5 1.5q2 -2 27.5 -44t61.5 -100.5t77 -127t76 -130t60.5 -101.5t29.5 -50l72 -96q2 -2 7 -21.5t10 -42t12 -44t18 -26.5q8 -6 29.5 -9t42 0t39 11.5t20.5 28.5q3 13 3 27q1 31 -11 69q-16 56 -17 191q0 63 3 145t3 162t1 142.5t3 87.5q6 51 15.5 79.5t5.5 42.5 q-6 8 -7 20.5t-7 26.5q-8 14 -11 29q-12 -16 -22 -31q-23 -35 -35 -43q-12 -4 -29.5 -14t-19.5 -27q0 -20 15 -71q11 -35 11 -67q0 -15 -2 -29q0 -18 -1 -85t-5 -143t-6 -141.5t-2 -81.5q-8 -29 -12 -65.5t-23 -49.5q-14 -14 -33.5 -11t-33.5 32q-16 27 -26.5 46t-14.5 42 q-6 23 -9.5 41t9.5 22q8 4 10 4t12 7q8 0 10 2q-29 33 -53 63q-53 61 -69 92q-10 14 -34 63.5t-49.5 104.5t-49 104.5t-29.5 59.5q-18 23 -38 72t-32 59q-10 8 -10 23.5v21.5q0 8 -3 -3t-13 -23q-12 -10 -49 -29t-44 -37q0 -12 5.5 -31.5t14.5 -40t15 -39t6 -22.5 q1 -5 1 -12q0 -19 -8 -51q-11 -44 -11 -68q0 -29 -8 -60.5t-8 -54.5q0 -10 -3.5 -83t-3.5 -161v-165.5zM334 34q2 -14 4 -7q0 6 9 15t15 21q12 12 25 31l-18 -18q-23 -13 -33 -25q-3 -3 -3 -10q0 -3 1 -7zM338 1126q41 -47 80 -102q37 -51 80 -120.5t86 -147.5 q43 -82 66.5 -121t31.5 -57q18 -19 20 -19q-25 49 -49 100q-23 45 -46 90.5t-42 75.5q-18 31 -39.5 73t-43 81t-40 69.5t-32.5 38.5t-24.5 15.5t-23.5 13.5q-14 8 -24 10zM362 635q8 -135 17 -246q4 -47 5 -95t5 -84t5 -58.5t1 -26.5v168v121t4 63q0 8 -6 35t-10 55 q-12 31 -21 68zM424 412l20 16l-4 16zM834 -2h14q4 0 26 8q8 0 16.5 5t20.5 14q14 8 25 18zM961 197v8q0 2 2 8t2 14q0 6 8 16.5t8 22.5v381q0 168 2 377q-8 -12 -11 -52t-7 -98.5t-4 -132v-151.5v-393zM969 111q4 2 4 14v14.5t-4 16.5v-45z" />
<glyph unicode="o" d="M-43 -664v2503h1294v-2503h-1294zM179 522q3 -108 38 -206.5t113 -163.5q82 -63 162 -86q53 -15 100 -15q24 -1 47 3q68 12 119 52.5t80 92.5q25 53 47 121q23 70 35 140q11 61 10 118v19q-2 67 -15 120q-61 201 -165 301q-49 47 -84 66.5t-19 -13.5q0 -6 -44 -6 t-108.5 -12.5t-130 -44t-100.5 -101.5q-40 -70 -64 -173q-21 -91 -21 -187v-25zM285 602q4 119 50 189.5t100 108.5t104.5 48t62.5 6q57 -6 101.5 -44t75 -92t47 -119.5t16.5 -129.5q0 -63 -17.5 -133.5t-50.5 -127t-76 -93.5t-90 -37q-49 0 -107.5 21.5t-108.5 72 t-83 130.5q-26 63 -26 151q0 23 2 49zM338 500q14 -106 43 -166q16 -31 40.5 -53.5t50.5 -35t46.5 -18.5t26.5 -2q6 10 -15.5 29.5t-46.5 42.5q-12 10 -29.5 24.5t-35 41t-30.5 72.5t-15 124q-3 26 -3 50q0 45 12 85q19 62 48 101q33 47 72 84q-31 -16 -60 -41 q-27 -23 -51 -58t-39 -80q-19 -63 -19 -130q0 -35 5 -70zM586 -6q70 18 133 47q53 25 109.5 67t91.5 103t52 136q18 75 26 145q8 62 7 113v11q-1 56 -4 84q-6 20 -20 70.5t-38.5 109t-60.5 112.5t-79 85q-47 27 -83 45.5t-65 26.5q-33 10 -61 10l76 -24q6 -2 42 -23.5 t77.5 -52.5t79.5 -70t55 -82q16 -43 29.5 -99t22.5 -118t13 -120q1 -20 1 -37q0 -36 -5 -66q-14 -94 -39.5 -170t-107.5 -160q-43 -41 -87 -68.5t-81 -43.5q-45 -20 -84 -31zM1067 395q0 -10 2 -16t12 -10l-6 39q-8 -8 -8 -13z" />
<glyph unicode="p" horiz-adv-x="1206" d="M-63 -664v2503h1296v-2503h-1296zM279 217q-3 -15 -3 -30q0 -22 7 -44q12 -37 63 -65q25 -15 40 -15q14 0 20 11q12 26 18 45q0 16 -8 38.5t-15 35.5q-8 8 -15 40.5t-7 63.5v52t4 69q0 39 4 86q6 -2 21 -6q8 -4 20.5 -7.5t24.5 -3.5q16 -8 27.5 -8t35.5 8q3 1 14 1 q20 0 68 -3q13 -1 26 -1q59 0 122 16q75 18 139.5 71.5t64.5 173.5q0 121 -39 188.5t-89 99.5t-97 39t-68 7h-64h-99.5h-95.5t-52 -4q-16 -4 -27.5 -22.5t-11.5 -36.5q0 -6 -3 -34t-6 -64.5t-4 -73.5t-1 -72q0 -31 1 -77t5 -87t9 -75.5t5 -45.5q0 -16 -5 -51t-10 -78 t-10 -84t-9 -57zM399 618q0 29 2 54q2 23 4.5 42.5t2.5 33.5q0 10 -2.5 40.5t-3.5 61.5t-2 58.5t1 33.5q6 14 11.5 11t13.5 -3q12 0 35.5 -5t40.5 -5h106q8 0 31 1t46.5 1t48 -1t38.5 -9q29 -16 52.5 -47t23.5 -113q0 -39 -19.5 -66.5t-44 -50t-49 -34t-35.5 -11.5h-43.5 t-64.5 6q-39 0 -82 2q-8 0 -18 -2q-6 -6 -17.5 -7t-19.5 -3q-39 -12 -56 12zM434 707q8 2 21 16q8 8 16 24.5t14 32.5v10q0 35 -11 77q-14 48 -34 38q-6 -2 1.5 -32.5t7.5 -47.5q0 -18 3 -39.5t-3 -37.5q-8 -20 -11 -29q-4 -8 -4 -12zM438 457l15 -37q8 -14 12 -27.5 t4 -21.5q0 -6 2 -36t2 -63v-86l6 220l137 20q-20 -3 -38.5 -3t-36.5 3q-29 2 -59 8.5t-44 22.5zM565 879q20 -12 45 -2q11 2 17 10h-35q-14 0 -22 -3q-6 -2 -6 -4zM571 678q10 -10 25 -16q21 -12 39 0zM786 467q61 8 121.5 67.5t83.5 114.5q25 55 25 129v11q-2 81 -25 147 q-12 31 -29.5 55.5t-33.5 42.5q-18 16 -45 31q8 -2 14 -10q8 -6 15.5 -16.5t21.5 -20.5q31 -29 51.5 -90.5t20.5 -118.5q1 -11 1 -23q0 -47 -19 -106q-23 -74 -54 -113q-16 -16 -40 -34.5t-50 -30.5q-27 -14 -58 -35z" />
<glyph unicode="q" d="M-47 -664v2503h1294v-2503h-1294zM215 645q-4 -36 -4 -71q0 -71 17 -134q24 -94 65 -165.5t87 -117.5t85 -61q43 -20 82 -24q19 -2 38 -2t37 2q37 4 65 10t36 8q23 8 30 16.5t29 6.5q20 -2 27.5 -2t24.5 -21q20 -14 21 -18t13 -4q10 0 30 6t28 16q29 31 18 51 q-6 10 -31.5 28.5t-25.5 43.5q0 14 13 42t25.5 59.5t21.5 62.5t9 47q0 20 4 78q1 22 1 47q0 39 -3 84q-6 74 -23 148.5t-52 131.5q-39 49 -73 86t-65 56q-30 25 -55 43v-11q0 -8 -12 -8h-35t-60.5 -1t-65.5 -6t-46 -11q-14 -8 -53 -34t-79 -73t-77 -122.5t-47 -186.5z M340 626q6 74 37 142q33 70 71.5 108.5t78.5 57t75 19.5t57 -1q47 -8 86 -41.5t89 -117.5q23 -41 30 -99q5 -51 5 -101v-15q-1 -58 -8 -108t-15 -77q-14 -49 -38 -71.5t-38 -18.5q-2 8 -2 19q-4 6 -4 19.5t-8 31.5q-10 27 -13.5 42t-13.5 15q-12 0 -10 -12t-4 -21 q-6 -8 -18.5 -10t-24.5 -6q-12 -12 26 -43q18 -16 17.5 -28.5t5.5 -41.5q2 -33 -6 -44t-25 -27q-20 -23 -34.5 -19t-49.5 4q-20 0 -50 14.5t-60.5 34t-56 41t-38.5 39.5q-14 16 -31.5 64.5t-26.5 112.5q-5 39 -5 81q0 28 2 57zM385 629q-9 -40 -9 -76q0 -40 12 -75 q22 -64 52 -105q43 -51 92 -84l-10 10q-12 12 -20 25q-2 4 -15.5 19t-30 43t-28.5 75t-14 123q-3 22 -3 43q0 47 15 86q23 57 47 100q29 41 70 78q-4 2 -23.5 -6t-45 -39t-50.5 -84t-39 -133zM559 4q29 -1 54 -1t46 1q39 0 74 4t43 10v9l-12 8q-18 0 -70.5 -15.5 t-70.5 -15.5h-64zM682 1149q47 -16 94 -47q39 -25 83 -64t85 -94q72 -113 79 -220.5t15 -193.5v-14q0 -38 -9 -77q-11 -46 -24.5 -86t-27.5 -66.5t-14 -34.5q-6 -10 2 -32.5t14 -55.5q8 -35 6 -44t-12 -24q-8 -16 -13.5 -14t-19.5 -6q-14 -2 -12 -6t10 -21q2 -6 6 -6 q13 0 19 6q6 4 15 26.5t15 39.5q6 8 2 32.5t-8 49.5q-8 27 -10 55l24 31q12 10 20.5 43.5t13.5 71.5t9.5 70t4.5 48q0 14 2 52q1 12 1 25q0 30 -4 67q-4 55 -22 119.5t-53 133.5q-41 66 -90 112t-92 75q-57 33 -109 49z" />
<glyph unicode="r" horiz-adv-x="1224" d="M-53 -664v2503h1294v-2503h-1294zM250 276.5q0 -49.5 2 -94.5t10 -61q14 -27 14 -29t25 -10q25 -6 48.5 13.5t27.5 45.5q2 25 -13.5 60t-15.5 51q0 12 3 36.5t5 52.5t4 50.5t2 32.5q-4 20 -6 51t11 41q12 6 66 6t79 8q31 4 56.5 16.5t56.5 -1.5q14 -8 32.5 -44t38 -81 t38 -88t28.5 -68q10 -27 24.5 -62.5t33 -66.5t38 -50t37.5 -9q39 18 45 37.5t-2 50.5q-4 10 -21.5 35.5t-40 57.5t-44 63.5t-31.5 62.5q-41 113 -41 129q0 12 -3 15t5 10q2 6 31.5 27.5t61.5 61.5q31 40 57 84q22 38 23 77q0 6 -1 12q-2 86 -36 143t-69 84q-31 31 -54 44 t-44 15q-16 8 -12 11.5t-12 -2.5q-6 -6 -46 -7.5t-84.5 -1.5t-90.5 -1t-62 -1h-87t-58 -4q-16 -10 -22.5 -53t-6.5 -74v-95t2 -173t2 -171v-91q0 -10 -2 -53t-2 -92.5zM311 106q16 -16 31 -30q35 -25 47 -8q8 12 17.5 42.5t15.5 69.5l12 78t6 68q-4 27 -2 48t2 38q0 18 6 32 l19 -10q31 -14 47 -12q20 2 5 20.5t-32 18.5q-23 0 -42 11t-40 20q-16 6 -15 -16t1 -32q0 -6 3 -40.5t6 -78.5t7.5 -83t4.5 -54q2 -31 1 -45t-16 -30q-16 -18 -16 -20.5t-12 -2.5t-33 6q-16 6 -23 10zM350 659q-4 4 -4 12.5t4 22.5q8 27 15 37q8 12 5 18.5t-5 26.5 q0 10 -3.5 31.5t-5.5 45.5t-4 42t-2 20q0 23 4 33q10 12 43 0q14 -8 21.5 -5t27.5 3q16 0 36 3t38 3q16 0 60.5 -3t58.5 3q6 8 14.5 9.5t28.5 3.5q41 0 86 -27q25 -14 39 -46t18 -69q2 -11 2 -21q0 -26 -14 -54q-20 -38 -49 -64q-27 -25 -69 -32q-33 -5 -68 -5h-21 q-20 0 -50 6t-56.5 10.5t-46 8.5t-25.5 4q-4 0 -37 -14.5t-41 -2.5zM397 887q-3 -3 -3 -8q0 -7 6 -15q12 -16 12 -26q0 -8 12 -21l4 -4q-8 12 -12 27q-14 25 0 34q12 4 41 5h28l-45 8q-16 4 -29.5 4t-13.5 -4zM401 739l27 -18l109 -6q-27 2 -50 10q-16 6 -34.5 12t-24.5 15 l-12 18l-4 6q0 -12 -9 -24q-2 -8 -2 -13zM748 1145q53 -31 98 -62q39 -31 72.5 -68.5t44.5 -84.5q11 -54 11 -111q0 -39 -6 -79q-12 -98 -53 -132q-39 -31 -66.5 -57.5t-27.5 -34.5t16.5 -45t43.5 -82q27 -51 61 -115q-27 61 -43 111q-18 45 -28.5 83t-8.5 48q2 6 24.5 31.5 t48.5 62.5t43 85q15 43 15 87v11q-6 51 -9 94t-24.5 85t-70.5 83t-141 90zM926 51q-1 -2 -1 -3q0 -3 4.5 -3t12.5 3q20 7 39 40q14 27 14 53q0 14 -2 25l-8 -45q-4 -16 -9 -30.5t-15 -22.5q-18 -10 -23.5 -10.5t-11.5 -6.5z" />
<glyph unicode="s" horiz-adv-x="1230" d="M-45 -664v2503h1296v-2503h-1296zM213 395q0 -31 14.5 -72.5t44 -83.5t66.5 -75t84 -53q44 -23 102 -28q29 -2 57 -2t55 2q54 5 101 22.5t76 39.5q53 47 93 117q33 58 33 119q0 12 -1 25q-6 76 -45 129t-64 81q-29 29 -48 42.5t-27 9.5q-2 -6 -2 -19q0 -2 2 -4 q-23 -4 -39 0q-35 0 -72 12q-29 10 -83 18.5t-89 26.5q-37 16 -33 16.5t-16 4.5q-12 4 -47 34.5t-35 73.5q0 23 20.5 42.5t47 37t55.5 30.5t47 15q36 8 96 12q12 1 21 1q43 0 63 -15q29 -14 56.5 -44.5t37.5 -51.5q8 -16 6 -32.5t19 -32.5q14 -14 37 -15q8 0 16 6 q23 8 38 44q8 19 8 38q0 18 -7 37q-4 16 -25.5 47t-52 61.5t-67.5 57.5t-86 35q-22 4 -51 4t-65 -4q-73 -8 -139.5 -38t-114.5 -84t-48 -132q0 -84 22.5 -133t53 -79t67.5 -40t66 -18q31 -6 77 -13.5t94 -16.5t87 -20.5t57 -25.5q34 -30 48 -88q6 -25 6 -46q0 -27 -11 -46 q-14 -35 -71.5 -82t-157.5 -47q-49 0 -80 5t-49.5 14t-30.5 24.5t-29 31.5q-29 35 -40 48.5t-11 31.5q0 16 11.5 27.5t3.5 28.5q-8 20 -18.5 21t-14.5 9q-10 6 -16.5 16.5t-4.5 26.5q0 14 8 27l3 12q-8 -4 -19 -6q-20 -8 -20 -23q-4 -10 4 -18q2 -4 2 -6q-18 6 -37 0 q-12 -8 -25.5 -22.5t-13.5 -47.5zM322 532q-3 0 -3 -1q0 -2 8 -9q13 -10 23 -24q14 -16 38 -78t48 -88q16 -14 39 -18.5t47 -4.5h62q-18 6 -35 6h-28.5t-22.5 2q-14 2 -31.5 9.5t-30.5 15.5q-10 8 -22.5 43t-18.5 55q-8 16 -20 35q-4 12 -10 14q8 -2 22 -8q8 -2 19.5 -2 h15.5q10 0 22.5 -2t28.5 -2h41q-18 4 -33 12q-14 2 -29.5 6.5t-19.5 8.5q-20 2 -60 16t-50 14zM397 803q8 -23 30 -34t46.5 -16t48 -6.5t35.5 -1.5q8 -4 30.5 -4h47.5q30 0 57 -2l-26 15q-23 10 -45 16q-6 0 -31 5t-54.5 11.5t-53 17.5t-29.5 21q-18 29 8 48.5t57 18.5h82 q-20 2 -43 9q-16 2 -38.5 3t-37.5 1q-33 -3 -65 -33q-23 -21 -23 -46q0 -11 4 -23zM481 27q2 1 43 -5q23 -3 49 -4q21 0 47 2q56 4 120.5 20.5t119.5 55.5q53 39 84 94.5t44 110.5q12 55 16 103q1 16 2 29q0 26 -5 42q-4 23 -22 57.5t-41 63.5t-42.5 50.5t-29.5 15.5 q-12 -4 11 -17l22 -14q33 -43 53 -88q18 -39 30 -93q6 -29 5 -59q0 -25 -4 -51q-25 -117 -71 -162t-99 -78q-55 -31 -116.5 -52t-100.5 -21t-81 3q-35 3 -35 -1q0 -1 1 -2zM618 1174q63 -23 119 -41q47 -20 88 -45t60 -48q14 -25 21 -39t16 -26q6 -12 6 -19l4 -20l8 -16 q8 -31 12 -56q6 -23 1 -46t-17 -34q-20 -14 -29.5 -17t-17.5 -9l-12 -2q0 -14 12 -24q7 -5 12 -5q4 0 8 4q6 8 30 32.5t24 53.5q0 10 -1 29.5t-4 40.5q-6 18 -10 41q4 0 10 4q10 10 11 10q0 6 -17 12l-14 9q-2 2 -6 10q-8 8 -4 16t-31 52t-61 61q-31 18 -92.5 43.5 t-77.5 25.5h-35q-10 0 -13 3z" />
<glyph unicode="t" horiz-adv-x="1249" d="M-33 -664v2503h1297v-2503h-1297zM238 1065q0 -25 30.5 -55.5t40.5 -36.5q6 -6 26.5 -7t44 -2t44 -1t25.5 2q16 8 23 18t44 10q14 0 22.5 -15t13.5 -39t7 -49.5t6 -43.5q3 -12 3 -51q0 -19 -1 -45q-2 -78 -6 -169.5t-9 -183.5t-9 -135q-3 -31 -3 -56q0 -47 12 -73 q19 -39 36 -45q4 -1 8 -1q14 1 34 11q26 14 36 25q8 8 4 25.5t-13 37.5l-14 60v717h12q8 0 13.5 1t13.5 1q20 -2 28.5 -8.5t32.5 -6.5q27 0 29 2t19 11q20 2 46.5 6t45.5 -13q18 -14 27.5 -10t41.5 8q38 8 50 39q4 10 4 25q0 30 -17 78q-9 31 -31 40q-16 6 -31 6 q-7 0 -15 -1q-24 -4 -43 -15.5t-29 -13.5q-18 -8 -51 -8h-54q-16 -2 -30 -6q-12 -2 -31 -2h-35q-20 0 -75.5 1t-117 4t-111.5 6t-61 3q-23 0 -28.5 -11.5t-7.5 -33.5zM705 115q12 0 20 16q6 8 10 35q2 14 2 33t-2 43q0 51 -2 156.5t-2 212v188.5v88q0 16 19 16h36.5t66.5 4 t66.5 6t41.5 7q23 16 36 30q12 12 17 23q-8 -16 -25 -25q-30 -28 -65 -28h-2q-20 0 -55.5 3t-69 3h-59t-29.5 -6q0 -203 4 -361q0 -72 2 -138.5t3 -120.5t1 -91v-39q0 -20 -6 -39q-4 -12 -8 -16z" />
<glyph unicode="u" horiz-adv-x="1208" d="M-57 -664v2503h1297v-2503h-1297zM231 1071q-4 -8 -4 -20q-1 -19 9 -51q16 -50 16 -105v-69.5v-119t1 -139t7 -142.5t17.5 -119t23.5 -64q23 -23 61.5 -53.5t91.5 -52.5q52 -22 112 -28q11 -1 22 -1q50 0 104 20q129 51 188.5 95t63.5 83q0 39 -8 76t-10 47v67.5v139.5 v144.5v84.5q8 31 16 87.5t16 76.5q2 23 -15.5 67t-31.5 46q-14 0 -37.5 -16.5t-39.5 -45.5q-8 -15 -10 -83q-1 -31 -2 -65q0 -42 2 -89q2 -86 6 -170q1 -28 2 -51q0 -46 -5 -72q0 -45 -1 -98.5t-13 -100.5t-45 -83t-98 -48q-66 -10 -98.5 -12t-49 4t-19.5 14t-14 17 q-18 14 -18 19t-10 3q-12 -6 -29.5 12.5t-38.5 36.5q-16 18 -17 30.5t-1 21.5q2 6 8 14t-4 35q-4 27 -12.5 61.5t-8.5 77.5q0 23 -2 89.5t-2 139v130t4 65.5q4 10 17.5 45t1.5 57q-23 54 -56 54h-6q-16 -4 -43.5 -21.5t-40.5 -40.5zM420 510q-4 -32 -4 -57q0 -34 8 -52 q6 -20 14 -26q0 68 2 129q0 49 2 102t2 80q0 31 -2 95.5t-6 136.5q-8 84 -16 176q0 -4 2 -82t4 -178q1 -50 1 -98.5t-1 -94.5q-2 -92 -6 -131zM592 18q86 8 160 37q66 25 131 70t100 129q18 63 22.5 191t4.5 253q-1 150 -9 322v-313v-120t-2 -105t-3 -78.5t-1 -36.5 q-6 -14 -10 -46t-19.5 -70t-43 -75t-74.5 -63q-51 -29 -97 -44.5t-81 -27.5q-39 -14 -78 -23z" />
<glyph unicode="v" horiz-adv-x="1243" d="M-35 -664v2503h1299v-2503h-1299zM215 1008q10 -29 46 -128.5t79 -214t81 -209t48 -118.5q20 -51 36.5 -91t24.5 -59q4 -8 14.5 -21t26 -26.5t34 -21.5t32.5 -4q25 4 40 17t15 46t-3 48.5t7 27.5q2 8 30 83t55.5 168t53 174t33.5 101q8 16 18.5 47t23 62t21.5 55.5 t15 34.5q10 12 25.5 38t19.5 40q2 12 -9 30.5t-24.5 33t-27.5 19.5q-10 4 -19 4q-3 0 -6 -1q-20 -8 -36.5 -43t-24.5 -92q0 -27 -25.5 -112t-56.5 -181.5t-61.5 -181t-45.5 -113.5q-25 -57 -41 -95t-28 -44q-10 0 -25.5 34.5t-23.5 49.5q-6 14 0 34.5t-2 38.5 q-8 10 -23.5 44t-35 81t-41 96.5t-32.5 88.5q-20 78 -42.5 139t-22.5 92q0 12 -2 38.5t-12.5 54.5t-22.5 49.5t-27 21.5q-6 1 -11 1q-25 0 -41 -32q-12 -24 -12 -58q0 -21 5 -46zM395 1069l70 -213q31 -84 54.5 -156.5t25.5 -81.5q6 -31 16 -53q8 -14 12 -24q2 6 -10 50 t-29.5 100.5t-34 104.5t-18.5 60q-6 4 -18 41t-29 76q-20 45 -39 96zM616 39q18 2 37 10q14 6 29.5 13.5t26.5 25.5q8 6 34.5 79t63.5 176t76 219t71 218t54 172q18 59 19 77q0 3 -1 5q-72 -225 -133 -407q-25 -76 -50.5 -151t-45 -137.5t-31.5 -102t-18 -48.5 q-8 -27 -24.5 -54.5t-27.5 -33.5q-14 -8 -26 -8h-11q2 -8 3 -14q0 -20 -9 -23z" />
<glyph unicode="w" horiz-adv-x="1220" d="M-43 -664v2503h1298v-2503h-1298zM133 1038q-2 -4 -2 -14q0 -15 4 -45q6 -49 13.5 -118.5t17.5 -151.5t19.5 -156t17.5 -127t10 -72q6 -51 10 -98t4 -57v-38t25 -44q29 -12 56.5 -3t51.5 60q12 25 25.5 63.5t31 77.5t32 71t34.5 52q29 31 44.5 48.5t15.5 43.5 q2 20 -9.5 27.5t-17.5 28.5q-8 14 -2 38.5t23 26.5q14 6 35.5 -21.5t33.5 -41.5q8 -6 34 -42t54.5 -83t54 -86t27.5 -51q2 -10 13.5 -46t29 -74t34.5 -63.5t36 -19.5q20 8 27.5 31.5t7.5 56.5v64.5t4 56.5t11 111.5t14.5 184t15.5 182.5t18 103q19 39 35 84q11 32 12 53 q0 8 -2 15q-8 23 -26.5 43t-30.5 20q-14 0 -44 -46t-30 -93q0 -23 -6 -101.5t-15.5 -170.5t-20.5 -172t-13 -103q-9 -39 -9 -62q0 -27 -24 -11q-29 12 -49.5 26.5t-24.5 38.5q-8 27 -14 51.5t12 24.5q16 0 23.5 1t7.5 19q0 16 -18.5 48t-34.5 55q-14 25 -36 51.5t-26 50.5 q-2 31 -10 70t-14 51q-2 10 -8.5 25.5t-14.5 13.5q-4 -6 -13 -16.5t-15 -12.5q-8 -8 -37 -35.5t-29 -56.5q-4 -18 -9 -48t-14 -52q-6 -23 -3 -32t-3 -30q-10 -16 -35.5 -31.5t-33.5 -33.5q-2 -12 -13.5 -36t-23.5 -47.5t-25.5 -44t-17.5 -32.5q-18 -18 -14 -24.5t-7 2.5 q-8 4 -12 28.5t-12 58t-11.5 65.5t-3.5 48q0 20 -5 68.5t-11 105t-10 103.5t-4 61q6 27 8 80t2 74q0 20 -20.5 42.5t-28.5 26.5q-14 2 -39 -28.5t-33 -59.5zM315 1067q8 -68 19 -129l8 -98q2 -24 2 -41t-2 -27q-4 -16 -4 -37.5v-38.5v-37q4 27 12 50q8 16 11.5 32.5 t3.5 24.5q0 6 -9.5 54t-17.5 102zM324 68q-2 -11 9 -11q1 1 3 1q14 2 47 34q14 16 37.5 59.5t44 91.5t39 85t20.5 45q8 6 13.5 22.5t9.5 34.5q8 20 14 47q-39 -90 -78 -164q-33 -68 -63.5 -126t-42.5 -78q-27 -35 -35 -34t-18 -7zM643 891q23 -39 39 -72q18 -29 31.5 -53.5 t17.5 -32.5q6 -8 14.5 -26.5t18.5 -38t15 -33.5t5 -10q0 2 -17 43t-42 89t-48.5 90t-33.5 44zM901 113l14 -21q13 -19 27 -19q3 0 6 1q49 8 53 96q0 23 8.5 89.5t15.5 142t14.5 141t9.5 82.5q0 18 4 79.5t10 129.5q8 80 12 178q-6 -98 -18 -178q-8 -68 -14.5 -129.5 t-6.5 -77.5q0 -14 -7 -78t-14 -140.5t-14.5 -138t-7.5 -71.5q0 -16 -5 -47t-19 -43q-23 -23 -47 -15q-8 4 -15 12q-6 2 -6 7z" />
<glyph unicode="x" horiz-adv-x="1230" d="M-45 -664v2503h1298v-2503h-1298zM240 1022q4 -20 27.5 -56t54 -74t57.5 -74t43 -58q33 -41 75 -87t48 -57l10 -16q-2 -8 -10 -22q-8 -18 -21 -31q-8 -8 -28.5 -35t-32.5 -37q-8 -4 -27.5 -28.5t-44 -55.5t-47 -61.5t-35.5 -46.5q-18 -31 -40.5 -60.5t-16.5 -58.5 q2 -26 36 -48q14 -9 27 -9q19 0 37 18q27 31 38 72t54 96q47 59 78 98t39 55q2 16 4 18.5t-16 10.5q-33 4 -21 23q8 4 16.5 21.5t18.5 19.5q6 0 11.5 5t15.5 15q4 4 16 12v-30q0 -33 8 -43q2 -10 20.5 -39t41 -63t43 -65.5t33.5 -47.5q25 -31 45 -66t32 -53 q10 -18 21.5 -34.5t26.5 -25.5q14 -10 35.5 -10t39.5 19q34 22 34 55q0 5 -1 10q-8 20 -53 58t-72 77q-14 16 -41.5 54.5t-57.5 75t-52.5 70.5t-28.5 40l-12 18q4 4 8 13q2 2 3 5t11 7q2 2 6 3t6 7q4 2 9 2q-4 4 -11 8q-14 6 -22 0q-6 -8 -23 -16q-6 -2 -8 -2l-16 18 q8 4 18 15q6 6 17.5 16t23.5 21q10 8 28.5 34.5t36 57.5t33 57.5t27.5 40.5q18 27 62.5 69t56.5 56q27 30 31 55q8 31 -13.5 54.5t-27.5 35.5q-10 10 -11 17v10l-14 -4q-14 -8 -14 -18q-8 -4 -32 -30t-36 -44q-6 -12 -25.5 -45t-44 -75t-48 -81t-35.5 -59q-25 -39 -47.5 -70 t-26.5 -47l-12 -23q0 2 -3 9q-6 2 -12 16q-10 8 -27.5 27.5t-7.5 25.5q8 8 14.5 4t10.5 13q2 14 -7 29.5t-28 31.5q-10 14 -37.5 41t-50.5 66q-16 37 -39.5 87t-34.5 72q-4 20 -10 26.5t-16 16.5q-12 8 -13 4v-8q-27 -12 -47 -26q-32 -25 -32 -57q0 -7 2 -15zM309 51 q12 2 29 4q25 8 33 21q6 2 36.5 44t64.5 89t62 93q23 38 22 54q0 4 -1 6q-39 -70 -76 -122q-27 -47 -57.5 -87t-38.5 -49q-16 -14 -31 -14q-8 0 -14 2zM440 1081q37 -51 62 -92q23 -43 41 -81q13 -29 13 -51q0 -7 -1 -13q0 -8 7 15.5t1 31.5q-2 2 -20.5 32.5t-40.5 67.5 q-25 39 -62 90zM740 606q8 -18 14 -31q6 -8 31.5 -42.5t55 -75.5t51 -72t17.5 -18q-8 10 -26.5 36.5t-38 55t-35.5 54.5t-16 34q-6 14 -10.5 29.5t-10.5 21.5l-12 14q-6 4 -8 4l221 355q-63 -86 -111 -152q-45 -61 -77.5 -116.5t-43.5 -59.5q-5 -11 -5 -21q0 -8 4 -16z M948 55q4 -2 8 -2q5 0 9 23q0 2 -2 2t-7 -8z" />
<glyph unicode="y" horiz-adv-x="1241" d="M-33 -664v2503h1293v-2503h-1293zM254 1069q-2 -18 17.5 -60t50 -89.5t62.5 -95.5t54 -74q45 -59 83 -108.5t40 -55.5q0 -6 1 -53.5t4 -104.5t3 -110.5v-65.5q0 -14 -4 -44t-3 -56.5t16.5 -48t52.5 -21.5t46 21.5t8 48t-8 56.5t-9 44q-6 12 -9.5 54t-5.5 92q-1 26 -1 50 t1 46q2 45 9 67q8 18 39.5 66.5t73.5 106t80 106.5t52 65q27 33 64 76t37 66t-23.5 42t-32.5 31q-5 4 -11 4q-10 0 -25 -10q-23 -16 -46 -51q-10 -16 -31.5 -52t-44 -74t-40 -69.5t-23.5 -48.5q-8 -8 -26.5 -33.5t-38 -49t-36 -44t-18.5 -20.5q-14 -4 -20 -4t-8 20 q-8 14 -8.5 24.5t-6.5 30.5q-6 10 -25.5 35t-43 50.5t-43 50t-25.5 34.5q-8 10 -16 36t-17.5 56.5t-23 55t-23.5 33.5q-23 18 -56.5 14t-41.5 -39zM459 1044l139 -217q-4 8 -23.5 42t-50.5 73q-30 43 -65 102zM686 63q14 6 31 23q12 14 21.5 34.5t9.5 63.5q0 33 3 97.5 t3 128.5v159q70 102 131 193q49 76 93 143.5t44 71.5q-78 -111 -143 -203q-55 -82 -100.5 -143.5t-45.5 -69.5v-71.5t4 -143.5q0 -94 6 -207q-10 -14 -14 -24q-12 -23 -20 -29z" />
<glyph unicode="z" horiz-adv-x="1245" d="M-33 -664v2503h1301v-2503h-1301zM287 1116q6 -22 6 -37v-71h145h109.5t64.5 2q25 8 35 4t27 4q16 6 50 12t50 -20q18 -27 10 -49.5t-14 -28.5q-2 -2 -49 -62.5t-104.5 -134t-110.5 -138.5t-68 -83q-16 -16 -39.5 -57t-46 -80t-36 -71t-13.5 -38q0 -12 -11 -56 q-6 -23 -6 -40q0 -16 5 -27q12 -20 48 -22t58 -2q8 0 66.5 -2t126 -4t126 -5.5t72.5 -3.5q34 0 54 -8q14 -5 33 -5q10 0 22 1q33 8 59.5 42t26.5 77q0 41 -43 52q-15 4 -30 4q-26 0 -48 -13q-16 -8 -55 -16.5t-81 -12.5t-80 -7t-48 3q-25 2 -51.5 16.5t-42.5 8.5 q-14 -8 -28.5 -15.5t-33.5 -7.5q-18 0 -46.5 9.5t-28.5 19.5q0 2 33.5 50t73.5 103.5t81 105.5t57 71q14 16 61.5 78.5t96.5 131t89 125t48 64.5q12 12 24.5 49t12.5 60q0 18 -30 48q-28 29 -44 29h-2q-18 -2 -32.5 -17t-34.5 -15q-4 0 -58.5 -2t-119 -2t-121 -1.5 t-64.5 -1.5q-10 0 -29.5 1.5t-35.5 5.5q-22 4 -49 8q-10 0 -20.5 4t-14.5 -4q-5 -5 -5 -14q0 -6 3 -15zM500 338l98 14q-14 -8 -25 -8q-23 0 -14 25q2 16 51 84.5t106.5 146.5t106.5 147.5t60 83.5q10 14 31.5 44t41.5 62q19 31 30 65q5 16 5 31t-6 28q-2 -25 -4 -45 q-8 -20 -14 -40t-17 -32q-6 -10 -37.5 -53t-78 -101.5t-96.5 -125t-94 -126t-74.5 -99.5t-32.5 -48q-8 -12 -12.5 -20.5t-12.5 -16.5q-8 -10 -12 -16z" />
<glyph unicode="~" horiz-adv-x="1251" d="M-33 -664v2503h1297v-2503h-1297zM328 414q-12 -33 11 -44.5t44 -19.5q23 -6 39 -6t31 16q10 23 12 36.5t10 23.5q6 4 21.5 19.5t31.5 21.5q23 10 47.5 10t36.5 -8q2 -4 17.5 -21.5t38 -37t47 -35t51.5 -19.5q25 -4 53.5 8.5t54 30t45 32.5t21.5 23q10 10 5 33t-13 31 q-4 6 -14.5 -2t-16.5 -21l-22 -26v-15q0 -20 -17 -36q-18 -18 -21 6t-18 32q-16 8 -28.5 -8t-46.5 -2q-35 18 -66 68.5t-82 56.5q-25 0 -55.5 -9t-61 -26.5t-53 -34t-31.5 -28.5q-16 -12 -30 -12q-6 0 -7 4q-8 -4 -12 -11q-8 -8 -14 -15t-8 -15zM504 406l92 4l-10 10 q-8 2 -33 2q-25 -2 -37 -12zM868 346q-6 -2 12.5 1t41 13.5t45 28t26.5 35.5q23 90 -16 76l8 -11v-28q0 -25 -8 -47q-8 -16 -17.5 -22.5t-29.5 -10.5q-16 -10 -31.5 -20.5t-30.5 -14.5z" />
<glyph unicode="&#xa0;" horiz-adv-x="1236" d="M-41 -664v2503h1298v-2503h-1298z" />
<glyph unicode="&#xa1;" horiz-adv-x="1222" d="M-35 -664v2503h1299v-2503h-1299zM530 905q0 -12 15 -35q8 -12 16 -18q-12 14 -6 57.5t-2 63.5l-12 24q-2 6 -2 9q-6 -8 -7 -19v-35q0 -8 -1 -17t-1 -30zM549 358.5q0 -53.5 4 -61.5q8 -25 36.5 -52.5t47.5 -27.5q18 0 23.5 23.5t13.5 38.5q-6 102 -6 188q-2 72 -2 134.5 v70.5q0 12 -15.5 23.5t-39 12.5t-40 -6t-16.5 -38q0 -16 -1 -74t-3 -118t-2 -113.5zM555 1022q0 -18 33 -35q15 -12 35 -22q0 -8 -8.5 -11.5t-17.5 -8.5t-16.5 -11t-7.5 -21q4 -27 9.5 -54.5t23.5 -27.5q6 0 29.5 7.5t43 21.5t34 40t10.5 65q-8 72 -47 87t-70 13 q-51 -12 -51 -43zM643 184q8 -12 24.5 -17t8.5 5q-2 8 -21.5 15t-11.5 -3zM711 219l2 4q8 8 8 13q0 12 -8 -3q-2 -6 -2 -14zM714 546q-1 -38 1 -57q0 -18 3 -52t3 -72v-95q0 68 2 125q0 51 2 94t2 56v135q0 6 -2 10t-2 10v17h-8v-94q0 -39 -1 -77z" />
<glyph unicode="&#xa2;" horiz-adv-x="1187" d="M-86 -664v2503h1298v-2503h-1298zM274 618q0 -123 27 -174t55 -75q31 -31 72 -52.5t59 -31.5q18 -8 25.5 -8.5t9.5 -16.5v-35.5v-50.5t4 -50.5t17 -31.5q18 -14 45.5 -4t34.5 25q16 31 -2 73q-6 18 -20.5 36t5.5 26q16 8 61.5 6t61.5 6q10 2 36 17.5t50.5 36t47 44 t26.5 50.5q12 49 -13.5 65t-41.5 23q-18 6 -40 -5.5t-30 -25.5q-2 -8 -18.5 -31.5t-43 -48.5t-61.5 -38t-72 1q-35 14 -75.5 34.5t-73.5 48.5t-55.5 70t-22.5 101q0 57 22.5 101.5t51 74t54.5 47t36 19.5q8 2 30.5 5t46 4t44 1t32.5 -2q18 -10 55.5 -29.5t47.5 -31.5 q10 -10 20.5 -22.5t20.5 -20.5q20 -6 58 11t46 60q2 23 -17.5 42.5t-47 35.5t-57 24.5t-44.5 16.5q-35 12 -68.5 14t-51.5 2q-16 0 -20.5 23.5t3.5 36.5q4 10 15.5 43t-3.5 53q-12 27 -21 42t-28 5q-23 -8 -39 -17.5t-16 -39.5q0 -29 4 -60.5t4 -42.5q0 -16 1 -30.5 t-9 -24.5q-14 -12 -32.5 -21.5t-51.5 -17.5q-16 -4 -41 -26.5t-50.5 -59.5t-44 -90t-18.5 -109zM418 602l8 45q0 -8 -4 -14q-10 -21 -4 -31zM426 674l49 69l-24 -32zM700 213q-10 -12 5.5 -10t23.5 10q2 0 29.5 9t59.5 28.5t62 50.5t40 72q-20 -25 -41 -43 q-16 -20 -30.5 -39t-23.5 -27q-16 -12 -63 -25.5t-62 -25.5z" />
<glyph unicode="&#xa5;" horiz-adv-x="1243" d="M-35 -664v2503h1295v-2503h-1295zM258 1071q-4 -16 15.5 -58t49 -90.5t60.5 -95.5t53 -75q41 -61 81 -110.5t44 -55.5h-16h-36h-47.5h-46h-30.5q-16 -4 -12 -14.5t8 -18.5q8 -6 25.5 -4t15.5 -4q-8 -10 -21 -21l-12 -8q2 -4 10 -16q14 -23 23 -25q8 -8 43 -4t63 4h33 q2 -18 2 -49q-8 2 -18 2q-12 2 -36 2h-47.5h-46t-30.5 -2q-16 -8 -12 -16.5t8 -16.5q8 -6 25.5 -5t15.5 -7q-8 -8 -21 -16l-12 -9q2 -6 10 -16q14 -23 23 -25q8 -10 43 -5t63 5h35v-67q0 -14 -3 -41t-1 -54.5t17.5 -48t50.5 -20.5q37 0 46 20.5t8 48t-8 54.5t-9 41 q0 8 -3.5 26.5t-3.5 40.5h142q14 0 21 -7t32 -5q25 6 40 26.5t15 43.5q4 20 -4 40.5t-39 30.5t-60.5 -5t-39.5 -15h-113v49h148q14 0 21 -7t32 -3q25 8 40 27.5t15 42.5q4 18 -4 35.5t-39 27.5q-31 12 -60.5 -1t-39.5 -13h-94q12 23 47 73t72.5 101t71.5 95t42 56 q31 35 67 75t36 63t-22.5 42t-33.5 35q-12 8 -36.5 -7t-45.5 -50q-10 -20 -30.5 -54t-42 -73t-42 -70.5t-26.5 -46.5q-8 -14 -26.5 -37.5t-38 -48t-36 -43t-18.5 -18.5q-14 -4 -18 -4t-10 12q-4 20 -6.5 31.5t-10.5 27.5q-2 10 -21.5 34t-43 50.5t-43 53t-27.5 37.5 q-6 10 -14 35.5t-16.5 56t-19.5 56.5t-24 30q-25 20 -56.5 16t-39.5 -41zM453 281q8 -6 18 -7q23 1 31 9zM459 1047l135 -218q-2 8 -23.5 43t-46.5 74q-26 46 -65 101zM682 66q20 8 35 22q10 14 18 36.5t15 57.5v27t1 12t1 22.5v47.5l-19 4q0 -47 2 -77t2 -46v-31 q-4 -14 -10 -24l-13 -19.5t-9 -9.5q-2 -8 -6.5 -9t-8.5 -5zM766 614l8 -10q25 37 67 97.5l84 121t69.5 104.5t27.5 52q-49 -78 -96 -141q-39 -57 -84 -119t-76 -105zM911 467q8 -2 11 -10q4 -6 12 -29q2 -12 2 -45v-31q0 16 2 37q0 14 3 30.5t-3 22.5q-8 14 -8 25v10 q6 14 14 31q10 20 2 45v-9t-8 -28q-4 -16 -6 -25.5t-10 -15.5q-8 -8 -11 -8zM946 553v6v-6z" />
<glyph unicode="&#xa8;" horiz-adv-x="1222" d="M-41 -664v2503h1298v-2503h-1298zM338 1395q0 -20 4 -30.5t4 -16.5v-31q0 -14 2 -25q0 4 2 11q6 8 6 14t6 10q2 12 8.5 33.5t14.5 48.5q0 -8 -2 -11t-2 -12q-4 -29 8 -40t8 -23q-10 -8 -16 -18q-18 -8 -19 -25q0 -39 56 -41q27 -8 67.5 9.5t46.5 90.5q2 35 -12 60.5 t-35.5 41t-41 22.5t-31.5 7q-6 0 -15 -10q-10 -2 -34.5 -15t-24.5 -50zM674 1395q0 -20 4 -30.5t4 -16.5v-31q0 -14 2 -25q0 4 4 11q2 8 2 14t8 10q4 20 -2 63.5t6 57.5q-6 -8 -14 -16q-14 -23 -14 -37zM698 1280q0 -39 56 -41q29 -8 67.5 9.5t46.5 90.5q2 35 -11 60.5 t-35.5 41t-42 22.5t-29.5 7q-16 0 -22.5 -28.5t-8.5 -55.5q0 -14 7 -19t17.5 -9t17.5 -7t7 -12l-35 -22q-35 -17 -35 -37z" />
<glyph unicode="&#xa9;" horiz-adv-x="1234" d="M-33 -664v2503h1299v-2503h-1299zM240 463q14 -131 61 -205t107.5 -109.5t127 -40t124 4t93 26t38.5 19.5l12 16q39 47 71 107q29 49 50.5 110.5t25.5 124.5q2 68 -13 141.5t-37.5 143t-46.5 125t-38 78.5q-29 51 -58.5 85.5t-43.5 26.5q-10 -6 -5 -17.5t-10 -11.5h-36.5 t-65.5 -1t-72 -7t-55 -16q-23 -12 -70 -35.5t-88 -84t-65.5 -174.5t-5.5 -306zM291 608q-4 78 25.5 142.5t68.5 108.5t75 68.5t44 28.5q16 16 47 29.5t90 -6.5q27 -10 68 -31.5t76.5 -64.5t61 -114t27.5 -173q0 -104 -22.5 -174t-54 -113t-73.5 -65.5t-77 -36.5 q-35 -10 -67.5 -5t-59 16t-43 25.5t-16.5 16.5q-4 12 -11.5 17.5t-25.5 13.5q-6 2 -26.5 21.5t-42 60.5t-41 99t-23.5 136zM392.5 607q-7.5 -77 39.5 -156q39 -74 98.5 -103t126.5 -6q33 10 66 46t43 122v4q8 27 -10 47l-6 2q-8 0 -20.5 -2t-16.5 -14q-6 -6 -6 -14.5 t-2 -18.5q-2 -14 -4.5 -29.5t-6.5 -21.5q-6 -10 -39.5 -42t-76.5 -28q-49 8 -92.5 65.5t-47.5 139.5q-4 47 14.5 81t36.5 56q20 25 52 39q6 4 26.5 2t40 -5t38 -7t20.5 -8q8 -8 12 -17.5t10 -17.5l2 -12q0 -23 12 -31q4 -8 10.5 -12t14.5 -7q8 0 14 9q8 2 15.5 23.5 t-4.5 47.5q-8 8 -23.5 26.5t-35 39t-36 35t-20.5 14.5l-8 6q-3 4 -13 0q-8 -4 -23 -5t-24 -1q-29 -2 -59 -20q-25 -8 -50.5 -30t-39.5 -61q-20 -59 -27.5 -136zM466 570.5q5 -46.5 28 -78.5q23 -31 47 -39q14 -8 24 -2q-31 16 -47 38q-18 16 -28.5 47t-0.5 70q18 78 28.5 83 t17.5 5q8 0 16 -5t18 18q-23 2 -37 0q-39 -8 -53 -45q-18 -45 -13 -91.5zM655 1171q113 -59 203 -141q70 -74 124 -180.5t32 -251.5q-20 -143 -36.5 -218t-30 -111t-27 -49t-29.5 -25q-16 -14 -48 -38t-69 -46q-39 -25 -86 -54q88 6 162 68q61 49 115.5 165t66.5 331 q12 213 -46 326.5t-128 162.5q-90 55 -203 61zM664 297q31 0 61 18q25 16 49.5 51t36.5 101l-31 -55q-14 -29 -26.5 -49.5t-24.5 -32.5q-31 -25 -47 -27q-14 -6 -18 -6z" />
<glyph unicode="&#xab;" horiz-adv-x="1187" d="M-55 -664v2503h1298v-2503h-1298zM283 662q0 -12 20.5 -75t43 -136.5t45 -137t28.5 -77.5q4 -12 7 -41t14.5 -53.5t31 -41t55.5 -6.5q33 10 38 35t-5 49.5t-27.5 50t-19.5 35.5q-8 14 -27.5 63.5t-41 109t-39 111.5t-17.5 75q0 20 20.5 68t48 103.5t53.5 104.5t32 68 q18 41 38.5 92t14.5 71q-8 20 -32.5 34t-39.5 18q-12 8 -30.5 -13.5t-30.5 -60.5q-8 -23 -36 -88.5t-61.5 -142t-58 -141t-24.5 -74.5zM455 643q0 -4 7 -25.5t21.5 -53.5t27.5 -73.5t28 -87.5q35 -100 75 -223q-2 -10 -4 -24q-8 -29 -8 -37q-6 -14 -12 -17l-6 -8 q12 10 22 31q6 16 10 39.5t-6 60.5q-12 31 -33.5 103.5t-46.5 144.5l-61 184q45 106 84 199q27 76 54.5 142.5t25.5 72.5q-53 -115 -90 -209q-31 -78 -59.5 -145.5t-28.5 -73.5zM565 649q0 -10 18.5 -71.5t42 -133t44 -133t28.5 -75.5q4 -12 8.5 -41t15.5 -53.5t30.5 -41 t54.5 -6.5q31 10 37 35t-4.5 49.5t-26.5 50t-18 35.5q-8 14 -29 63.5t-42.5 109t-39.5 111.5t-18 75q0 20 22.5 68t49 103.5t51 104.5t32.5 68q16 41 39 92t14 71q-6 20 -30.5 34t-38.5 18q-16 8 -34.5 -13.5t-27.5 -60.5l-20 -57.5t-29.5 -74.5t-31 -73t-17.5 -47 t-17.5 -45t-26.5 -64.5t-24.5 -59t-11.5 -38.5zM735 643q0 -4 7.5 -25.5t19.5 -53.5t27.5 -73.5t29.5 -87.5q37 -100 78 -223q-2 -10 -8 -24q-6 -29 -6 -37q-8 -14 -11 -17l-8 -8q10 10 23 31q8 16 10 39.5t-8 60.5q-8 31 -30.5 103.5t-47.5 144.5l-61 184q45 106 84 199 q27 76 55.5 142.5t21.5 72.5q-51 -115 -90 -209q-33 -78 -59.5 -145.5t-26.5 -73.5z" />
<glyph unicode="&#xac;" horiz-adv-x="1234" d="M-41 -664v2503h1296v-2503h-1296zM233 465q14 -131 60.5 -205t106 -109.5t126 -41t125 4t95 25t38.5 21.5l11 16q39 47 73 105q27 51 49.5 112.5t24.5 124.5q4 66 -11.5 139.5t-38 144t-46 126t-37.5 78.5q-33 49 -60.5 82.5t-43.5 27.5q-12 -8 -6 -19.5t-9 -11.5h-34.5 t-65.5 -1t-73 -6t-58 -17q-23 -10 -68 -32.5t-87 -85t-67.5 -175.5t-3.5 -303zM285 608q-6 78 23.5 141.5t69.5 108.5t75.5 68.5t42.5 31.5q18 14 48.5 26.5t86.5 -7.5q31 -8 69.5 -29.5t75.5 -64.5t61.5 -115t30.5 -174q0 -100 -22.5 -170t-54 -115t-73.5 -65.5t-79 -34.5 q-35 -10 -66.5 -5t-60.5 16t-43 25.5t-14 16.5q-6 10 -13.5 16.5t-23.5 14.5q-8 2 -27.5 21.5t-42 60.5t-42 99t-21.5 134zM362 641q-16 -90 7.5 -156.5t62.5 -111.5q41 -49 103 -80q-41 14 -76 53q-27 33 -50.5 90.5t-27.5 151.5q-4 96 17.5 159.5t47 102.5t45 55.5 t19.5 20.5q-6 10 -57.5 -45.5t-90.5 -239.5zM436 371q0 -16 9.5 -31.5t33.5 -30.5q16 -8 31 -2q10 2 10 27v4q0 10 -5 21.5t-5 13.5q-12 12 -12 55q0 14 3 49t3 49q6 0 28 -8h9q10 -4 26 0h23q29 0 80 5t86 42q35 29 35 90q0 57 -15.5 92t-41 52.5t-50.5 22.5t-45 5l-27 2 h-88t-45 -2q-16 -8 -19 -17t-3 -19q-2 -8 -5 -48.5t-3 -72.5q0 -23 3 -60t5 -86v-6q0 -16 -6.5 -65.5t-8.5 -67.5q-6 -4 -6 -14zM510 588h22l27 6h6q25 -6 41 -6h56q12 0 42.5 22.5t30.5 59.5q0 39 -11 54t-32 24q-6 8 -27.5 6t-37.5 -2h-15h-53q-16 0 -27 4h-12l-2 2 q-4 0 -8 -2v-8q0 -8 2 -25.5t2 -30.5v-37q0 -10 -2 -34.5t-2 -32.5zM532 293q2 6 11 16q8 14 14 60q0 16 -2 39.5t-6 43t-6 32t-8 10.5q-2 -4 2 -35t4 -49q0 -16 1 -39t-1 -37q-6 -10 -6 -27q0 -8 -3 -14zM668 1178q117 -57 202 -142q72 -72 126.5 -180t31.5 -250 q-20 -141 -35.5 -218t-31 -112.5t-28.5 -48t-26 -26.5q-20 -14 -52 -38t-69 -46q-39 -25 -86 -51q90 4 162 69q61 49 115.5 165t71.5 325q8 217 -49.5 329.5t-129.5 161.5q-85 56 -202 62zM700 496q37 6 69 41.5t48 58.5q14 35 14 79t-14 83q-8 20 -17 33.5t-18 21.5 q-18 12 -26 16l28 -26q16 -14 27.5 -49t11.5 -68q2 -31 -10 -71t-29 -62q-8 -10 -22 -19.5t-27 -19.5q-14 -10 -35 -18z" />
<glyph unicode="&#xad;" horiz-adv-x="1249" d="M-31 -664v2503h1301v-2503h-1301zM342 620.5q2 -8.5 8 -16.5q8 -6 26.5 -19.5t12.5 -23.5q0 -12 -14 -20l-13 -6q0 -10 9 -19q2 -14 18 -20q12 -8 48 -6t61 2h270q14 0 23.5 -7.5t33.5 0.5q27 2 39.5 21.5t14.5 42.5q6 23 -5.5 57.5t-42.5 44.5q-29 10 -57.5 -3 t-36.5 -13h-98q-41 0 -76 -3t-45 3q-27 6 -85 6t-75 -6q-18 -6 -16 -14.5z" />
<glyph unicode="&#xae;" horiz-adv-x="1232" d="M-39 -664v2503h1296v-2503h-1296zM236 465q14 -131 60 -205t105.5 -109.5t126 -41t125 4t95 25t38.5 21.5l11 16q39 47 73 105q27 51 49.5 112.5t24.5 124.5q4 66 -11 139.5t-38 144t-46.5 126t-37.5 78.5q-33 49 -60.5 82.5t-43.5 27.5q-12 -8 -6 -19.5t-9 -11.5h-34.5 t-65.5 -1t-73 -7t-58 -16q-23 -10 -68 -32.5t-87 -85t-67.5 -175.5t-2.5 -303zM287 608q-6 78 23.5 141.5t69.5 108.5t76 68.5t42 31.5q18 14 49 26.5t86 -7.5q31 -8 69.5 -29.5t75.5 -65.5t61.5 -115t30.5 -173q0 -100 -22.5 -170t-54 -115t-73.5 -65.5t-79 -34.5 q-35 -10 -66.5 -5t-60.5 16t-43 25.5t-14 16.5q-6 10 -13.5 16.5t-23.5 14.5q-8 2 -27.5 21.5t-42 60.5t-42 99t-21.5 134zM324 509q2 -67 9 -90.5t13 6.5t4 126q-2 92 22.5 161.5t56.5 115.5t57.5 70t25.5 28q-4 2 -23.5 -4.5t-47 -32t-55.5 -79.5t-46 -144t-16 -157z M426 434q0 -49 4 -55l6 -12q2 -10 15 -11h6q4 -2 24 6q14 16 15 23q0 8 -11 35q-4 14 -4 22v12.5t2 20.5q2 18 2 30.5v20.5v2q0 8 -1 20.5t1 16.5q6 2 18.5 2h26.5q6 0 14.5 3t14.5 3q2 0 6 1t8 1q10 4 19.5 8.5t15.5 -3.5q12 -6 29.5 -45t30.5 -68l10 -23l2 -10 q12 -25 24.5 -50.5t26.5 -29.5q10 -6 17 0q25 4 24 31q0 8 -4 12q0 8 -27 43q-10 16 -20 32.5t-19 31.5l-10 24q-12 33 -12 39v6v2q6 0 20.5 10.5t31 30t26.5 42t10 44.5q-4 49 -20.5 76t-30.5 39q-16 18 -27.5 21.5t-21.5 5.5q-4 0 -4 3t-2 3q-1 6 -9 0t-35.5 -6h-56.5h-49 h-31q-37 0 -43 -2q-8 -6 -10 -33t-2 -31v-145v-111v-16v-72zM479 651.5q-4 -10.5 2 -16.5q10 0 25 8h6l4 4q12 0 21 -4q16 -2 34.5 -5t34.5 -5q57 0 72 16q14 12 23.5 29.5t5.5 38.5q-4 14 -9.5 30.5t-17.5 22.5q-27 10 -39 10q-10 0 -13 -1t-7 -1q-4 -8 -17 -6t-31 2h-14 h-16q-6 -4 -21 -4h-6q-10 0 -18 4q-14 6 -15 0q-2 -4 -2 -16q0 -2 2 -23.5t2 -38.5v-2l7 -12q0 -10 -7 -12q-2 -8 -6 -18.5zM481 354q2 -8 11 -12q8 -10 20 -10q8 0 10 2q8 12 16.5 53t8.5 70v2q-2 8 -2 16q0 14 1 22.5t1 16.5q8 -2 15 -6t16 -4q12 2 12 10q0 18 -29 18 q-6 0 -12 4.5t-14 6.5l-7 6h-8q-4 -6 -4 -23v-4q0 -4 2 -22.5t2 -39t1 -42t1 -23.5v-14q0 -14 -6 -23l-4 -4h-4q-10 0 -25 4zM651 1169q113 -59 199 -139q74 -72 127 -180.5t33 -253.5q-23 -139 -38.5 -214t-30.5 -112t-27.5 -49t-26.5 -26q-16 -16 -50 -39t-69 -43 q-39 -27 -88 -58q92 10 166 70q59 51 113.5 166t68.5 327q12 217 -46 329t-132 161q-86 59 -199 61zM692 866l10 -2v-4q20 -10 53 -35.5t42 -58.5q6 -35 6 -53q0 -80 -27 -97l-4 -8q-47 -33 -47 -41q0 -2 21.5 -44t39.5 -72l7 4q-6 16 -22.5 57t-16.5 53v2l10 13 q14 14 34.5 44.5t20.5 67.5v10v15q-8 41 -20.5 75.5t-91.5 73.5l-13 8z" />
<glyph unicode="&#xb1;" horiz-adv-x="1230" d="M-41 -664v2503h1296v-2503h-1296zM276 541q18 -45 51 -42t38 3h56t111 -6v-150q0 -12 -15 -32.5t-9 -51.5q8 -29 33.5 -52.5t64.5 -12.5q43 6 42 45t-1 45t1 66.5t5 140.5q61 -4 108.5 -4.5t55.5 -0.5q14 0 26.5 -7t28.5 -7q20 0 45 14.5t33 47.5q6 37 -10 68.5t-45 31.5 q-25 0 -55.5 -13.5t-63.5 -17.5q-6 -6 -40 -16t-44 -10q-14 0 -43 8q-8 6 -17 12t-9 23q0 10 4 27.5t12 34.5t13 31l5 15q0 14 7.5 26.5t7.5 30.5q0 16 -15.5 45t-50.5 33q-31 8 -64.5 -9t-35.5 -46q0 -31 5 -47t11 -31.5t11.5 -34t-1.5 -49.5v-61q-41 10 -71.5 15t-32.5 5 q-12 0 -37.5 4t-52.5 -4q-29 -8 -49.5 -29.5t-12.5 -37.5zM301 -55q8 -43 44 -41t46 2q2 0 70.5 -2t149.5 -4t150.5 -4t74.5 -2q18 0 30.5 -6.5t28.5 -6.5q18 0 45 13.5t35 46.5q6 37 -12.5 68.5t-44.5 31.5q-25 0 -81.5 -13.5t-78.5 -13.5h-312q-10 0 -31.5 15.5t-49.5 9.5 q-27 -8 -50.5 -33.5t-13.5 -60.5zM412 451q-4 0 6 -4.5t22.5 -5.5t25.5 0t17 10h-51h-20zM700 428q2 -8 25 -8t46.5 3t41.5 4t12 1t-21 2t-42 2q-14 0 -25.5 -2t-17.5 -2h-19zM979 512q0 16 2 31q0 14 1 27.5t-3 17.5v-76z" />
<glyph unicode="&#xb4;" horiz-adv-x="1208" d="M-61 -664v2503h1298v-2503h-1298zM399 1282q14 0 18.5 -5t20.5 -5q8 0 22.5 4t33.5 10q14 6 36 17q31 25 62 45q29 16 52.5 31.5t33.5 21.5q23 8 30 14t25 17q18 2 43 17t8 46q-20 27 -51 33t-47 -19q-23 -27 -56.5 -55.5t-58.5 -42.5q-25 -10 -48 -29.5t-50 -33.5 q-31 -12 -61.5 -39t-12.5 -27zM512 1266l102 45l41 22q37 16 52 17q6 0 1 11t5 17l-88 -53q-20 -14 -54 -29q-12 -8 -32 -14z" />
<glyph unicode="&#xb7;" horiz-adv-x="1198" d="M-31 -664v2503h1299v-2503h-1299zM516 791q0 -20 4 -29.5t4 -18.5v-57q0 6 2 12q8 16 11 25q10 20 4 63.5t6 55.5q-10 -4 -15 -17q-16 -23 -16 -34zM543 678q0 -35 53 -47q29 -6 69 11t48 91q2 37 -14.5 63.5t-36 40t-42 20.5t-26.5 7q-20 0 -25.5 -26.5t-9.5 -55.5 q0 -14 7 -20t17.5 -8t18.5 -6.5t8 -14.5l-37 -18q-30 -21 -30 -37z" />
<glyph unicode="&#xbb;" horiz-adv-x="1187" d="M-86 -664v2503h1298v-2503h-1298zM307 133q8 -16 34 -28.5t38 -20.5q14 -8 32.5 13.5t28.5 60.5q4 23 19.5 59.5t31 73.5t27.5 72.5t19 48.5q2 14 14 44.5t25.5 62.5t27.5 60.5t14 38.5q0 8 -21.5 70t-44 134.5t-43 134t-26.5 75.5q-4 14 -9 42t-16.5 52.5t-30.5 42 t-50 5.5q-33 -10 -39 -34t4 -50.5t25.5 -50t23.5 -38.5q6 -12 26.5 -62t41 -108.5t39 -109.5t18.5 -74t-20.5 -72t-48 -104t-53 -104.5t-34.5 -71.5q-16 -39 -38.5 -89t-14.5 -73zM360 23q18 -4 37 0q18 2 37 7t35 25q-2 -6 -10 -8q-6 -2 -16.5 -7t-14.5 -7q-23 -10 -45 -10 h-23zM514 195l82 208q31 82 60.5 149t29.5 73q0 8 -25.5 78.5t-54.5 154.5l-76 223q-6 16 -10 17q-4 0 0 -11.5t17 -44.5q2 -37 25.5 -108.5t47.5 -140.5q27 -88 62 -183q-47 -109 -84 -198q-31 -74 -55.5 -141.5t-18.5 -75.5zM586 133q4 -16 30.5 -28.5t40.5 -20.5t32 13.5 t30 60.5q2 23 31.5 90t61.5 142t58.5 140.5t26.5 77.5q0 10 -19.5 72.5t-44 137.5t-46 137.5t-27.5 76.5q-2 14 -7 42t-16.5 52.5t-31 42t-54.5 5.5q-31 -10 -36 -34t3.5 -50.5t24.5 -50t25 -38.5q6 -12 25.5 -62t42 -108.5t41 -109.5t18.5 -74t-22.5 -72t-49.5 -104 t-51.5 -104.5t-34.5 -71.5q-16 -39 -38.5 -89t-12.5 -73zM588 45q23 -14 39 -27q20 -8 37.5 -10t31.5 2q10 4 21.5 25.5t26 51.5t28.5 63.5t25 64.5q12 27 40.5 92.5t58.5 134t50.5 123t20.5 60.5q0 8 -24.5 78.5t-53.5 154.5l-80 223q-6 16 -12 17q-2 0 2 -11.5t12 -44.5 q8 -37 31.5 -108.5t48.5 -140.5q29 -88 61 -183q-39 -98 -73 -180q-31 -74 -56.5 -138.5t-31.5 -84.5q-23 -53 -50.5 -109.5t-44.5 -64.5q-29 -18 -69 -2q-16 2 -39 14z" />
<glyph unicode="&#xbf;" horiz-adv-x="1214" d="M-51 -664v2503h1294v-2503h-1294zM303 276q12 -84 51 -135t90.5 -77.5t109.5 -38t118 -11.5q55 0 106 34t89 77t61.5 86t23.5 65q0 37 6.5 79t-18.5 59q-10 8 -29.5 -2.5t-36 -30t-23.5 -45t3 -41.5q25 -31 12.5 -47.5t-45.5 -48.5q-16 -18 -43.5 -43t-59.5 -47.5 t-70 -35t-73 -3.5q-72 16 -94 30.5t-47 55.5q-14 16 -8 22t12 2q10 -2 29 -12q-25 12 -39 31q-16 18 -25.5 37.5t-9.5 48.5t13.5 67.5t37 77.5t50 69.5t51.5 37.5q51 18 76.5 25t29.5 40q8 31 4 49.5t-4 50.5v38t6 40l7 54q10 14 12 28q6 10 1 23.5t-26 23.5q-23 4 -31 3 t-16 -7q-4 -8 -4 -18q-25 0 -30 -2t-4 -8.5t7.5 -24.5t6.5 -51v-113q-84 -59 -148 -127q-55 -55 -98 -130t-31 -155zM479 314.5q-6 -21.5 2 -29.5q4 27 15 43q8 20 19 35.5t26 27.5q10 10 24.5 26.5t24.5 26.5q20 16 58 46t48 36q25 10 25 35q0 12 -5 48t-5 55v43 q-4 -29 -9 -54q-4 -23 -5 -45t1 -30q4 -10 -22.5 -34t-57 -49.5t-60.5 -46t-32 -26.5q-6 -8 -17 -25.5t-17.5 -39t-12.5 -43zM496 1128q37 -53 86 -53q18 0 43.5 -8t40.5 8q10 8 4.5 7t-11.5 30q-2 12 6.5 23.5t20.5 17.5q12 8 25 10q0 25 -7.5 49.5t-37.5 44.5 q-27 16 -68 22.5t-57 -17.5q-20 -29 -41 -69t-4 -65zM698 -37q12 -4 27 -4q25 0 68 10l12 6q31 14 57.5 37t30.5 27q20 20 25 35q8 10 14 24q-16 -8 -31 -16q-33 -23 -43 -43q-6 -10 -29.5 -25.5t-51 -27t-51.5 -21.5t-28 -2z" />
<glyph unicode="&#xc0;" horiz-adv-x="1216" d="M-57 -664v2503h1298v-2503h-1298zM243.5 90q-6.5 -31 16.5 -35q14 -4 26.5 -14t32.5 14q16 29 27.5 65t13.5 54t-3 36.5t14 18.5q23 2 31 -14t34 -16q25 0 49.5 9t92.5 9q70 0 100.5 -4t56.5 8q25 10 45.5 28.5t32.5 6.5q10 -4 33.5 -50t30.5 -69q6 -20 18 -53t51 -39 q39 -2 54.5 10.5t21.5 38.5q2 29 -20.5 51.5t-32.5 49.5q-8 12 -27.5 60t-45.5 108.5t-49.5 119t-33.5 90.5q-12 35 -32.5 86.5t-43 104.5t-41 93t-20.5 50q0 12 -4 36t-10.5 50.5t-14.5 50t-18 33.5q-29 20 -55.5 -19.5t-28.5 -66.5q-8 -25 1 -43t9 -30q0 -14 -12.5 -30 t-20.5 -36q-14 -41 -14 -72q0 -14 -34 -88t-64 -145q-27 -74 -31 -101.5t-8 -44.5q0 -20 -12.5 -57t-30.5 -65q-6 -14 -25.5 -50t-36 -72t-23 -67zM350 25q25 20 39 36q16 20 25.5 39.5t5.5 42.5q-6 -20 -12 -34q-14 -33 -25 -50zM399 332q-6 6 1.5 21.5t19.5 36t25.5 41 t15.5 38.5q6 18 21.5 60t31.5 85t28.5 75t12.5 36q0 8 -11.5 16.5t-15.5 14.5q-10 0 4.5 15t30.5 34q6 16 12.5 29.5t20.5 7.5q8 -6 32.5 -56.5t54.5 -112t54.5 -118t36.5 -76.5q16 -37 20.5 -69.5t0.5 -61.5q-4 -18 -18.5 -20t-37 4t-44 11t-42.5 5q-37 0 -52 3t-26 11 q-8 2 -26.5 -4t-56.5 -20q-43 -16 -57.5 -14t-35.5 8zM406 1444q-20 -29 3 -45.5t40 -18.5q20 -8 28 -15t29 -15q10 -6 33.5 -21.5t50.5 -32.5l63 -43q23 -10 39 -18q20 -8 33.5 -11t22.5 -3q16 0 19 6t17 6q20 0 -10 25.5t-59 37.5q-29 14 -53.5 34t-49.5 30 q-27 14 -60.5 43t-49.5 55q-23 25 -51.5 20t-44.5 -34zM432 156l285 14q-25 8 -71 4t-93 -6q-60 -8 -121 -12zM471 1329q8 -8 4 -19.5t0 -11.5q16 0 53 -16l39 -22l107 -48l-31 21q-18 4 -31 12q-35 14 -53 29zM518 455l14 37q8 12 14.5 25t12.5 22q4 10 8 47l8 26 q-8 -4 -19 -29.5t-19 -56.5q-9 -30 -19 -71zM547 418l74 -37q-4 18 -12.5 33.5t-18.5 9.5q-12 -6 -27 -6h-16zM723 1018q82 -209 147 -375q29 -72 56.5 -138.5t48 -120.5t34 -89t15.5 -39q8 -10 0 18.5t-29.5 82t-49 123t-58.5 141.5q-66 174 -164 397z" />
<glyph unicode="&#xc1;" horiz-adv-x="1216" d="M-61 -664v2503h1298v-2503h-1298zM238.5 90q-5.5 -31 17.5 -37q14 -2 26.5 -13t30.5 13q18 31 28.5 67t14.5 54q6 18 0 36.5t11 18.5q23 2 33 -14t34 -16q25 0 50.5 9t88.5 9q68 0 98.5 -4t55.5 8q27 10 48.5 28.5t33.5 6.5q10 -8 32.5 -52t30.5 -67q2 -23 15.5 -54.5 t54.5 -39.5q39 -4 53.5 9.5t22.5 43.5q2 27 -21.5 48.5t-35.5 50.5q-4 12 -23.5 60t-46.5 108.5t-49.5 119t-32.5 90.5q-12 35 -33.5 86.5t-43 104.5t-40 94t-22.5 53q0 8 -3 32t-8.5 51.5t-14.5 51t-19 31.5q-31 20 -55.5 -20.5t-28.5 -65.5q-6 -25 2 -43t8 -33 q0 -12 -12.5 -26.5t-18.5 -36.5q-14 -39 -14 -72q0 -14 -35 -88t-61 -145q-31 -74 -34 -101.5t-9 -44.5q0 -18 -12.5 -56t-28.5 -66q-8 -16 -27.5 -51t-37 -71t-23 -67zM344 27q29 16 43 34q14 16 24.5 38t2.5 40q-2 -16 -11 -30q-14 -33 -24 -50zM396 351.5q7 17.5 19.5 37 t25 42t18.5 38.5q2 18 19.5 60t32.5 85t27.5 75t12.5 36q0 8 -10.5 16.5t-18.5 14.5q-8 0 7.5 15t29.5 34q8 16 14.5 28.5t18.5 8.5q8 -4 32.5 -55.5t52.5 -113t54.5 -118t34.5 -76.5q20 -37 24.5 -69.5t-2.5 -63.5q-2 -16 -16 -18t-35.5 2t-46 10t-41.5 6q-35 0 -51 4 t-27 10q-10 4 -27.5 -2t-56.5 -24q-39 -12 -56 -10t-34 8q-8 2 -1 19.5zM401 1282q12 0 16.5 -6t22.5 -6q8 0 21.5 4t34.5 12q14 4 34 17q31 25 62 43q27 18 50.5 33.5t35.5 19.5q23 8 30 15t25 16q16 4 42 19t7 44q-18 29 -49 35t-47 -21q-23 -25 -57.5 -53.5t-57.5 -42.5 q-23 -12 -46 -31.5t-52 -33.5q-31 -10 -61.5 -37t-10.5 -27zM428 156l287 14q-27 6 -74 3t-92 -7q-60 -6 -121 -10zM512 1266l102 45l41 22q37 16 50 17q6 0 2 11t4 15l-86 -51q-23 -14 -54 -29q-12 -8 -30 -14zM514 455l16 37l12.5 25t14.5 22q2 10 8 47l6 26 q-10 -4 -20 -30.5t-16 -55.5q-13 -32 -21 -71zM545 418l71 -35q-2 12 -12 29.5t-18 11.5q-12 -6 -27 -6h-14zM717 1016q84 -209 147 -373q31 -72 57.5 -138.5t48 -120.5t35 -89t15.5 -39q8 -10 -1 18.5t-28.5 81t-49.5 123t-58 142.5q-70 174 -166 395z" />
<glyph unicode="&#xc2;" horiz-adv-x="1202" d="M-74 -664v2503h1299v-2503h-1299zM113 1282q16 0 17 -5t20 -5q8 0 21 4t34 10q16 6 39 17q33 25 63 45q25 16 51.5 31.5t36.5 21.5q16 8 25.5 14t28.5 17q16 2 39.5 17t7.5 46q-18 27 -46 33t-51 -19q-20 -27 -53 -55.5t-59 -42.5q-25 -10 -51.5 -29.5t-53.5 -33.5 q-29 -12 -59 -39t-10 -27zM226 90q-5 -31 18 -35q12 -4 25.5 -15t31.5 15q16 29 27.5 66t15.5 53q4 18 -1 36.5t11 18.5q23 2 32 -14t36 -16q25 0 49.5 10t91.5 10q68 0 97.5 -4t56.5 6q25 10 47 28.5t33 8.5q10 -8 32.5 -53t30.5 -68q4 -23 16.5 -54.5t53.5 -39.5 q39 -2 53 10.5t23 42.5q2 27 -21.5 48.5t-34.5 52.5q-6 10 -25.5 59t-46 108.5t-49 118t-32.5 90.5q-10 35 -33 86.5t-43.5 103.5t-38.5 94t-25 52q0 10 -3 34t-8 51.5t-13 51t-21 31.5q-29 18 -54.5 -21.5t-31.5 -64.5t3.5 -43t9.5 -33q0 -14 -13.5 -27.5t-17.5 -35.5 q-14 -39 -14 -72q0 -14 -35 -88t-64 -145q-31 -74 -33 -101.5t-8 -44.5q0 -18 -12 -56t-29 -66q-8 -16 -27.5 -51t-37 -71t-22.5 -67zM227 1266l103 45l43 22q37 16 51 17q2 0 0 11t2 17l-86 -53q-23 -14 -53 -29q-16 -8 -33 -14zM332 27q29 16 41 36q14 16 25 37t3 41 q-2 -18 -10 -30q-14 -35 -26 -52zM384 352.5q7 16.5 19.5 36t24.5 42t18 38.5q2 18 18.5 60t32 85t29 75t13.5 36q0 8 -10.5 16.5t-18.5 12.5q-8 0 7 15t30 36q10 16 15 28.5t18 8.5q8 -4 33.5 -55.5t53 -113t54.5 -118t35 -76.5q18 -35 22 -68.5t0 -64.5q-4 -16 -17 -17 t-36 3t-46.5 9t-39.5 5q-37 0 -52.5 4t-27.5 10q-10 6 -28.5 -1t-57.5 -23q-39 -14 -55.5 -11t-32.5 7q-8 4 -1 20.5zM416 158l286 14q-25 4 -71.5 2t-95.5 -8q-58 -6 -119 -8zM502 455l16 37q6 12 11.5 25t13.5 22q4 10 12 47l4 26q-10 -4 -21.5 -30.5t-17.5 -55.5 q-10 -32 -18 -71zM532 418l72 -35q-2 12 -11 29.5t-20 11.5q-10 -6 -26 -6h-15zM686 1509q-20 -29 5.5 -45t43.5 -20q16 -8 23.5 -15.5t29.5 -15.5q8 -4 33 -19.5t53 -31.5q33 -20 68 -45q16 -12 35 -17q37 -14 53 -14t19.5 5t19.5 5q20 0 -10.5 27t-61.5 39 q-29 12 -52 31.5t-48 31.5q-25 14 -59.5 43t-55.5 54q-18 27 -49 20.5t-47 -33.5zM705 1016q84 -209 147 -373q31 -72 57.5 -138.5t49 -120.5t35 -89t14.5 -37q8 -12 -1.5 17.5t-29 81t-49 122t-56.5 142.5q-70 172 -167 395zM752 1395q12 -8 6 -19.5t2 -11.5q4 0 14 -2 q8 -4 16.5 -8t16.5 -6l43 -23l104 -45l-30 16q-16 6 -29 15q-35 14 -57 28z" />
<glyph unicode="&#xc3;" horiz-adv-x="1202" d="M-66 -664v2503h1299v-2503h-1299zM236 90q-4 -31 14 -33q16 -4 28.5 -15t28.5 17q20 25 29.5 64t15.5 55q2 20 -3 35.5t13 17.5q16 6 27.5 -12t36.5 -18q27 0 51.5 11t93.5 11q70 0 97.5 -5t54.5 5q27 8 50.5 26.5t31.5 12.5q6 -2 15 -19.5t19.5 -35t18.5 -36.5t8 -32 q6 -20 18.5 -53t51.5 -41q41 -2 55.5 10.5t16.5 40.5q8 31 -16.5 52.5t-37.5 50.5q-8 14 -27.5 61t-42 106.5t-46 117t-33.5 89.5q-8 35 -30.5 86.5t-45 103.5t-40 94t-21.5 50q-2 12 -6.5 36t-9.5 50.5t-12 50t-22 33.5q-10 12 -24 3t-28.5 -24.5t-22.5 -35t-11 -29.5 q-6 -23 4.5 -42t10.5 -29q0 -16 -13.5 -31t-21.5 -37q-12 -39 -12 -72q0 -14 -37 -88t-64 -145q-29 -74 -30.5 -101.5t-6.5 -44.5q-6 -18 -15 -55t-30 -70q-8 -12 -27.5 -47.5t-34.5 -71.5t-19 -67zM307 1358q-10 -37 13.5 -47.5t46.5 -16.5q20 -8 35.5 -8t31.5 19 q10 20 12.5 35.5t8.5 19.5l22.5 22.5t32.5 22.5q23 12 47.5 12t36.5 -10q2 -4 18.5 -21.5t38 -37t47 -36t52.5 -18.5q25 -6 52 8.5t53 30t45.5 31.5t21.5 25q8 8 4 31.5t-11 31.5q-8 8 -16 -1t-16 -21l-21 -27v-14q0 -20 -16 -37q-18 -18 -21.5 6t-19.5 33q-14 6 -26.5 -9.5 t-49.5 -1.5q-35 16 -65.5 67.5t-81.5 57.5q-25 0 -55.5 -10t-61.5 -26.5t-52.5 -33t-33.5 -28.5t-27 -12q-8 0 -8 2q-6 -2 -14 -8q-8 -8 -14.5 -15.5t-8.5 -15.5zM340 27q27 23 39 41q35 38 29 75q-6 -16 -15 -34q-14 -29 -24 -50q-6 -6 -11.5 -10t-11.5 -12q-6 -6 -6 -10z M391 336q-8 2 0 17.5t20.5 35t25 42t16.5 38.5q2 18 18 60t32.5 85t30 77t13.5 38q0 6 -11.5 14.5t-19.5 10.5q-8 4 5.5 19t27.5 32q14 23 18 35t21 4q8 -4 33.5 -53.5t54.5 -114t53.5 -121t36.5 -72.5q33 -68 18 -137q0 -14 -16 -15t-38.5 3t-46.5 9t-36 5q-61 0 -84 12 q-12 6 -29.5 -3t-56.5 -21t-54 -9t-32 9zM424 162l283 8q-25 8 -69 7t-95 -7q-58 -2 -119 -8zM485 1348l95 8q-6 2 -11 4q-10 6 -34 6q-25 -6 -35 -10zM510 455l14 37q8 12 13.5 27.5t9.5 21.5q4 14 12 45l10 26q-12 -4 -23 -30.5t-20 -55.5q-10 -32 -16 -71zM539 422 l77 -39q-6 12 -14 29.5t-22 13.5q-10 -4 -29 -4h-12zM715 1016q84 -209 147 -373q29 -72 55.5 -138.5t49 -120.5t35 -88t14.5 -36q8 -8 -1 19.5t-28.5 78t-49.5 121t-56 142.5q-68 172 -166 395zM852 1288q-6 -2 11.5 2t41 15.5t44 27t28.5 35.5q23 92 -19 76l9 -10v-29 q0 -25 -9 -47q-6 -16 -17 -22.5t-30 -14.5q-16 -4 -30.5 -15.5t-28.5 -17.5z" />
<glyph unicode="&#xc4;" horiz-adv-x="1249" d="M-31 -664v2503h1299v-2503h-1299zM270.5 90q-3.5 -31 14.5 -35q16 -2 28.5 -13t28.5 13q20 29 29.5 65t15.5 56q2 16 -3 34.5t15 18.5q18 2 28.5 -13t35.5 -15t49.5 8t91.5 8q70 0 100.5 -3t55.5 9q27 8 48 26.5t30 8.5q12 -8 35.5 -52t31.5 -67q2 -23 14.5 -54.5 t51.5 -39.5q41 -2 55 10.5t23 38.5q2 31 -21.5 52.5t-34.5 52.5q-6 8 -27.5 55t-45 107.5t-47 120t-35.5 91.5q-8 35 -30 86.5t-44.5 103.5t-40.5 94t-21 52q0 10 -4 34t-8 50.5t-14 50t-21 33.5q-29 18 -55.5 -20.5t-28.5 -65.5q-8 -25 1.5 -42t9.5 -36q0 -12 -12.5 -25.5 t-20.5 -35.5q-14 -39 -14 -72q0 -14 -35 -88t-62 -145q-31 -74 -34 -101.5t-5 -44.5q0 -18 -13 -56t-32 -69q-8 -12 -27.5 -47.5t-36 -71.5t-20 -67zM354 1393q0 -16 4 -27.5t4 -19.5v-27q0 -14 3 -27q0 4 4 13q4 6 4 11t6 13q2 12 8 32.5t14 45.5q0 -6 -1 -10t-1 -8 q-6 -31 6.5 -42.5t10.5 -25.5q-12 -6 -17 -14q-20 -10 -20 -25q0 -39 55 -45q29 -4 69 13.5t46 90.5q2 35 -11.5 60.5t-36 39t-42 20.5t-31.5 7q-4 0 -12 -6q-12 -2 -37 -17t-25 -52zM377 25q25 20 39 36q12 20 23 40t3 40q-2 -16 -8 -32q-16 -31 -26 -50zM426 332 q-8 2 0 19.5t20.5 37t25.5 42t15 38.5q2 18 19.5 60t34 85t29 75t12.5 36q0 8 -11.5 17.5t-19.5 13.5q-4 0 9 16t28 33q8 20 14 32.5t21 4.5q8 -4 32.5 -55.5t54 -113t54.5 -118t35 -76.5q20 -37 23 -70.5t-1 -62.5q-2 -16 -17.5 -19t-35.5 2l-44 11t-44 6q-37 0 -52.5 4 t-25.5 10q-8 4 -26.5 -4t-59.5 -22q-39 -12 -56.5 -11t-33.5 9zM459 156l289 14q-27 8 -74 4t-94 -6q-60 -6 -121 -12zM547 455l12 37q8 12 14.5 25t12.5 22q2 10 8 47l8 26q-8 -4 -19.5 -30.5t-19.5 -55.5q-12 -32 -16 -71zM573 418l76 -35q-6 12 -14 29.5t-19 9.5 q-12 -4 -28 -4h-15zM690 1393q0 -16 5 -27.5t5 -19.5v-27q0 -14 2 -27q0 4 3 13q6 6 6 11t6 13q4 16 -1 59.5t5 59.5q-8 -8 -16 -18q-14 -23 -15 -37zM717 1282q0 -39 55 -45q27 -4 68 13.5t47 90.5q4 35 -11.5 60.5t-36 39t-41 20.5t-32.5 7q-16 0 -21.5 -26.5t-9.5 -52.5 q0 -18 7.5 -23.5t18.5 -8.5t18 -7t7 -9l-36 -22q-33 -21 -33 -37zM750 1018q84 -211 147 -375q29 -72 55.5 -138.5t48 -120.5t35 -88t15.5 -38q8 -10 -1.5 16.5t-29 80t-49 124t-56.5 142.5q-68 174 -165 397z" />
<glyph unicode="&#xc5;" horiz-adv-x="1251" d="M-76 -664v2503h1297v-2503h-1297zM223 80q1 -23 17 -25q8 -2 16 -8t18 -6t25 16q18 27 28.5 65t12.5 56q2 4 2 12q0 6 -1 13.5t-1 11.5q0 16 16 16t26.5 -16t33.5 -16t51.5 11t95.5 11q41 0 65.5 -2t43.5 -2q20 0 39 6q23 10 43 24.5t32 14.5q6 0 9 -2q6 -4 15 -19.5 t18.5 -35t17.5 -37.5t10 -31q2 -10 6 -24.5t11.5 -28.5t19.5 -24.5t33 -12.5q4 0 9 -1t9 -1q29 0 40 12.5t15 36.5v10q0 27 -21.5 47.5t-31.5 45.5q-6 12 -26.5 60t-45 107.5t-48 118t-33.5 90.5q-10 33 -32 85.5t-44.5 103.5t-41 93t-20.5 52t-5 35t-8 52.5t-13 52 t-23 34.5q-6 6 -12 6q-10 0 -22.5 -11t-22.5 -26.5t-17.5 -32t-9.5 -28.5q0 -23 7.5 -40t7.5 -29q0 -16 -12.5 -32t-20.5 -36q-10 -23 -12.5 -41t-2.5 -31q0 -6 -11 -29.5t-26.5 -57.5t-33 -72.5t-29.5 -75.5q-25 -74 -30 -100.5t-7 -45.5q-4 -16 -15 -52t-28 -64 q-6 -12 -20.5 -39t-28.5 -56.5t-25.5 -59.5t-11.5 -48zM332 25q18 16 33 36q12 16 23 36.5t11 43.5q-6 -16 -14 -32q-6 -14 -12 -27.5t-13 -20.5q-6 -8 -11 -15t-9 -11q-6 -6 -8 -10zM379 342q0 8 9 23.5t20.5 34t21.5 37t14 32.5q2 18 17.5 59t32 84t30 78t13.5 39t-6.5 10 t-12.5 11q-8 6 -16 8q0 4 13 17t26 28q12 18 16 30.5t14 12.5q4 0 9 -2q4 -2 16 -26.5t29.5 -60.5t37 -79t37 -82t31 -70t19.5 -43q27 -51 26 -102q0 -10 -1 -17.5t-3 -15.5q-4 -18 -29 -18q-23 0 -54.5 10t-53.5 10q-35 0 -51.5 4t-26.5 8q-4 2 -10 3q-10 0 -27.5 -6.5 t-50.5 -16.5q-37 -14 -57 -14q-10 0 -15.5 2t-13.5 6q-4 4 -4 6zM442 1384q0 -12 1 -26.5t3 -30.5q10 -72 43 -95.5t68 -27.5q10 -2 31 -2q29 0 52.5 6t27.5 11q2 2 5 4t3 6q10 16 31.5 49t23.5 68v6q0 25 -6 50t-15.5 49t-18.5 42t-15 29q-14 23 -25.5 28.5t-19.5 5.5 q-4 0 -5 -1t-3 -1h-2q-2 0 -13.5 -1t-25 -2t-26.5 -3t-19 -4q-4 0 -11 -6q-10 -4 -24.5 -13t-27.5 -25.5t-22.5 -44.5t-9.5 -71zM487 1380q0 33 24 60.5t52 44.5q12 12 23 12q2 0 14 -4q27 -8 51.5 -33.5t24.5 -85.5v-16q0 -53 -22.5 -73.5t-53.5 -29.5q-8 -4 -14 -4 q-14 0 -27 9q-6 4 -10 10q0 4 -5 5t-9 5q-6 2 -26 25.5t-22 74.5zM500 455q6 18 14 34q6 14 12 28.5t11 25.5q4 6 8 18t8 25q4 14 6 32q-12 -10 -22.5 -35.5t-18.5 -54.5q-8 -34 -18 -73zM520 1362q0 -14 6 -24.5t15 -20.5q6 -6 12 -11.5t10 -11.5q8 -10 19 -12q4 -2 8 -2v8 q-2 0 -6 2t-9.5 5t-9.5 8q-23 20 -28 67q0 39 18 56.5t25 23.5l4 6h-9q-2 0 -12 -8t-22 -27q-4 -10 -9.5 -20t-9.5 -23q-2 -6 -2 -16zM528 422l72 -41q-2 12 -8 27.5t-21 15.5q-16 -4 -24 -4h-12q-4 0 -7 2zM645 1569q35 -14 62 -37q23 -20 43 -55t20 -91v-20 q-4 -41 -8 -65.5t-9 -39t-11.5 -21.5t-12.5 -13t-18.5 -13.5t-24.5 -14.5t-21.5 -13t-9.5 -8q4 0 22.5 3t41.5 19q18 14 39.5 55t23.5 119v23q0 47 -11 83t-34 58q-29 29 -58.5 34t-33.5 5v-8zM705 1018q80 -209 145 -375q27 -72 54.5 -139.5t49 -121.5t36 -88t18.5 -36 q0 8 -13.5 45t-35 91.5t-48 122t-55.5 136.5q-68 162 -151 365z" />
<glyph unicode="&#xc6;" horiz-adv-x="1802" d="M-35 -664v2503h1870v-2503h-1870zM162 104q0 -12 12 -14q10 -2 22.5 -11t34.5 -9q18 0 37 10q-12 -8 -16 -10t-6 -4q29 16 53 34q20 16 38.5 36t22.5 38q0 -4 -9 -14t-21.5 -22.5t-23.5 -24t-15 -13.5q29 20 48 53t23 50q4 8 5.5 17t4.5 16.5t8 11.5t19 4 q16 0 22.5 -13.5t27.5 -13.5q23 0 48 7.5t74 7.5q8 0 17.5 -1t19.5 -1q41 0 67.5 -2.5t45.5 -2.5q31 0 51 11q12 2 33.5 6t44.5 10q4 -53 9 -101t5 -55q0 -10 15.5 -37.5t35.5 -31.5q8 0 38 -1t72 -1t90 -1t90 -1h73h39q14 0 37.5 -4t49.5 -9.5t48.5 -9.5t32.5 -4 q6 0 19.5 6t26.5 16.5t24.5 21.5t13.5 24v8q0 25 -8.5 60.5t-30.5 45.5q-4 0 -6 1t-6 1q-16 0 -39 -6t-47.5 -14t-47 -16.5t-36.5 -10.5h-17q-25 0 -68.5 3t-88 8.5t-80 8.5t-43.5 3q-14 0 -40 -5t-46 -5q-10 0 -15 2q-6 2 -6 14q0 14 6 31.5t6 23.5q0 8 -3 27.5t-7 34.5 q-4 4 -5 20.5t-1 38.5q0 23 1 47.5t4 45t6 34.5t7 16q12 4 21 5q8 0 16.5 -1t16.5 -1q16 0 22 4q10 2 46 2h77h52.5t31.5 -2q16 -6 23.5 -11.5t23.5 -5.5q6 0 15.5 1t19.5 3q41 10 51 32t10 60v11q0 29 -18 42t-47 17q-4 2 -14 2q-23 0 -51.5 -12t-49.5 -14h-14q-29 0 -73 4 t-70 4q-10 0 -28 -1t-34 -3q-20 -2 -43 -4v133q0 51 1 95t5 54q94 2 172 6q33 2 66 3t60.5 2t48 2.5t26.5 1.5q25 0 59.5 -4.5t63.5 -4.5h12q35 4 51.5 26.5t16.5 45.5t-17.5 54.5t-31.5 39.5q-10 6 -25 6q-16 0 -35.5 -6t-32.5 -12q-10 -6 -33.5 -10t-52 -7.5t-56.5 -4.5 t-42 -1q-10 0 -32.5 1t-52.5 2t-62.5 2.5t-63.5 1.5h-47t-33 -5q-6 6 -20 7q-18 0 -42 -9.5t-45.5 -24t-39 -28.5t-23.5 -24q-8 -18 -8 -39q0 -8 1 -14.5t1 -14.5q-6 -16 -22.5 -29.5t-32.5 -31.5q-16 -23 -23.5 -38.5t-13.5 -31.5q0 -6 -17.5 -27.5t-42 -52.5t-53 -67.5 t-53.5 -71.5t-39 -57.5t-23.5 -37t-13.5 -23.5t-8 -15q-4 -16 -27.5 -49t-50.5 -66q-12 -10 -36.5 -35.5t-49 -55.5t-44 -57.5t-19.5 -44.5zM420 197h309q-12 4 -33.5 5t-46.5 1q-59 0 -122.5 -4t-92.5 -4q-14 0 -14 2zM451 354q0 6 13 20.5t30.5 31t35 35t25.5 34.5 q8 14 31.5 48t50.5 71t51.5 69.5t34.5 45.5l4 4q2 0 2 2q0 10 -14.5 17t-16.5 9q0 4 19.5 17.5t38.5 29.5q10 10 39.5 30t54.5 30q-4 -25 -5 -45.5t-1 -34.5q2 -20 5 -51t6 -61.5t5 -59.5t2 -45v-12q-2 -6 -6 -21.5t-7 -35t-6 -40t-3 -39.5v-25.5t2 -35.5q-31 6 -62.5 11 t-50.5 5q-41 0 -57.5 4.5t-26.5 6.5q-8 4 -14 4q-12 0 -32.5 -6.5t-53.5 -14.5q-20 -6 -33.5 -8t-24.5 -2q-12 0 -19 2t-13 6q-4 0 -4 4zM608 461q14 16 27 33q10 12 22.5 25t18.5 20q6 8 13 20t16 23q8 12 18 26q-16 -6 -34.5 -29.5t-37.5 -50.5q-23 -31 -43 -67zM625 428 l69 -37q0 4 1 6t1 6q0 10 -4 18.5t-20 8.5q-8 -2 -16.5 -2h-14.5h-16zM983 684q8 0 39 2t64.5 3t62.5 3t33 2q0 2 -18.5 1t-42 1t-44 9.5t-26.5 23.5q-6 18 -10.5 36.5t-4.5 35.5q0 29 11 35q4 4 26.5 9t48.5 9q29 6 66 10h-195q-2 -14 -2 -28v-58q0 -33 2 -43q0 -8 -2 -16 t-4 -17q-2 -8 -4 -18zM993 451q0 -10 1 -43t3 -70q2 -43 7 -94l24 2q0 4 -2 18.5t-6 30.5q-2 35 -6 63.5t-8 49.5q-6 23 -13 43zM1026 420q2 0 11.5 2t13.5 4q14 2 37.5 4t45 3t36 3t10.5 2q-6 4 -25 4q-25 0 -56.5 -6t-47.5 -10q-4 0 -16.5 -3t-8.5 -3zM1028 246q2 -8 6 -8 t8 6q2 2 5 6z" />
<glyph unicode="&#xc7;" horiz-adv-x="1210" d="M-55 -666v2503h1298v-2503h-1298zM244 555q0 -74 17.5 -145.5t55.5 -139.5q92 -170 244 -211q0 -8 2 -12q0 -10 6 -18q0 -8 4 -29q2 -10 3.5 -24.5t1.5 -22.5q0 -23 -2.5 -33t2.5 -31q4 -18 19 -22t46 -17q14 -2 31.5 -20t31 -43t22.5 -49.5t9 -40.5t-7 -28.5t-15 -22.5 q-4 -4 -7 -8.5t1 -2.5q4 0 6 -1t-4 -15q-12 -20 -29 -33q-16 -12 -55 -20q-23 -4 -45.5 4t-43 21.5t-37 28.5t-28.5 26q-18 18 -25.5 28.5t7.5 28.5q6 12 1 26.5t-14.5 27t-20.5 19.5t-18 1q-16 -10 -11 -36t5 -48q0 -12 13.5 -39t36 -53.5t54 -47t66.5 -20.5q33 0 70 6 t68.5 23.5t54 49.5t31.5 81q6 47 -18.5 92t-57.5 82q-23 20 -45.5 38.5t-46.5 37.5v67q0 14 2 23.5t4 15.5q57 -6 127 14q66 20 104.5 69.5t59 103t28.5 98.5t13 61q2 31 -10.5 61.5t-26.5 30.5q-18 0 -37 -7t-23 -27q-4 -2 -9 -24.5l-11 -49.5t-10.5 -51.5t-6.5 -32.5 q-6 -10 -26.5 -37t-51 -51.5t-71.5 -40.5t-86 -8q-90 14 -178 123q-88 106 -95 278q-2 84 23 145.5t58.5 104.5t68.5 67.5t51 32.5q14 8 53 6t80 -10t75 -17t40 -14q14 -14 26.5 -34.5t16.5 -38.5q8 -12 13 -42t18 -40q16 -27 38.5 -28t26.5 5q4 4 11.5 17.5t11.5 32t5 41 t-7 42.5q-12 23 -46 59t-71 70.5t-67.5 62.5t-36.5 34q-18 6 -19.5 13t-15.5 1q-14 -8 -45 -14t-47 -6q-8 0 -43 -6.5t-80 -28t-89 -63.5t-71 -111q-25 -68 -39 -139.5t-14 -145.5zM387 553q4 -59 18.5 -105.5t29 -75t14.5 -32.5t1 13.5t-14 52.5q-12 35 -18 90t-2 127 t26.5 118.5t53.5 73.5q39 37 84 55q-2 2 -23.5 -2t-50.5 -24.5t-58 -59t-45 -104.5q-20 -68 -16 -127zM475 -311q6 -12 14 -21q6 -8 13.5 -16t13.5 -12t11 -8.5t10 -6.5q4 -4 8 -4l-49 66q10 16 12 30q2 12 -3.5 27t-25.5 25q2 -4 4 -13q2 -6 4 -14t2 -18q0 -20 -8 -29 q-4 -6 -6 -6zM633 -500q27 -6 55 -2q25 4 54.5 18.5t58.5 53.5q29 37 41 72.5t11 64.5t-11.5 49.5t-24.5 28.5q10 -23 17 -47q4 -23 4 -48.5t-13 -51.5q-35 -74 -68.5 -94.5t-58.5 -24.5q-12 -4 -23 -6t-22 -7q-10 -4 -20 -6zM659 1130q27 -10 53.5 -23t53.5 -28 q41 -25 84 -63.5t70 -83.5q49 -98 57 -149.5t-2 -69.5q-25 -31 -31 -33q-8 -8 -16 -8q12 -4 24 -4q25 0 29 16q4 10 7 31.5t1 50.5t-11 63.5t-28 71.5q-43 74 -98 124t-92 69l-66 28q-14 8 -35 8zM672 -10q57 14 110 43q47 20 90 56t72 95q31 51 39 99.5t14 83.5q2 38 0 75 q0 -57 -12 -114q-8 -49 -28.5 -106.5t-63.5 -96.5q-39 -41 -79 -66.5t-71 -44.5q-20 -8 -37.5 -14t-33.5 -10z" />
<glyph unicode="&#xc8;" horiz-adv-x="1216" d="M-47 -664v2503h1298v-2503h-1298zM256 403q0 -16 3 -63t8 -97t9.5 -92t4.5 -47q0 -8 17 -36.5t36 -30.5q12 0 71.5 -1t127 -4t126 -3h70.5q10 0 34.5 -3t53.5 -8.5t49.5 -9.5t30.5 -4q18 0 51 21.5t37 42.5q2 29 -6 67.5t-33 48.5q-14 2 -37.5 -3t-52.5 -13t-53.5 -18.5 t-38.5 -10.5q-16 -2 -62.5 2t-92.5 9.5t-88 8.5t-54 3q-16 0 -48 -7.5t-48 1.5q-14 6 -4 33.5t10 33.5q0 8 -3 27.5t-9 40.5q-6 4 -7.5 34.5t3 67.5t7.5 65.5t11 33.5q14 2 35.5 -1.5t40.5 1.5q8 2 36.5 5t61.5 3t62.5 -3t39.5 -5q23 -6 34 -10.5t50 3.5q39 6 50.5 30 t11.5 63q2 35 -22.5 48t-47.5 21q-20 4 -55 -9t-55 -17h-34t-44.5 3t-45 3h-32.5q-10 -2 -25.5 -2h-36.5q-16 0 -45 -4v135q0 49 3.5 94t5.5 53q96 2 174 8q61 2 119.5 3t76.5 1q27 0 65 -2t70 0q33 0 47.5 24t16.5 44q6 23 -12.5 57.5t-36.5 38.5q-14 8 -43 3t-47 -17 q-10 -4 -34 -8t-53.5 -6t-55 -4.5t-40.5 -2.5q-14 0 -58 2.5t-92 4.5t-93 0t-62 -13q-14 -8 -22 -41.5t-13.5 -77t-8.5 -85t-3 -64.5q0 -20 4 -57t8.5 -70t5.5 -62.5t-1 -37.5q-6 -16 -14.5 -59.5t-8.5 -78.5zM395 682q55 4 99 6q41 6 67.5 6t34.5 2q4 0 -10.5 -1t-40 1 t-49 8.5t-29.5 24.5q-10 31 -11 65.5t9 43.5q8 4 29.5 6t46.5 12q30 8 61 10h-190v-59q0 -20 -2 -39.5t2 -26.5q0 -16 -9 -36zM412 406q0 -35 4 -72q2 -41 8 -90l41 2q-8 -10 -10 -10q-12 0 -15 59q-4 37 -6 66.5t-8 46.5q-8 23 -14 41v-43zM428 1444q-16 -31 6.5 -46.5 t40.5 -21.5q18 -4 27.5 -11t25.5 -15q12 -8 35 -22.5t51 -31.5l64 -43q23 -10 39 -18q20 -6 33.5 -10t21.5 -4q16 0 18.5 5t18.5 5q18 0 -11.5 27.5t-58.5 37.5q-29 14 -54.5 34t-51.5 30q-25 14 -56.5 44t-50.5 54q-23 25 -50 20t-48 -34zM457 424q6 2 29.5 4t50 6t45 5 t14.5 1q-10 8 -34.5 4t-49.5 -9t-41 -8t-14 -3zM498 1327q6 -6 3 -17.5t1 -11.5q14 0 49 -16l43 -20l100 -48l-26 17q-18 8 -35 14q-31 16 -51 31zM715 696l57 -39q-8 6 -19.5 14.5t-15.5 14.5z" />
<glyph unicode="&#xc9;" horiz-adv-x="1230" d="M-47 -664v2503h1298v-2503h-1298zM256 403q0 -16 3 -63t8 -97t9.5 -92t4.5 -45q0 -10 15 -36.5t38 -32.5q10 0 70.5 -1t128 -3t128 -2h68.5q10 0 36 -4t53.5 -9.5t48 -8.5t32.5 -3q18 0 50 21.5t36 42.5q4 27 -5 65.5t-34 48.5q-14 6 -37.5 0t-50.5 -15t-51.5 -17.5 t-42.5 -8.5q-16 -6 -60.5 -2t-93.5 10.5t-90 10.5t-53 4q-16 0 -50 -9.5t-46 1.5q-14 8 -6 33.5t8 33.5q0 6 -1 25.5t-10 40.5q-4 4 -5 34.5t2 67.5t7.5 65.5t12.5 30.5q14 6 34.5 2t39.5 -2q6 6 35.5 8.5t64.5 2.5t64.5 -2t41.5 -9q18 -4 29.5 -8t50.5 4q43 4 52.5 29 t9.5 64q6 35 -20.5 47t-45.5 22q-23 4 -57.5 -9t-54.5 -17h-34t-47.5 3t-45 3h-31.5q-12 -2 -28.5 -2h-33.5q-20 0 -45 -4v133q0 51 2 95t7 52q92 4 172 6q66 6 125 7t73 1q27 0 66 -4t69 2q35 0 48.5 22.5t17.5 43.5q4 23 -13.5 57.5t-37.5 40.5q-14 8 -43 3t-45 -17 q-12 -8 -36 -11t-51.5 -5.5t-55 -4.5t-42.5 -2q-14 0 -58 2t-93 4.5t-94 0t-60 -10.5q-14 -8 -23.5 -43t-14.5 -79t-7 -83.5t-2 -62.5t4 -58.5t7 -68.5t5.5 -62.5t-2.5 -37.5q-4 -16 -12 -59.5t-8 -78.5zM395 682q55 4 97 6q39 6 68.5 6t37.5 2q2 0 -14.5 -1t-41 1t-48 8.5 t-27.5 24.5q-10 31 -12 65.5t10 41.5q6 6 27.5 8t46.5 10q28 6 65 12h-194v-59q0 -23 -2 -42.5t2 -23.5q0 -16 -7 -36zM410 407q0 -34 4 -69q4 -45 6 -94l45 2q-8 -10 -12 -10q-10 0 -13 59q-6 37 -7 66.5t-11 48.5q-4 21 -12 39v-42zM428 1282q14 0 18.5 -5t20.5 -5 q8 0 22.5 4t30.5 10q16 8 37 19q33 27 66 43q29 18 52 32.5t34 22.5q20 6 28 12t25 15q20 4 44.5 20t6.5 45q-18 31 -48 35t-50 -23q-23 -25 -55.5 -52.5t-59.5 -43.5q-25 -8 -48.5 -29.5t-51.5 -33.5q-29 -12 -59.5 -39t-12.5 -27zM457 424q2 2 25.5 4t51 6t47 5t17.5 1 q-10 8 -35.5 4t-52.5 -9t-42 -8t-11 -3zM539 1264l104 47l43 22q37 16 51 17q2 0 0 11t2 19l-86 -55q-23 -14 -53 -29q-12 -8 -33 -14zM715 696l59 -39q-10 6 -19.5 14.5t-17.5 14.5z" />
<glyph unicode="&#xca;" horiz-adv-x="1222" d="M-47 -664v2503h1298v-2503h-1298zM123 1282q14 0 18 -5t21 -5q8 0 22.5 4t30.5 8q16 8 35 21q35 25 67 41q29 20 52.5 33.5t33.5 23.5q20 4 28.5 11t25.5 16q20 2 44.5 19t6.5 44q-18 31 -48 35t-50 -21t-55.5 -52.5t-59.5 -43.5q-25 -8 -48.5 -29.5t-51.5 -35.5 q-31 -10 -61.5 -37t-10.5 -27zM233 1264l105 47l43 22q37 16 51 17q2 0 0 11t2 19l-86 -57q-18 -12 -53 -27q-14 -8 -33 -14zM256 403q0 -16 3 -63t8 -97t9.5 -92t4.5 -45q0 -12 15 -37.5t38 -31.5q12 0 71.5 -1t127 -3t127 -2h67.5q12 0 36.5 -4t52.5 -9.5t49.5 -8.5 t31.5 -3q20 0 52 20.5t34 43.5q6 25 -3 64.5t-36 49.5q-12 6 -35.5 0t-50.5 -15l-52.5 -17.5t-41.5 -8.5q-16 -6 -61.5 -2t-92.5 9.5t-89 9.5t-52 4q-18 0 -51 -8.5t-47 0.5q-14 8 -6 34.5t8 34.5q0 6 -1 25.5t-10 36.5q-2 6 -4 37.5t1 68.5t7.5 65.5t12.5 33.5 q14 4 34.5 -0.5t41.5 0.5q4 4 33.5 6t63.5 2t64.5 -2t40.5 -6q20 -6 31.5 -10.5t50.5 3.5q41 6 51.5 30t10.5 63q4 35 -21.5 48t-46.5 21q-23 4 -57.5 -11t-52.5 -15h-35t-46.5 3t-44 3h-32.5q-10 -2 -27.5 -2h-34.5q-18 0 -43 -4v135q0 49 1 94t8 53q90 2 172 4 q61 6 121.5 8.5t72.5 2.5q29 0 68 -5.5t69 0.5q33 0 47.5 22.5t16.5 45.5q6 23 -12.5 57.5t-36.5 38.5q-14 10 -43 4t-47 -16q-10 -8 -34 -11t-51.5 -6.5t-56 -4.5t-41.5 -1q-14 0 -58 1t-92 4.5t-94 0t-61 -11.5q-14 -8 -23.5 -43t-13.5 -78t-7 -83.5t-3 -63.5q0 -20 4 -57 t7 -70t5.5 -62.5t-2.5 -37.5q-4 -16 -12 -59.5t-8 -78.5zM395 682q55 4 99 6q39 6 66.5 6t35.5 2q4 0 -11.5 -1t-41 2t-49 8.5t-25.5 23.5q-12 31 -13 65.5t9 41.5q6 6 28.5 9t47.5 11q28 4 61 10h-192v-57q0 -23 -1 -42t1 -26q0 -16 -7 -36zM410 407q0 -34 6 -69 q2 -45 4 -94l45 2q-8 -12 -10 -13q-12 0 -15 62q-6 37 -7 66.5t-9 48.5q-6 21 -14 39v-42zM457 424q2 2 26.5 4t52 6t46 5t14.5 1q-10 8 -33.5 4t-50.5 -9t-42 -8t-13 -3zM692 1507q-16 -27 8.5 -44t44.5 -19q16 -8 22.5 -15.5t29.5 -13.5q8 -8 33.5 -21.5t54.5 -33.5 q33 -16 63 -41q18 -12 35 -21q37 -14 57 -14q16 0 20.5 6t18.5 6q16 0 -14 27t-59 37q-27 14 -50.5 34.5t-50.5 32.5q-25 14 -59.5 42t-57.5 55q-16 27 -46.5 20.5t-49.5 -37.5zM715 696l57 -39q-8 6 -17.5 14.5t-19.5 14.5zM762 1393q10 -8 5 -17.5t3 -9.5q2 0 14 -6 q4 -2 14.5 -6t16.5 -8l43 -23l107 -43l-31 16q-16 8 -31 15q-33 12 -55 30z" />
<glyph unicode="&#xcb;" d="M-47 -664v2503h1298v-2503h-1298zM256 403q0 -16 3 -63t7 -96t8.5 -91t4.5 -47q0 -8 17 -36.5t36 -30.5q12 0 71.5 -1t128 -4t128 -3h71.5q10 0 35 -3t53.5 -8.5t49 -9.5t28.5 -4q18 0 51 21.5t37 42.5q2 29 -6 67.5t-33 48.5q-14 2 -36.5 -3t-51.5 -13t-53.5 -18.5 t-38.5 -10.5q-16 -2 -62.5 2t-94.5 9.5t-90 8.5t-54 3q-16 0 -48 -7t-48 1q-14 6 -4 33.5t10 33.5q0 8 -3 27.5t-10 38.5q-6 4 -7 34.5t3 67.5t7.5 65.5t11.5 33.5q14 2 35.5 -1.5t40.5 1.5q8 2 36.5 5t62.5 3t64.5 -3t40.5 -5q23 -6 34 -10.5t50 3.5q39 6 50.5 30t11.5 63 q2 35 -22.5 48t-47.5 21q-20 4 -55 -9t-55 -17h-36t-46.5 3t-45 3h-32.5q-10 -2 -25.5 -2h-36.5q-16 0 -45 -4v135q0 49 3 94t6 51q96 2 174 8q66 2 124 3t76 1q27 0 65 -2t70 0q31 0 45.5 23.5t16.5 44.5q6 23 -12.5 57.5t-34.5 38.5q-14 8 -43 3t-47 -17q-10 -4 -34 -8 t-53.5 -6.5t-55 -4.5t-40.5 -2q-16 0 -61 2t-93 4.5t-93 0t-62 -12.5q-14 -8 -22.5 -42t-13.5 -76t-7 -83.5t-2 -64.5q0 -20 3 -57t7 -70t5.5 -62.5t-1.5 -37.5q-6 -16 -13 -59.5t-7 -78.5zM324 1397q0 -20 3 -31.5t3 -17.5v-29q0 -14 2 -27q0 6 6 13q2 8 2 13t8 11 q4 10 9 32.5t12 47.5q0 -8 -2 -10t-2 -13q-2 -27 10 -38t10 -25l-20 -16q-16 -8 -17 -25q0 -39 53 -43q29 -8 69 10.5t48 89.5q4 37 -11 62.5t-36.5 40t-41.5 21.5t-30 7q-8 0 -14 -8q-10 -2 -35.5 -16t-25.5 -49zM393 682q55 4 99 6q41 6 68.5 6t35.5 2q4 0 -11.5 -1t-41 1 t-49 8.5t-29.5 24.5q-10 31 -11 65.5t9 43.5q8 4 29.5 6t46.5 12q30 8 65 10h-194v-59q0 -20 -2 -39.5t2 -26.5q0 -16 -9 -36zM410 406q0 -35 4 -72q2 -41 8 -88l41 2q-8 -10 -10 -10q-12 0 -15 57q-4 37 -6 66.5t-8 46.5q-8 23 -14 41v-43zM455 424q6 2 29.5 4t50 6t46 5 t15.5 1q-10 8 -35.5 4t-50.5 -9t-41 -8t-14 -3zM657 1397q0 -20 4.5 -31.5t4.5 -17.5v-29q0 -14 4 -27q0 6 2 13q6 8 6 13t4 11q4 18 0 62.5t4 56.5q-6 -8 -14 -16q-14 -23 -15 -35zM682 1282q0 -39 57 -43q27 -8 68 10.5t45 89.5q4 37 -10.5 62.5t-37 40t-42 21.5t-29.5 7 q-16 0 -22 -27.5t-9 -56.5q0 -12 7.5 -18t18.5 -10t17.5 -7t6.5 -12l-35 -20q-35 -19 -35 -37zM717 696l57 -39q-8 6 -19.5 14.5t-15.5 14.5z" />
<glyph unicode="&#xcc;" d="M-41 -664v2503h1298v-2503h-1298zM367 969q-4 -27 14 -37t41.5 -11t46.5 -1t31 -7q35 -45 35 -153q0 -27 2 -113t5 -182t4 -176t1 -90q-2 -25 -12.5 -47.5t-32.5 -28.5q-18 -6 -31.5 0t-30.5 6q-4 0 -19 -15.5t-25.5 -34t-18.5 -33.5t0 -21q10 -10 67.5 -5t94.5 5h72.5 t66.5 -5q29 -8 64.5 -7t52.5 30q20 18 25 52t-9 48q-16 10 -28.5 11.5t-22.5 1.5q-14 -2 -29.5 12t-32.5 14q-14 0 -35.5 -18.5t-31.5 -16.5q-8 0 -9 21.5t-3.5 48.5t-2.5 51.5v38.5v529v40t15 21q23 20 51 6q10 -6 44 -13t52 7q16 20 33.5 39.5t9.5 38.5q-4 20 -17 35.5 t-28 19.5q-12 6 -23.5 13.5t-0.5 13.5q2 0 15 4t28.5 4t29 -7t15.5 -28q2 -16 5 -31.5t3 -23.5q0 -16 -6 -23q6 29 6 52q0 16 -3 34.5t-7 26.5q-12 2 -24.5 6t-22.5 4h-27l6 -8q6 -2 21 6q39 14 0 25q-23 6 -36.5 -7.5t-23.5 -17.5q-14 -8 -26.5 -26.5t-67.5 -26.5 q-53 -6 -83 -4t-58 2q-12 0 -35 4t-41.5 1t-34.5 -15.5t-18 -38.5zM424 1442q-18 -31 7.5 -45.5t43.5 -22.5q16 -2 24.5 -9t26.5 -15q8 -6 33 -21.5t53 -32.5q33 -16 66 -43q16 -10 37 -18q37 -14 53 -14q18 0 20.5 6t18.5 6q18 0 -12.5 24.5t-61.5 38.5q-27 10 -50.5 30 t-49.5 34q-25 12 -56.5 42t-54.5 56q-20 25 -51 17.5t-47 -33.5zM492 1106l299 -8q-74 6 -136 8q-49 6 -98 7t-65 -7zM492 1323q10 -4 5 -15.5t3 -11.5q2 0 14 -4q8 -4 16.5 -7t16.5 -5l39 -23l106 -45l-28 15q-18 8 -33 16q-33 14 -51 29zM690 803l8 -574l19 2q-2 -2 -2 0 q-6 2 -8 25q-4 14 -6.5 99t-6.5 186zM721 215q0 -8 10 -10t27.5 -2t31 -2t17.5 -2q8 -6 25.5 -25.5t17.5 -30.5q0 -14 2 -32.5t-2 -12.5q0 8 2 51.5t-35 59.5q-37 20 -62.5 25.5t-33.5 -19.5z" />
<glyph unicode="&#xcd;" horiz-adv-x="1236" d="M-41 -664v2503h1298v-2503h-1298zM395 971q-2 -31 15.5 -39t41 -11t48 -3t28.5 -5q37 -45 37 -153q0 -27 3 -114t4 -182t2 -175t1 -90q-2 -25 -10 -48.5t-30 -27.5q-23 -8 -35.5 -2t-26.5 6q-8 0 -22.5 -14.5t-24.5 -32t-17.5 -34.5t-0.5 -19q10 -12 68.5 -6t94.5 6h72 t64 -9q31 -6 67.5 -5t52.5 28q18 23 22.5 54.5t-7.5 45.5q-14 10 -26.5 13.5t-24.5 3.5q-14 -6 -31 9t-31 15q-12 0 -34.5 -18.5t-35.5 -13.5q-4 0 -6 19t-4 47t-2 52.5v38.5v531v39t12 22q23 16 54 2q8 -2 43 -10t55 8q16 16 32.5 35.5t8.5 40.5q-2 20 -17.5 34.5 t-29.5 22.5q-10 2 -20.5 9.5t-4.5 15.5q4 0 18.5 3t29 3t26.5 -7t18 -24q2 -18 3.5 -32.5t1.5 -24.5q0 -14 -3 -23q2 27 3 49q0 20 -1.5 38t-9.5 24q-12 6 -24.5 8t-22.5 2h-24l8 -4q2 -6 16 2q41 14 0 25q-20 8 -32.5 -5.5t-22.5 -19.5q-14 -8 -28.5 -26.5t-67.5 -22.5 q-49 -8 -80 -7t-62 1q-14 0 -36.5 4t-40 3t-33 -14.5t-21.5 -37.5zM455 1282q18 0 19 -5t20 -5q8 0 21 4t34 10q14 6 35 17l63 45q31 16 52.5 31.5t33.5 21.5q23 8 29 14t26 17q16 2 41 17t9 46q-18 27 -49 33t-48 -19q-23 -27 -56.5 -55.5t-57.5 -42.5q-25 -10 -47.5 -29.5 t-53.5 -33.5q-29 -12 -59 -39t-12 -27zM524 1108l295 -12q-70 8 -131 12q-51 2 -101.5 3t-62.5 -3zM571 1266l101 45l45 22q35 16 47 17q4 0 -1 11t5 17l-86 -53q-23 -14 -51 -29q-12 -8 -33 -14zM719 801l10 -572l21 2q-6 -2 -7 0q-2 4 -6 27q-4 12 -6 97t-4 186zM752 213 q0 -6 11 -9t26.5 -3t31 -1t17.5 -1q8 -6 26.5 -26.5t18.5 -31.5q0 -14 1 -32.5t-1 -10.5q0 6 1 50.5t-34 60.5q-37 20 -64.5 24.5t-33.5 -20.5z" />
<glyph unicode="&#xce;" horiz-adv-x="1243" d="M-41 -664v2503h1298v-2503h-1298zM125 1282q14 0 17 -5t22 -5q6 0 21.5 4t31.5 10t37 17q33 25 65 45q29 16 52.5 31.5t34.5 21.5q23 8 29.5 14t23.5 17q20 2 44.5 17t6.5 46q-16 27 -47 33t-51 -19q-18 -27 -53 -55.5t-60 -42.5q-27 -10 -50.5 -29.5t-49.5 -33.5 q-31 -12 -61.5 -39t-12.5 -27zM240 1266l106 45l41 22q37 16 47 17q8 0 3 11t5 17l-86 -53q-23 -14 -55 -29q-14 -8 -33 -14zM365 971q-2 -31 15 -39t40.5 -10t48.5 -2t29 -7q37 -45 37 -153q0 -27 3 -114t4 -182t2 -174t1 -91q-2 -25 -10.5 -48.5t-30.5 -27.5 q-23 -8 -35 -2t-27 6q-8 0 -22 -14.5t-24.5 -32t-17.5 -34.5t-1 -19q10 -10 68.5 -5t95.5 5h71.5t63.5 -9q31 -6 67.5 -4t53.5 27q18 23 22 54.5t-8 45.5q-14 10 -26.5 13.5t-24.5 3.5q-14 -6 -30.5 9t-31.5 15q-14 0 -35.5 -18.5t-33.5 -13.5q-4 0 -6 19t-4.5 47t-2.5 52.5 v38.5v531v39t13 22q23 16 53 2q8 -2 43 -10t55 8q16 16 32.5 35.5t8.5 40.5q-2 23 -17.5 36t-29.5 21q-12 4 -21.5 10.5t-2.5 14.5q4 0 18 3t28.5 3t27 -7t16.5 -24q4 -18 5 -32.5t1 -24.5q0 -14 -2 -23q2 27 2 49q0 20 -1 38t-9 24q-12 6 -24.5 9t-23.5 3h-26l10 -6 q2 -6 16 2q41 14 0 25q-20 8 -32.5 -5.5t-22.5 -19.5q-14 -8 -28.5 -26.5t-67.5 -22.5q-49 -8 -80 -7t-61 1q-14 0 -37 4t-40.5 3t-32.5 -13.5t-21 -38.5zM494 1108l294 -12q-70 8 -131 12q-51 2 -101 4t-62 -4zM688 803l10 -574l21 2q-6 -2 -6 0q-2 4 -6 27q-4 12 -6.5 97 t-4.5 186zM696 1509q-20 -29 5.5 -45t43.5 -20q16 -8 25.5 -15.5t28.5 -15.5q8 -4 33.5 -19.5t52.5 -31.5q33 -20 67 -45q16 -12 35 -17q37 -14 53 -14q20 0 22.5 5t16.5 5q20 0 -10 27t-59 39q-31 12 -54.5 31.5t-48.5 31.5q-25 14 -58.5 43t-55.5 54q-18 27 -49 20.5 t-48 -33.5zM721 213q0 -6 11 -9t26.5 -3t31 -1t17.5 -1q8 -6 26.5 -26.5t18.5 -31.5q0 -14 1 -32.5t-1 -10.5q0 6 1 50.5t-34 62.5q-37 18 -64.5 22.5t-33.5 -20.5zM768 1395q6 -8 3 -19.5t1 -11.5q12 0 49 -16l45 -23l103 -45l-29 16q-18 6 -33 15q-31 14 -53 28z" />
<glyph unicode="&#xcf;" horiz-adv-x="1220" d="M-41 -664v2503h1298v-2503h-1298zM338 1395q0 -20 2 -29.5t2 -17.5v-29q0 -14 6 -25q0 2 2 11q4 6 4 11t8 15q2 10 8.5 30.5t14.5 47.5q0 -6 -3 -10t-3 -13q-2 -29 10 -40t10 -25q-12 -8 -20 -12q-16 -12 -17 -27q0 -39 54 -43q31 -6 69.5 12.5t46.5 89.5q2 33 -12 59.5 t-35.5 41t-41 20.5t-31.5 6q-8 0 -13 -4q-12 -6 -36.5 -20t-24.5 -49zM365 969q-2 -29 16 -38t41.5 -10t45 -1t30.5 -7q37 -45 37 -153q0 -27 1 -113t4 -182t4 -176t1 -90q-2 -25 -11.5 -47.5t-31.5 -28.5q-20 -4 -32.5 1t-29.5 5q-6 0 -21.5 -15.5t-24.5 -34t-17 -32.5 t0 -20q10 -12 67.5 -6t92.5 6h74.5t68.5 -7q27 -8 62.5 -7t54.5 30q18 18 24 52t-8 48q-16 10 -29.5 12.5t-23.5 2.5q-14 -4 -29.5 10t-32.5 14q-14 0 -34.5 -18.5t-30.5 -13.5q-10 0 -11 20t-2.5 47t-1.5 51.5v38.5v529v40t15 21q20 18 49 4q10 -4 44 -11t52 7 q18 18 34.5 37.5t8.5 40.5q-4 18 -17 33.5t-28 21.5q-10 6 -21.5 12.5t-2.5 12.5q2 0 16 4t29.5 4t28 -7t14.5 -26q4 -16 6 -31.5t2 -23.5q0 -16 -4 -23q4 29 4 49q0 18 -2 36t-8 26q-10 4 -23.5 8t-23.5 4h-25l4 -8q6 -4 21 4q39 14 0 27q-23 4 -35.5 -8.5t-24.5 -18.5 q-12 -8 -25.5 -25.5t-68.5 -25.5q-53 -6 -83 -5t-58 1q-14 0 -36 4t-40.5 2t-34.5 -15.5t-20 -37.5zM489 1106l302 -8q-72 4 -134 8q-51 4 -101.5 6t-66.5 -6zM674 1395q0 -20 4 -29.5t4 -17.5v-29q0 -14 2 -25q0 2 6 11q2 6 2 11t6 15q6 16 0.5 59.5t6.5 57.5 q-8 -6 -15 -18q-16 -20 -16 -35zM690 803l8 -574l21 2q-4 -2 -4 0q-4 4 -8 27q-2 12 -5.5 97t-5.5 186zM698 1282q0 -39 56 -43q29 -6 68.5 12.5t45.5 89.5q6 33 -9 59.5t-36.5 41t-42 20.5t-28.5 6q-20 0 -25.5 -25.5t-7.5 -56.5q0 -14 6 -20t17.5 -8t18.5 -6t7 -11 l-37 -22q-33 -19 -33 -37zM721 215q0 -8 11 -9t27.5 -1t31 -3t16.5 -3q8 -6 26.5 -25.5t18.5 -30.5q0 -14 1 -32.5t-1 -12.5q0 8 1 51.5t-36 59.5q-35 20 -61.5 25.5t-34.5 -19.5z" />
<glyph unicode="&#xd1;" horiz-adv-x="1288" d="M-29 -664v2503h1348v-2503h-1348zM256 235.5q0 -77.5 6 -94.5q25 -82 64 -73q16 6 36.5 29.5t26.5 33.5q2 18 -14.5 41t-20.5 41q0 12 -1 58t-5 105.5t-4 118v91.5q8 57 13 94t1 51q-4 8 -18 -18q-10 -14 -21 -31q-2 35 -6 61q-4 27 -2 50.5t8 31.5q20 14 31.5 24.5 t26.5 0.5q4 -4 29.5 -46t63.5 -101.5t80 -127t78 -128t62.5 -102.5t30.5 -48l76 -96q2 -6 7 -25.5t10 -41t12.5 -43t17.5 -23.5q10 -10 32.5 -11.5t43 -0.5t40 11.5t21.5 26.5q8 39 -8.5 97.5t-16.5 193.5q0 63 3.5 145t3.5 161t1 142.5t3 90.5q6 49 16 78.5t4 41.5 q-6 6 -7 20.5t-7 27.5q-8 14 -10 28q-12 -18 -25 -33q-23 -33 -35 -40q-14 -4 -31.5 -13.5t-19.5 -27.5q0 -18 15.5 -70.5t9.5 -95.5q0 -23 -1.5 -90.5t-5.5 -141t-6 -141.5t-2 -80q-8 -29 -13 -67.5t-24 -47.5q-14 -16 -34.5 -12t-34.5 29q-18 29 -28.5 49t-14.5 41 q-6 20 -9.5 38.5t9.5 26.5q8 4 11 4.5t11 2.5q8 0 13 6q-31 31 -58 65q-55 59 -72 90q-10 14 -33.5 63.5t-50 105t-51 104.5t-30.5 59q-20 18 -41 67.5t-31 61.5q-12 10 -12 23.5v23.5q0 8 -3.5 -3t-13.5 -23q-12 -10 -51 -28.5t-45 -39.5q0 -8 6 -29.5t12.5 -41t15.5 -38 t9 -26.5q4 -16 -8 -59.5t-12 -69.5q0 -27 -8.5 -59.5t-8.5 -55.5q0 -8 -3 -80.5t-3 -163v-168zM330 1354q-10 -33 14.5 -44.5t46.5 -19.5q25 -6 41.5 -6t32.5 16q8 25 11 38.5t7 21.5q10 6 24.5 21.5t35.5 19.5q23 10 48 10t36 -4q4 -8 20.5 -24.5t39 -36t49 -37t50.5 -19.5 q27 -2 57.5 11.5t56.5 29t46.5 31.5t26.5 22q6 12 3 36t-11 28q-8 8 -17.5 -1t-17.5 -20l-21 -28v-15q0 -18 -20 -36q-18 -18 -22.5 8t-16.5 33q-16 8 -28.5 -9.5t-51.5 -1.5q-39 18 -70.5 68.5t-83.5 58.5q-25 0 -56.5 -11t-63 -28.5t-55 -33t-33.5 -25.5q-16 -16 -31 -16 q-8 0 -8 6q-6 -6 -15 -13q-10 -6 -14 -14t-10 -16zM369 1130q41 -47 84 -104q37 -51 82 -118.5t88 -147.5q45 -82 69.5 -123t34.5 -55q17 -23 21 -23q-27 53 -52 103q-25 43 -49 90t-43 75q-18 33 -39.5 75t-45 82t-42 69.5t-35.5 38.5q-12 6 -23 12t-26 16q-12 8 -24 10z M393 639q10 -139 17 -250q6 -47 7 -93t5 -82t6 -59.5t2 -25.5v168v119.5t2 64.5q0 6 -5 34t-11 56q-12 31 -23 68zM459 412l20 20l-6 17zM516 1346l94 6q-2 2 -10 8q-6 2 -31 2q-27 -2 -39 -10zM883 0h16q4 0 27 8q8 0 17 6t22 15q14 4 24 16zM899 1288q-10 -4 8.5 -1 t43 15.5t47 28t30.5 35.5q25 90 -16 78l4 -10v-33q0 -23 -4 -47q-8 -16 -20.5 -21.5t-28.5 -11.5q-23 -6 -37.5 -18.5t-26.5 -14.5zM1016 201v4q0 6 2 11t2 13t8 17.5t8 21.5v383q0 166 2 375q-8 -8 -11 -49t-7 -100.5t-4 -133v-149.5v-393zM1024 113q4 2 4 16v12.5t-4 14.5 v-43z" />
<glyph unicode="&#xd2;" horiz-adv-x="1210" d="M-41 -664v2503h1292v-2503h-1292zM183 527.5q5 -105.5 38 -208t115 -165.5q76 -63 156.5 -86t147.5 -10.5t120 50t80 93.5q27 53 48 121.5t34.5 139t10.5 136.5t-18 117q-63 209 -161 305q-49 49 -86 67.5t-17 -16.5q2 -4 -45 -4t-109.5 -12.5t-129 -46t-101.5 -101.5 q-39 -70 -63.5 -172t-19.5 -207.5zM291 602q2 117 47 187.5t99.5 108.5t104.5 49t64 11q53 -8 99.5 -46t77 -94t46 -120.5t15.5 -126.5q0 -63 -18.5 -131.5t-50.5 -127t-76 -96.5t-91 -38q-49 0 -106.5 21.5t-105.5 73t-80.5 132t-24.5 197.5zM340.5 500.5 q13.5 -103.5 42.5 -164.5q14 -31 38.5 -54.5t51.5 -37t48.5 -18.5t23.5 3q8 8 -14.5 27.5t-47.5 44.5q-10 12 -28.5 24.5t-33.5 39t-29.5 72.5t-16.5 124q-8 76 12.5 137.5t48.5 100.5q33 47 72 84q-33 -23 -62 -47q-25 -25 -50 -59t-42 -79q-27 -94 -13.5 -197.5zM377 1427 q-16 -27 7.5 -43t41.5 -20q18 -8 25.5 -15.5t29.5 -11.5q4 -8 30 -22.5t56 -32.5q31 -18 64 -43q20 -10 37 -18q37 -14 53 -15q18 0 20.5 5.5t20.5 5.5q16 0 -14.5 26.5t-57.5 38.5q-31 12 -53.5 33.5t-46.5 32.5q-29 14 -61.5 41.5t-55.5 54.5q-16 25 -47 19.5t-49 -36.5z M444 1315q12 -8 6 -18.5t1 -10.5q6 0 16 -4q6 -4 15.5 -8t15.5 -6l45 -23l102 -45l-29 17q-18 8 -32 14q-31 14 -54 31zM590 -2q66 14 131 45q55 25 110.5 67t92.5 103q33 61 51 136t26.5 144.5t7.5 126t-8 78.5q-2 25 -16 75t-38.5 106.5t-61.5 110.5t-80 87 q-49 29 -85 47.5t-65 22.5q-33 12 -59 12q18 -6 33 -12q14 -4 25.5 -6t15.5 -8q8 0 45 -19.5t79 -51.5t78.5 -72t53.5 -83q14 -45 29.5 -101t23.5 -116.5t12 -118t-4 -104.5q-10 -92 -36.5 -169t-110.5 -159q-41 -43 -87 -68.5t-83 -41.5q-41 -20 -80 -31zM1071 397 q0 -20 14 -22l-6 35q-8 -8 -8 -13z" />
<glyph unicode="&#xd3;" horiz-adv-x="1216" d="M-43 -664v2503h1292v-2503h-1292zM180 526.5q4 -104.5 38 -206t114 -166.5q78 -63 158.5 -86t147.5 -9.5t120 50t82 94.5q25 51 47 119.5t34.5 139t9.5 135.5t-18 118q-63 209 -161 303q-49 51 -85 68.5t-18 -15.5q4 -6 -44 -6t-110.5 -12.5t-129 -45t-103.5 -100.5 q-39 -70 -62.5 -173t-19.5 -207.5zM289 602q2 117 48 187.5t100.5 108.5t104.5 48t62 10q53 -8 99.5 -45t77 -93t46 -121.5t15.5 -125.5q0 -63 -18.5 -131.5t-50.5 -127t-75 -95.5t-90 -37q-51 0 -107.5 20.5t-105.5 72t-81.5 132t-24.5 197.5zM337.5 500.5 q14.5 -103.5 45.5 -164.5q14 -31 38.5 -54.5t51.5 -36t47.5 -18.5t24.5 2q8 8 -14.5 27.5t-47.5 44.5q-12 12 -29.5 24.5t-32.5 39t-30.5 72.5t-19.5 124q-8 76 14.5 137.5t50.5 100.5q33 47 72 84q-33 -23 -62 -47q-25 -27 -51 -60t-43 -78q-29 -94 -14.5 -197.5zM436 1280 q12 0 15.5 -5t19.5 -5q8 0 22.5 4t32.5 12q18 4 39 17q31 25 66 45q25 16 49.5 29.5t36.5 21.5q18 8 26.5 15t28.5 13q16 6 40 21.5t5 46.5q-16 27 -46 33t-52 -21q-16 -25 -51 -53.5t-60 -42.5q-25 -12 -50.5 -31.5t-51.5 -31.5q-31 -12 -62 -40t-8 -28zM547 1264l106 47 l41 18q37 21 49 21q6 0 2 11t5 17l-86 -53q-23 -14 -56 -31q-14 -6 -30 -14zM588 -2q68 14 131 45q55 25 111.5 67t91.5 103t52 136t25.5 144.5t7.5 126t-8 78.5q-2 25 -16 75t-38.5 106.5t-60.5 110.5t-81 87q-47 27 -83 45.5t-65 24.5q-33 10 -61 10q20 -6 33 -10 q14 -6 25.5 -7t17.5 -7q8 0 44 -19.5t78 -51.5t79.5 -73t54.5 -82q14 -45 28.5 -101t23.5 -116.5t13 -118t-4 -104.5q-12 -92 -38.5 -169t-108.5 -157q-43 -45 -89 -70.5t-81 -41.5q-43 -18 -82 -31zM1069 397q0 -20 14 -22l-6 35q-8 -8 -8 -13z" />
<glyph unicode="&#xd4;" d="M-41 -664v2503h1294v-2503h-1294zM121 1280q18 0 20 -6t19 -6q8 0 22.5 4t32.5 12q14 6 37 19q31 25 63 43q31 18 53.5 31.5t32.5 21.5q23 8 30 15t26 13q18 4 42.5 19.5t8.5 46.5q-20 29 -51 34t-47 -20q-23 -25 -58 -54.5t-59 -41.5q-25 -12 -48 -31.5t-52 -33.5 q-27 -10 -58 -38t-14 -28zM182 526.5q4 -106.5 38 -208t116 -164.5q78 -66 157.5 -87.5t146.5 -9t119 50t81 93.5q25 53 47 120.5t34.5 139t10.5 137.5t-17 119q-61 203 -161 303q-51 49 -87 67.5t-16 -14.5q2 -6 -44 -6t-109.5 -12.5t-130 -46t-101.5 -99.5 q-39 -70 -63.5 -173t-20.5 -209.5zM238 1264l102 47l45 18q37 21 47 21q6 0 0 11t6 15l-86 -53q-23 -12 -53 -29q-16 -6 -33 -14zM291 602q2 117 48 187.5t100.5 108.5t103.5 49t63 5q53 -4 98.5 -42t76 -92t46 -119.5t15.5 -127.5q0 -66 -17.5 -133t-50.5 -125.5t-76 -96.5 t-90 -38t-104.5 20.5t-106.5 73t-81.5 133t-24.5 197.5zM339.5 499.5q14.5 -104.5 45.5 -165.5q14 -31 39 -54.5t51.5 -36t48 -18.5t23.5 2q8 10 -14.5 29.5t-47.5 44.5q-10 10 -28.5 22.5t-33.5 39t-30.5 72.5t-17.5 124q-8 80 13.5 140.5t49.5 101.5q33 47 72 82 q-33 -23 -61 -47q-25 -25 -51.5 -59t-43.5 -77q-29 -96 -14.5 -200.5zM590 -2q66 12 131 43q55 27 110.5 68t92.5 102q33 61 51 137t26.5 145.5t7.5 125t-8 81.5q-4 25 -17 75t-38.5 105.5t-61.5 109.5t-81 87q-47 29 -83 47.5t-65 22.5q-33 12 -61 12q20 -6 35 -12 q12 -4 23.5 -6t17.5 -6q8 0 44 -19.5t78 -52.5t79.5 -73t54.5 -81q14 -45 29.5 -102t23.5 -116.5t12 -119t-4 -106.5q-10 -92 -36.5 -169t-110.5 -157q-41 -45 -87 -69.5t-83 -40.5q-41 -20 -80 -31zM694 1507q-16 -31 7.5 -46t39.5 -17q20 -8 28.5 -15.5t29.5 -15.5 q8 -6 31.5 -21.5t54.5 -31.5l63 -45q23 -10 39 -17q20 -8 33.5 -11t21.5 -3q16 0 18.5 5t18.5 5q18 0 -11.5 28t-57.5 38q-29 14 -54.5 33.5t-52.5 29.5q-25 14 -58.5 44t-51.5 55q-20 25 -49 19.5t-50 -34.5zM764 1391q8 -6 4 -16.5t0 -10.5q12 0 49 -18l45 -23l103 -47 l-27 18q-18 8 -35 17q-31 12 -53 26zM1071 395q0 -20 14 -22l-6 37q-8 -8 -8 -15z" />
<glyph unicode="&#xd5;" horiz-adv-x="1239" d="M-29 -664v2503h1299v-2503h-1299zM199 526.5q4 -108.5 36.5 -209t114.5 -163.5q78 -68 158 -88.5t145.5 -8t117.5 51t81 94.5q25 53 48.5 121.5t34.5 139.5t11 135.5t-16 119.5q-64 211 -164 301q-51 47 -87 69.5t-20 -14.5q6 -8 -39 -8t-107 -12.5t-129 -45t-103 -102.5 q-39 -66 -62.5 -169t-19.5 -211.5zM256 1358q-12 -37 11.5 -48.5t45.5 -17.5q23 -8 38.5 -8t29.5 21q10 18 13 33.5t9 21.5q8 8 21.5 22.5t34.5 22.5q18 10 44.5 10t35.5 -8q6 -4 21 -21.5t36.5 -37t46.5 -36t51 -20.5q25 -4 53.5 8.5t54 29t45 33.5t21.5 21q8 12 4 36 t-10 32q-8 6 -16 -2t-17 -20l-22 -27v-19q0 -16 -16 -34q-18 -16 -21.5 8t-17.5 33q-14 6 -27.5 -9.5t-48.5 -1.5q-35 16 -64.5 66.5t-81.5 58.5q-27 0 -57.5 -11t-61 -26.5t-52 -32t-31.5 -28.5q-14 -14 -29 -14q-8 0 -8 4q-4 -4 -12 -13q-10 -4 -15.5 -11t-7.5 -15z M303 602q2 119 49 188.5t101.5 108.5t102.5 49t62 10q53 -6 99.5 -42.5t78 -92t48 -122t16.5 -130.5q0 -68 -18.5 -135t-51 -124.5t-75.5 -95.5t-90 -38q-49 0 -106.5 21.5t-108 72t-83 132t-24.5 198.5zM355.5 504.5q17.5 -105.5 43.5 -166.5q12 -35 37 -56.5t51.5 -36 t49 -17.5t24.5 1q8 4 -13.5 25.5t-47.5 46.5q-10 12 -28.5 24.5t-36 39t-32 70.5t-16.5 126q-8 78 13.5 138.5t50.5 103.5q32 45 71 80q-33 -23 -61 -47q-25 -25 -49.5 -56.5t-38.5 -79.5q-35 -90 -17.5 -195.5zM434 1346l92 8q-4 4 -12 6q-6 6 -31 6q-25 -6 -34 -12z M604 -2q68 14 133 45q53 25 109.5 64.5t91.5 101.5q35 61 52.5 138t24.5 146.5t7 128t-6 78.5q-2 25 -16.5 76t-39 106.5t-61.5 108.5t-80 86q-47 35 -82 52.5t-65 23.5q-31 12 -62 12q14 -4 31 -12q27 -14 43 -14q10 -2 45 -21.5t75 -53.5t79 -73t55 -84q14 -41 30.5 -99 t24.5 -116.5t13.5 -117t-5.5 -105.5q-12 -92 -37.5 -170t-111.5 -162q-45 -39 -88 -65.5t-80 -46.5q-39 -16 -80 -27zM799 1288q-8 -4 10 0t41.5 14.5t44 27t29.5 38.5q23 90 -19 76l8 -12v-27q0 -25 -8 -47q-6 -16 -17 -22.5t-28 -14.5q-18 -8 -32.5 -18.5t-28.5 -14.5z M1085 393q-8 -14 13 -20l-4 37q-8 -8 -9 -17z" />
<glyph unicode="&#xd6;" horiz-adv-x="1222" d="M-41 -664v2503h1294v-2503h-1294zM182 526.5q4 -106.5 38 -208t114 -164.5q78 -63 158.5 -86t147.5 -10.5t119 50t81 93.5q25 53 47 120.5t34.5 138t9.5 137.5t-16 120q-65 209 -161 303q-51 49 -87 67.5t-16 -14.5q2 -6 -45 -6t-109.5 -12.5t-129 -46t-103.5 -99.5 q-39 -70 -62.5 -173t-19.5 -209.5zM289 602q4 117 50 188.5t99.5 108.5t103.5 48t64 11q53 -8 99.5 -46t76 -93t45 -120.5t15.5 -129.5q0 -63 -17.5 -130.5t-50.5 -126t-76 -96.5t-90 -38q-49 0 -106.5 20.5t-105.5 73t-81.5 132t-25.5 198.5zM297 1393q0 -16 3 -27.5 t3 -17.5v-31q0 -14 6 -25q0 2 2 11q4 8 4 14t9 10q2 12 7 34.5t15 47.5q0 -8 -3 -12t-3 -11q-4 -31 9 -40t9 -23q-10 -8 -18 -16q-16 -12 -16 -27q0 -39 51 -41q31 -8 70 10t47 90q4 37 -10.5 61.5t-37 38t-41 22.5t-30.5 9q-8 0 -15 -8q-10 -4 -35.5 -19.5t-25.5 -49.5z M339.5 500.5q14.5 -105.5 45.5 -166.5q12 -31 38 -54.5t51.5 -36t47 -18.5t23.5 2q8 8 -13.5 27.5t-48.5 46.5q-10 10 -28.5 22.5t-33.5 39t-30.5 72.5t-17.5 124q-8 80 14.5 141.5t48.5 100.5q35 47 74 82q-35 -20 -61 -47q-27 -25 -52.5 -58t-42.5 -78 q-29 -94 -14.5 -199.5zM590 -2q66 14 131 45q55 25 110.5 66t92.5 102q33 61 51 136t26.5 144.5t6.5 128t-7 80.5q-4 25 -17 75t-38.5 105.5t-61.5 109.5t-81 87q-47 29 -83 47.5t-65 22.5q-33 12 -59 12q18 -6 33 -12q14 -4 24.5 -6t16.5 -6q8 0 45 -19.5t78 -52.5 t78.5 -73t54.5 -81q14 -45 29.5 -102t23.5 -116.5t12 -119t-4 -106.5q-12 -92 -37.5 -169t-109.5 -157q-41 -45 -87 -69.5t-83 -40.5q-41 -20 -80 -31zM635 1393q0 -16 4 -27.5t4 -17.5v-31q0 -14 2 -25q0 2 6 11q2 8 2 14t6 10q4 20 -1 63.5t6 57.5q-8 -8 -13 -21 q-16 -18 -16 -34zM659 1280q0 -39 56 -41q27 -8 67.5 10.5t44.5 89.5q6 37 -9 61.5t-35.5 38t-41 22.5t-28.5 9q-20 0 -25.5 -28.5t-9.5 -55.5q0 -14 7 -19t18.5 -9t18.5 -7t7 -12l-37 -22q-33 -16 -33 -37zM1069 395q0 -20 14 -22l-4 37q-10 -10 -10 -15z" />
<glyph unicode="&#xd7;" horiz-adv-x="1191" d="M-76 -664v2503h1301v-2503h-1301zM328.5 626q-11.5 -36 9.5 -53q16 -23 32.5 -29.5t34 -14t33 -18.5t33.5 -34l41 -43q-35 -29 -58.5 -45t-29.5 -22q-8 -8 -26.5 -20.5t-35.5 -41.5q-18 -25 -14 -55.5t21 -38.5q41 -16 56 -14t24 12q4 2 45 56t88 102l106 -109 q6 -8 10 -33.5t29 -42.5q29 -18 63.5 -17t53.5 38q14 27 -1.5 49t-39 43.5t-44 31t-24.5 15.5q-8 2 -12 24.5t-57 77.5q49 45 80.5 77t33.5 34q12 8 27.5 14t28.5 21q12 10 20 39.5t-12 56.5q-18 31 -54.5 41t-54.5 -6q-18 -20 -30.5 -51t-28.5 -58q-10 -10 -22.5 -39.5 t-20.5 -35.5q-6 -8 -33 -31q-14 6 -22.5 25.5t-20.5 31.5q-14 14 -34.5 36t-22.5 22q-8 8 -13.5 23t-15.5 26q-16 14 -44 22t-58 -10q-29 -20 -40.5 -56zM748 434q6 -4 22 10.5t31.5 32t27 32.5t7.5 13q-8 -8 -21 -15t-29 -30q-12 -10 -17 -17t-13 -16z" />
<glyph unicode="&#xd8;" d="M-35 -664v2503h1299v-2503h-1299zM244 473q10 -94 35.5 -156.5t64.5 -103.5q-6 -12 -12 -20.5t-10 -16.5q-39 -74 -17 -92q10 -8 33.5 21.5t52.5 68.5q59 -41 130 -51t129.5 -3t98 23.5t42.5 22.5l12 18q39 47 71 107q29 49 50.5 110.5t25.5 124.5q4 84 -19.5 180.5 t-53.5 174.5q45 59 47 67q57 61 57 78q0 23 -13.5 50.5t-21.5 33.5q-8 8 -13 10t-13 -16q-12 -16 -36 -28.5t-57 -78.5q-2 4 -4 10.5t-6 8.5q-31 53 -60.5 86t-43.5 28q-10 -8 -5 -17t-12 -9h-34.5t-63.5 -2t-72 -9.5t-57 -17.5q-20 -12 -67.5 -35.5t-89.5 -85t-66.5 -174 t-1.5 -307.5zM293 621q-8 78 22.5 142t70.5 108t77 68t41 32q20 14 51 26.5t86 -6.5q29 -6 65.5 -28.5t73.5 -63.5q-31 -57 -78 -131t-92 -141.5t-77.5 -119.5t-45.5 -67q-14 -16 -35.5 -50t-48.5 -73q-27 29 -64.5 103t-45.5 201zM361 566q4 -36 16 -62q10 -27 26 -49 q-2 10 -4 30q-6 16 -9 43t1 70q2 106 22.5 169.5t46 102.5t43 52.5t17.5 15.5q-4 2 -18.5 -6t-33.5 -41t-44 -90.5t-53 -149.5q-14 -49 -10 -85zM461 279q18 31 64 95t99.5 140t108.5 156t96 145q37 -74 45 -207q0 -106 -22.5 -177t-54 -114t-73.5 -64.5t-77 -33.5 q-37 -12 -67.5 -6t-57 15.5t-43 24.5t-16.5 17q0 4 -2 9zM544 292q-5 -13 3 -7q12 12 50 70.5t83 121.5q49 74 108 170q-80 -109 -137 -192q-25 -37 -47 -69t-38.5 -56.5t-21.5 -37.5zM688 68q98 6 172 67q63 49 117.5 165t54.5 333q0 72 -10 116t-25 72q-14 31 -36 45 q20 -39 32 -82q12 -35 20.5 -80t2.5 -94q-18 -145 -32.5 -220t-31 -113.5t-31 -48t-30.5 -27.5q-16 -12 -48 -34t-69 -44q-41 -25 -86 -55z" />
<glyph unicode="&#xd9;" horiz-adv-x="1200" d="M-78 -664v2503h1295v-2503h-1295zM236 1071q-10 -20 4 -69.5t14 -104.5v-125t4 -204.5t13.5 -207t31.5 -116.5q23 -27 61.5 -57.5t90 -54t110 -29t125.5 19.5q133 53 189.5 99t60.5 81q6 39 -3 78t-11 45q0 6 -1 68.5t-1 140.5t1 146.5t1 84.5q8 31 15 86.5t15 77.5 q6 20 -12.5 64.5t-32.5 46.5q-14 4 -38.5 -13.5t-41.5 -44.5q-6 -14 -7 -84.5t2 -156.5t4 -170t-1 -127q-4 -43 -4 -96.5t-12 -100.5t-44 -83t-99 -48q-63 -10 -95 -11t-49.5 4t-21.5 13t-12 17q-18 14 -20.5 19t-12.5 3q-10 -6 -27.5 12.5t-34.5 36.5q-18 18 -21 30.5 t-1 20.5q4 10 9 16.5t-1 33.5q-8 29 -15.5 61.5t-9.5 81.5q0 18 -3 86t-3 139.5t3 130t3 64.5q6 10 18.5 47t2.5 61q-27 55 -62 50q-16 -2 -44.5 -20.5t-36.5 -41.5zM399 1473q-16 -29 7.5 -45.5t42.5 -18.5q16 -8 25 -15.5t26 -15.5q12 -6 35.5 -21.5t50.5 -31.5l67 -45 q23 -10 39 -16q16 -8 31.5 -11.5t21.5 -3.5q18 0 20.5 6.5t14.5 6.5q23 0 -7.5 25.5t-57.5 37.5q-31 14 -56.5 33.5t-50.5 30.5q-25 14 -58.5 42.5t-51.5 55.5q-23 25 -50.5 18.5t-48.5 -32.5zM422 506q-10 -72 4 -105q8 -14 12 -24q6 63 6 125v104t5 82q0 29 -2.5 95.5 t-10.5 138.5q-6 84 -14 176q0 -4 2 -83t4 -178.5t0 -195.5t-6 -135zM469 1356q6 -6 3 -17.5t1 -11.5q14 0 49 -16l45 -23l103 -47l-27 21q-20 4 -35 12q-31 14 -53 29zM586 18q90 4 164 35q66 25 131 70t100 129q16 63 22.5 192t6.5 258q-1 150 -9 322q-4 -172 -4 -315 q0 -121 -1 -225.5t-1 -118.5q-6 -10 -10 -42t-19.5 -71t-44 -78t-73.5 -65q-49 -27 -97.5 -44.5t-82.5 -27.5q-45 -14 -82 -19z" />
<glyph unicode="&#xda;" horiz-adv-x="1208" d="M-72 -664v2503h1293v-2503h-1293zM242 1071q-10 -23 4 -71t14 -103v-126t4 -203.5t13.5 -205t31.5 -118.5q23 -25 62 -55.5t90 -54t109.5 -30t125.5 20.5q133 51 190.5 97t59.5 83q6 39 -2 78t-12 45q0 4 -1 66.5t-1 140.5t1 145.5t1 85.5q8 31 15 86.5t16 77.5 q6 18 -12.5 63.5t-30.5 47.5q-14 2 -40 -14.5t-42 -43.5q-6 -14 -7.5 -85.5t2 -157.5t4.5 -169t-1 -124q-4 -45 -4.5 -97.5t-12.5 -100.5t-44 -84t-99 -46q-63 -12 -95 -13t-48.5 4t-20.5 14t-14 18q-18 12 -19.5 18t-13.5 2q-10 -4 -27.5 13.5t-34.5 37.5q-18 16 -21 28.5 t-1 20.5q4 12 9 17.5t-1 34.5q-8 27 -14 60.5t-10 80.5q0 20 -2.5 86t-2.5 138.5t2.5 131t2.5 64.5q6 10 18 46t2 62q-25 55 -61 50q-16 -2 -44 -20.5t-38 -41.5zM430 508q-12 -72 2 -107q8 -12 14 -24q4 63 5 125v104t4 82q0 27 -2 93.5t-11 140.5q-4 82 -12 174 q0 -2 1 -81t4 -178.5t0 -194.5t-5 -134zM465 1280q16 0 19 -5t20 -5q8 0 22.5 4t32.5 12q14 4 35 17q33 25 65 45q29 16 52.5 29.5t33.5 21.5q23 8 30 15t24 13q20 6 44.5 21.5t6.5 46.5q-18 27 -48 33t-50 -21q-18 -25 -53 -53.5t-62 -42.5q-25 -12 -48.5 -31.5 t-51.5 -31.5q-29 -12 -59.5 -40t-12.5 -28zM580 1264l104 47l43 18q37 20 47 21q8 0 3 11t5 17l-86 -53q-23 -14 -55 -31q-14 -6 -31 -14zM594 18q88 6 164 37q63 25 128.5 69t102.5 128q16 63 21.5 193t5.5 255q0 152 -8 324q-2 -172 -2 -317q0 -119 -2.5 -223.5 t-2.5 -116.5q-4 -12 -8 -44t-19.5 -71t-45 -78t-74.5 -63q-49 -29 -96 -45.5t-84 -28.5q-45 -12 -80 -19z" />
<glyph unicode="&#xdb;" horiz-adv-x="1236" d="M-41 -664v2503h1294v-2503h-1294zM166 1280q16 0 18 -5t21 -5q8 0 21.5 4t29.5 10q18 6 37 19q33 25 67 43q27 18 50.5 31.5t35.5 21.5q23 8 30 15t24 13q18 4 43.5 19.5t5.5 46.5q-16 29 -47 34t-49 -20q-20 -25 -55.5 -54.5t-59.5 -41.5q-25 -12 -48.5 -31.5 t-51.5 -33.5q-31 -10 -61.5 -38t-10.5 -28zM274 1073q-12 -23 2.5 -73t14.5 -103v-125t4 -204.5t13 -207t32 -118.5q23 -25 61.5 -55.5t91 -54t109.5 -29t123 19.5q135 53 191.5 98t60.5 82q4 39 -4 78t-10 45q0 6 -2.5 68.5t-2.5 140.5t2.5 146.5t2.5 84.5q8 31 15 86.5 t15 77.5q4 20 -13.5 64.5t-31.5 48.5q-14 2 -38.5 -14.5t-41.5 -45.5q-6 -14 -7 -84.5t1 -156.5t4 -170t-2 -127q-2 -43 -2 -96.5t-12 -100.5t-45 -84t-98 -47q-66 -10 -96.5 -12t-47 4t-20.5 14t-13 17q-20 14 -21 19t-13 3q-10 -6 -26.5 12.5t-35.5 36.5q-18 16 -21 29.5 t1 21.5q2 10 7 16.5t1 33.5q-8 29 -15.5 61.5t-11.5 81.5q0 18 -2 86t-2 139.5t2 130t2 64.5q6 12 18.5 48t2.5 60q-25 55 -62 52q-16 -4 -43.5 -21.5t-36.5 -40.5zM279 1266l106 45l41 18q37 20 49 21q8 0 2 11t6 15l-88 -53q-20 -12 -55 -29q-14 -6 -31 -14zM461 506 q-12 -72 2 -105q8 -14 14 -26q6 66 6 127v104t2 82q0 29 -1 95.5t-9 138.5q-6 84 -14 176q0 -2 1 -82t4 -178.5t0 -195.5t-5 -136zM623 16q88 6 163 37q63 25 129 70t103 127q16 66 22.5 194.5t6.5 257.5q-1 150 -9 324q-4 -174 -4 -317q0 -121 -1 -225.5t-1 -118.5 q-6 -10 -10 -43t-19.5 -72t-44 -78t-73.5 -63q-51 -29 -98.5 -45.5t-84.5 -26.5q-43 -14 -79 -21zM739 1507q-18 -31 5.5 -46t41.5 -17q16 -8 26.5 -15.5t27.5 -15.5q10 -6 34.5 -21.5t51.5 -31.5l67 -45q18 -10 39 -17q16 -8 31.5 -11t21.5 -3q18 0 20.5 5t14.5 5 q23 0 -7.5 28t-57.5 38q-31 14 -56.5 33.5t-50.5 29.5q-25 14 -59.5 44t-50.5 55q-23 25 -52.5 19.5t-46.5 -34.5zM807 1391q8 -6 4 -16.5t0 -10.5q14 0 51 -18l41 -23l107 -45l-29 16q-18 8 -33 17q-33 12 -53 26z" />
<glyph unicode="&#xdc;" horiz-adv-x="1212" d="M-66 -664v2503h1295v-2503h-1295zM248 1073q-10 -23 3 -70t13 -106v-125t4 -204.5t14.5 -207t32.5 -118.5q23 -25 62 -55.5t90 -54t109.5 -29t123.5 21.5q133 51 190.5 96t59.5 82q6 39 -2 78t-10 45q0 4 -2 66.5t-2 142.5t2 147.5t2 83.5q8 31 14 86.5t17 77.5 q4 20 -13.5 64.5t-31.5 48.5q-14 2 -39 -13.5t-39 -46.5q-8 -14 -10 -84.5t1 -156.5t6 -171t-3 -126q-2 -45 -2 -97.5t-12.5 -99.5t-45 -84t-98.5 -47q-63 -10 -96 -12t-49.5 4t-20.5 14t-12 17q-18 14 -20.5 19t-12.5 3q-12 -6 -28.5 12.5t-32.5 36.5q-20 16 -22.5 28.5 t-0.5 20.5q2 12 8 17.5t0 34.5q-8 27 -15 60.5t-9 80.5q0 20 -3 89t-3 140.5t3 130t3 62.5q6 12 18 48t0 60q-25 55 -59 52q-18 -4 -44 -21.5t-38 -40.5zM338 1393q0 -16 4 -27.5t4 -17.5v-31q0 -14 2 -25q0 6 2 11q4 8 4 14t8 10q2 12 8.5 34.5t14.5 47.5q0 -8 -2 -12 t-2 -11q-4 -29 8 -39t8 -24q-10 -8 -16 -16q-18 -8 -19 -27q0 -39 54 -41q31 -8 69.5 10.5t46.5 89.5q2 37 -12 61.5t-35.5 38t-41 22.5t-31.5 9q-4 0 -15 -8q-10 -4 -34.5 -19.5t-24.5 -49.5zM434 506q-10 -72 2 -107q10 -12 15 -24q6 63 6 125v106t2 84q0 27 -1 93.5 t-9 138.5q-6 84 -15 176q0 -2 1 -82t4 -178.5t0 -195.5t-5 -136zM598 16q90 6 164 37q63 25 128.5 70t102.5 127q16 63 21.5 193t5.5 259q0 152 -8 324q-2 -172 -2 -315q0 -125 -1 -228.5t-1 -117.5q-6 -12 -10.5 -44t-19.5 -71t-43 -78t-75 -63q-51 -27 -98 -44.5 t-84 -27.5q-43 -14 -80 -21zM676 1393q0 -16 3 -27.5t3 -17.5v-31q0 -14 6 -25q0 6 2 11q2 8 2 14t8 10q4 20 -1.5 63.5t6.5 57.5q-8 -8 -15 -21q-14 -18 -14 -34zM700 1280q0 -39 54 -41q31 -8 69.5 10.5t46.5 89.5q2 37 -11 61.5t-35.5 38t-42 22.5t-29.5 9 q-20 0 -24.5 -28.5t-10.5 -55.5q0 -14 7 -19t18.5 -9t18.5 -7t7 -12l-37 -22q-31 -17 -31 -37z" />
<glyph unicode="&#xdd;" horiz-adv-x="1212" d="M-57 -664v2503h1294v-2503h-1294zM231 1071q-6 -16 13.5 -58t52.5 -90.5t64.5 -95.5t54.5 -75q41 -61 78.5 -109.5t42.5 -58.5q0 -4 2 -51.5t3 -104.5t1 -110.5v-65.5q0 -14 -3 -42t-1 -54.5t15 -49t50 -22.5t48.5 22.5t9 49t-10.5 54.5t-10 42q0 12 -3 55t-6 92.5 t-3 93.5t8 66q6 20 40 70.5t74 109t78.5 105.5t53.5 67q27 33 63.5 73t36.5 63t-23.5 42t-35.5 29q-10 12 -33 -2t-45 -49q-10 -20 -32.5 -56t-43 -74t-39 -69.5t-26.5 -42.5q-6 -14 -23.5 -37.5t-37 -49t-37 -43t-19.5 -17.5q-14 -4 -19.5 -6t-11.5 16q-6 16 -6 27.5 t-8 27.5q-2 12 -21.5 36t-43 51.5t-43 50t-27.5 32.5t-17.5 36t-19 56.5t-19.5 55t-20 37.5q-25 18 -59.5 13t-41.5 -40zM391 1280q16 0 17.5 -5t21.5 -5q4 0 19.5 4t31.5 12q14 6 37 17q33 25 64 45q31 16 54 29.5t32 23.5q23 8 30 14t25 12t43 21.5t8 46.5q-16 27 -47 33 t-51 -21q-23 -25 -55.5 -53.5t-57.5 -42.5q-27 -10 -50.5 -29.5t-53.5 -33.5q-27 -12 -57.5 -40t-10.5 -28zM432 1044l141 -217q-6 8 -25.5 44t-45.5 75q-33 43 -70 98zM504 1264l102 47l45 20q37 18 47 19q6 0 2.5 11t4.5 17l-87 -53q-20 -14 -53 -31q-14 -6 -33 -14z M664 68q12 6 26 22q12 14 22.5 33.5t10.5 58.5q0 35 2 97.5t2 130.5v157q74 106 135 197q51 74 95 140.5t44 76.5q-80 -115 -143 -207q-57 -80 -102 -143.5t-45 -71.5v-71.5t2 -145.5q0 -90 2 -199q-2 -12 -10 -26q-8 -20 -21 -33q-4 -2 -7 -4l-9 -6z" />
<glyph unicode="&#xe0;" horiz-adv-x="1187" d="M-92 -664v2503h1298v-2503h-1298zM207.5 90q-5.5 -31 17.5 -37q14 -2 26.5 -13t31.5 13q18 31 28.5 67t14.5 54q6 18 -0.5 36.5t10.5 18.5q23 2 33 -14t34 -16q25 0 50.5 9t89.5 9q68 0 98.5 -4t54.5 8q27 10 48.5 28.5t33.5 6.5q10 -8 33 -52t31 -67q2 -23 15 -54.5 t54 -39.5q39 -4 53.5 9.5t22.5 43.5q2 27 -21.5 48.5t-35.5 50.5q-4 12 -23.5 60t-46 108.5t-49.5 119t-33 90.5q-12 35 -33.5 86.5t-43 104.5t-40 94t-22.5 53q0 8 -3 32t-8 51.5t-14.5 51t-19.5 31.5q-31 20 -55.5 -20.5t-28.5 -65.5q-6 -25 2 -43t8 -33q0 -12 -12 -26.5 t-19 -36.5q-14 -39 -14 -72q0 -14 -34.5 -88t-61.5 -145q-31 -74 -34 -101.5t-9 -44.5q0 -18 -12.5 -56t-28.5 -66q-8 -16 -27.5 -51t-37 -71t-23 -67zM313 27q29 16 43 34q14 16 24.5 38t2.5 40q-2 -16 -10 -30q-14 -33 -25 -50zM366 351.5q7 17.5 19 37t24.5 42t18.5 38.5 q2 18 19.5 60t33 85t27.5 75t12 36q0 8 -10 16.5t-18 14.5q-8 0 7 15t29 34q8 16 14.5 28.5t18.5 8.5q8 -4 32.5 -55.5t52.5 -113t54.5 -118t34.5 -76.5q20 -37 24.5 -69.5t-1.5 -63.5q-2 -16 -16.5 -18t-36 2t-46 10t-41.5 6q-35 0 -51 4t-26 10q-10 4 -27.5 -2t-56.5 -24 q-39 -12 -56.5 -10t-33.5 8q-8 2 -1 19.5zM371 1444q-20 -31 3 -46.5t44 -21.5q16 -4 25.5 -11t27.5 -15q10 -8 33.5 -22.5t50.5 -31.5l63 -43q20 -10 39 -18q16 -6 32 -10t22 -4q20 0 21 5t16 5q23 0 -8 27.5t-60 37.5q-31 14 -55.5 34t-49.5 30q-25 14 -58.5 44t-49.5 54 q-23 25 -51.5 20t-44.5 -34zM397 156l287 14q-27 6 -74 3t-92 -7q-60 -6 -121 -10zM440 1327q4 -6 2 -17.5t0 -11.5q14 0 50 -16l43 -20l100 -48l-27 17q-20 8 -33 14q-33 16 -49 31zM483 455l17 37q6 12 12 25t14 22q2 10 9 47l6 26q-10 -4 -20.5 -30.5t-16.5 -55.5 q-13 -32 -21 -71zM514 418l72 -35q-2 12 -12.5 29.5t-18.5 11.5q-12 -6 -27 -6h-14zM686 1016q84 -209 148 -373q31 -72 57.5 -138.5t48 -120.5t34.5 -89t15 -39q8 -10 -1 18.5t-28.5 81t-49 123t-58.5 142.5q-70 174 -166 395z" />
<glyph unicode="&#xe1;" horiz-adv-x="1165" d="M-100 -664v2503h1298v-2503h-1298zM200.5 90q-6.5 -31 16.5 -35q14 -4 26.5 -14t32.5 14q16 29 27.5 65t13.5 54t-3 36.5t14 18.5q23 2 31 -14t34 -16q25 0 49.5 9t92.5 9q70 0 100.5 -4t56.5 8q25 10 45.5 28.5t32.5 6.5q10 -4 33.5 -50t30.5 -69q6 -20 18 -53t51 -39 q39 -2 54.5 10.5t21.5 38.5q2 29 -20.5 51.5t-32.5 49.5q-8 12 -27.5 60t-45.5 108.5t-49.5 119t-33.5 90.5q-12 35 -32.5 86.5t-43 104.5t-41 93t-20.5 50q0 12 -4 36t-10.5 50.5t-14.5 50t-18 33.5q-29 20 -55.5 -19.5t-28.5 -66.5q-8 -25 1 -43t9 -30q0 -14 -12.5 -30 t-20.5 -36q-14 -41 -14 -72q0 -14 -34 -88t-64 -145q-27 -74 -31 -101.5t-8 -44.5q0 -20 -12.5 -57t-30.5 -65q-6 -14 -25.5 -50t-36 -72t-23 -67zM307 25q25 20 39 36q16 20 25.5 39.5t5.5 42.5q-6 -20 -12 -34q-14 -33 -25 -50zM356 332q-6 6 1.5 21.5t19.5 36t25.5 41 t15.5 38.5q6 18 21.5 60t31.5 85t28.5 75t12.5 36q0 8 -11.5 16.5t-15.5 14.5q-10 0 4.5 15t30.5 34q6 16 12.5 29.5t20.5 7.5q8 -6 32.5 -56.5t54.5 -112t54.5 -118t36.5 -76.5q16 -37 20.5 -69.5t0.5 -61.5q-4 -18 -18.5 -20t-37 4t-44 11t-42.5 5q-37 0 -52 3t-26 11 q-8 2 -26.5 -4t-56.5 -20q-43 -16 -57.5 -14t-35.5 8zM362 1282q14 0 16.5 -5t22.5 -5q4 0 19.5 4t34.5 8q12 8 34 21q35 25 64 41q29 20 53.5 33.5t32.5 23.5q23 4 29 11t26 16q16 2 42 19t7 44q-16 31 -46.5 35t-49.5 -21q-23 -25 -56.5 -52.5t-58.5 -43.5 q-23 -8 -46 -29.5t-54 -35.5q-29 -10 -59.5 -37t-10.5 -27zM389 156l285 14q-25 8 -71 4t-93 -6q-60 -8 -121 -12zM473 1264l100 47l45 22q37 16 52 17q2 0 -1 11t3 19l-86 -57q-23 -12 -54 -27q-12 -8 -30 -14zM475 455l14 37q8 12 14.5 25t12.5 22q4 10 8 47l8 26 q-8 -4 -19 -29.5t-19 -56.5q-9 -30 -19 -71zM504 418l74 -37q-4 18 -12.5 33.5t-18.5 9.5q-12 -6 -27 -6h-16zM680 1018q82 -209 147 -375q29 -72 56.5 -138.5t48 -120.5t34 -89t15.5 -39q8 -10 0 18.5t-29.5 82t-49.5 123t-58 141.5q-66 174 -164 397z" />
<glyph unicode="&#xe2;" horiz-adv-x="1196" d="M-82 -664v2503h1299v-2503h-1299zM218 90q-5 -31 18 -37q12 -2 25 -13t32 13q16 31 27.5 68t15.5 53q4 18 -1 36.5t11 18.5q23 2 32 -14t36 -16q25 0 49 10t92 10t98.5 -5t55.5 7q25 10 47 28.5t32 8.5q12 -10 34 -54t30 -67q4 -23 16.5 -54.5t53.5 -39.5q39 -2 53 10.5 t22 42.5q2 27 -21.5 48.5t-33.5 52.5q-6 10 -25.5 59t-46 108.5t-48 118t-34.5 90.5q-10 33 -32.5 85.5t-43 104.5t-39 94t-24.5 52q0 8 -2 33t-8 52.5t-14.5 51t-18.5 31.5q-31 18 -56.5 -21.5t-31.5 -64.5t3 -43t9 -33q0 -14 -13 -27.5t-17 -35.5q-14 -39 -15 -72 q0 -14 -34.5 -88t-63.5 -145q-31 -74 -33 -101.5t-8 -44.5q0 -18 -12 -56t-29 -66q-8 -16 -27.5 -51t-37 -71t-22.5 -67zM324 27q29 16 41 36q14 16 25 37t3 41q-2 -18 -10 -30q-14 -35 -27 -52zM342 1300.5q2 -0.5 2 -22.5q0 -12 8 -11t17.5 7t16.5 9t5 -5q-8 -14 13.5 -2 t48 37.5t56.5 50.5t40 33q14 6 20 24q2 10 2 15h17q8 0 18 -2t17 -9q18 -6 45.5 -21t50.5 -30q20 -10 33.5 -18t25.5 -23q12 -10 12.5 -21.5t20.5 -33.5q18 -27 35.5 -12.5t34.5 30.5q16 14 -7 39q-10 14 -22 27l-35 27q-14 12 -28.5 22t-22.5 14q-8 0 -17.5 11.5 t-25.5 21.5q-14 14 -31 29l-12 10q-18 20 -23 37q-8 25 -27.5 19.5t-49.5 -9.5q-31 -8 -36 -16t-5 -23q0 -10 -35 -45t-62 -63q-25 -31 -45 -46.5t-41 -33.5q-16 -16 -14 -16.5zM376 352.5q7 16.5 19.5 36t24.5 42t18 38.5q2 18 18.5 60t32 85t28.5 75t13 34q0 10 -10 18.5 t-18 12.5q-8 0 7 15t30 36q10 16 15 28.5t17 6.5q8 -2 34 -53.5t53.5 -113t54.5 -118t35 -76.5q18 -37 22 -69.5t0 -63.5q-4 -16 -17.5 -18t-36 3t-46 10t-39.5 5q-37 0 -52.5 4t-27.5 10q-10 4 -28.5 -2t-57.5 -22q-39 -14 -55.5 -12t-32.5 8q-8 4 -1 20.5zM408 158l286 12 q-25 6 -72 3t-96 -7q-57 -6 -118 -8zM494 455l16 37q6 12 11 25t14 22q4 10 12 47l4 26q-10 -6 -21.5 -31.5t-17.5 -54.5q-10 -32 -18 -71zM524 418l72 -35q-2 12 -11.5 29.5t-19.5 11.5t-26 -6h-15zM696 1016q84 -209 148 -373q31 -72 57.5 -138.5t49 -120.5t34.5 -89 t14 -37q8 -12 -1 17.5t-28.5 81t-49 122t-56.5 142.5q-70 172 -168 395zM713 1528l161 -142q-8 16 -34.5 40t-57.5 47q-34 24 -69 55z" />
<glyph unicode="&#xe3;" horiz-adv-x="1198" d="M-76 -664v2503h1299v-2503h-1299zM224 90q-5 -31 18 -37q14 -2 26.5 -13t30.5 19q18 25 28.5 63t14.5 54q6 18 0 35.5t10 19.5q20 4 31.5 -14t36.5 -18t50.5 11t88.5 11q68 0 97.5 -6t54.5 6q25 10 48 28.5t36 10.5q2 -4 13 -20.5t19.5 -35t18.5 -38t10 -29.5 q4 -23 17.5 -54.5t54.5 -39.5q39 -4 53 9.5t18 43.5q6 27 -18.5 50.5t-36.5 48.5q-6 14 -26.5 63t-44 108.5t-46 117t-32.5 89.5q-12 35 -34 86.5t-43.5 104.5t-40 94t-22.5 53q-4 8 -6 32t-8 51.5t-13 51t-24 31.5q-10 12 -23.5 5t-24.5 -23.5t-20.5 -35.5t-13.5 -32 q-2 -18 6.5 -39.5t8.5 -31.5q0 -14 -12.5 -30t-18.5 -38q-14 -39 -14 -72q0 -14 -36 -88t-67 -145q-25 -74 -28 -101.5t-9 -44.5q-2 -18 -13 -55t-28 -67q-8 -16 -27.5 -51t-37 -71t-22.5 -67zM299 1358q-10 -37 13.5 -48.5t45.5 -19.5q20 -4 37 -4t31 17q10 23 11 36t9 21 q10 6 23.5 21.5t30.5 21.5q23 10 47 10t33 -6q6 -8 21 -24.5t36.5 -36t47.5 -35t50 -21.5q25 -2 54.5 10.5t54 29t44 31.5t25.5 23q6 12 3 36t-11 30q-8 8 -16 -2t-17 -18l-22 -31v-15q0 -18 -16 -34t-20.5 8t-18.5 31q-14 8 -28.5 -8.5t-47.5 -4.5q-37 20 -67.5 70.5 t-80.5 58.5q-25 0 -54.5 -11t-60 -27.5t-52 -32t-31.5 -27.5q-14 -12 -31 -12q-6 0 -6 2q-8 -2 -14 -13q-8 -8 -13.5 -14t-9.5 -12zM330 27q29 20 43 39q30 38 26 73q-4 -16 -12 -30q-14 -33 -27 -50q-8 -8 -13 -12t-9 -10q-8 -8 -8 -10zM382 354.5q7 14.5 19.5 34t24.5 42 t18 38.5q2 18 19.5 60t33 85t28 77t12.5 38q0 6 -10.5 13.5t-18.5 13.5q-10 2 4 16t31 33q10 23 13 35t22 4q8 -2 32.5 -52.5t52 -115t54.5 -121t35 -70.5q35 -70 20 -139q0 -14 -16.5 -15t-38 4t-45 11t-37.5 6q-61 0 -82 8q-8 4 -26.5 -2t-57.5 -24q-41 -8 -55.5 -6 t-30.5 6q-8 6 -1 20.5zM414 160l282 10q-25 6 -70.5 5t-90.5 -5q-60 -4 -121 -10zM475 1346l92 6q-2 6 -10 8q-6 4 -31 4q-27 -4 -34 -12zM500 455l16 37q6 12 12.5 27.5t8.5 21.5q8 14 14 45l6 26q-10 -4 -20.5 -30.5t-16.5 -55.5q-12 -32 -20 -71zM530 424l72 -41 q-2 12 -12 29.5t-23 13.5q-10 -2 -22 -2h-15zM702 1016q84 -209 148 -373q31 -72 57.5 -138.5t48 -120.5t35 -89t15.5 -39q8 -8 -1.5 21.5t-29 80t-49 121t-58.5 142.5q-70 174 -166 395zM842 1288q-8 -2 9 0t42 13.5t45 28t29 36.5q23 92 -21 78l10 -10v-31q0 -27 -10 -45 q-4 -20 -15 -25.5t-28 -11.5q-20 -8 -33.5 -19.5t-27.5 -13.5z" />
<glyph unicode="&#xe4;" horiz-adv-x="1210" d="M-70 -664v2503h1299v-2503h-1299zM231.5 90q-6.5 -31 16.5 -37q14 -2 26.5 -13t30.5 13q18 31 29.5 67t13.5 52q6 20 0 38.5t10 18.5q23 2 33 -14t35 -16t50.5 9t88.5 9q68 0 98.5 -4t55.5 8q27 10 48 28.5t34 6.5q10 -8 32.5 -52t30.5 -67q2 -23 15.5 -54.5t54.5 -39.5 q39 -4 53 8t23 43q2 29 -21.5 49.5t-34.5 51.5q-6 12 -25.5 60t-46 108.5t-49 119t-32.5 90.5q-12 35 -34 86.5t-43.5 103.5t-38.5 94t-23 54q0 8 -3.5 32t-8.5 51.5t-13 51t-21 31.5q-31 20 -55 -20.5t-29 -65.5q-6 -25 2.5 -43t8.5 -33q0 -12 -12.5 -26.5t-18.5 -36.5 q-14 -39 -14 -72q0 -14 -35 -88t-62 -145q-31 -74 -33.5 -101.5t-9.5 -44.5q0 -20 -12 -57t-29 -65q-8 -16 -27.5 -51t-35.5 -71t-22.5 -67zM317 1395q0 -20 3.5 -31.5t3.5 -17.5v-31q0 -12 4 -25q0 6 4 13q2 8 2 13t8 11q4 10 9 32.5t14 47.5q0 -8 -3.5 -10t-3.5 -13 q-2 -27 10.5 -38t10.5 -25q-12 -8 -21 -16q-16 -8 -16 -23q0 -39 53 -43q31 -8 70 10.5t47 87.5q2 37 -11.5 61.5t-36 40t-42 22.5t-29.5 7q-8 0 -14 -8q-12 -2 -37 -16t-25 -49zM336 25q29 18 43 36q14 16 25.5 38t1.5 40q-2 -16 -11 -30q-14 -33 -24 -50zM388 351.5 q7 17.5 19.5 37t24.5 41t19 39.5q4 18 20 60t31.5 85t28 75t12.5 36q0 8 -9.5 16.5t-19.5 14.5q-8 0 7.5 15t29.5 34q10 16 15 28.5t18 8.5q8 -4 32.5 -55.5t52 -113t54.5 -118t35 -76.5q20 -37 24 -69.5t-2 -63.5q-2 -16 -16 -18t-35.5 2t-46.5 10t-41 6q-35 0 -51.5 4 t-26.5 10q-10 4 -27.5 -3t-56.5 -23q-39 -12 -56 -10t-34 8q-8 2 -1 19.5zM420 156l287 14q-27 6 -74 3t-92 -9q-60 -4 -121 -8zM506 455l18 34q4 14 10.5 26.5t14.5 23.5q2 10 8 47l6 26q-10 -4 -20.5 -30.5t-16.5 -55.5q-12 -32 -20 -71zM537 418l71 -37q-2 14 -12 31.5 t-18 11.5q-12 -6 -27 -6h-14zM653 1395q0 -20 2 -31.5t2 -17.5v-31q0 -12 5 -25q0 6 6 13q2 8 2 13t8 11q2 18 -3 62.5t5 56.5q-8 -8 -12 -16q-14 -23 -15 -35zM678 1282q0 -39 53 -43q27 -8 68 10.5t49 87.5q2 37 -11.5 61.5t-36 40t-42 22.5t-31.5 7q-18 0 -24.5 -27.5 t-8.5 -56.5q0 -12 7.5 -18t18.5 -10t18 -7t7 -12l-36 -22q-31 -17 -31 -33zM709 1016q84 -209 147 -373q31 -72 57.5 -138.5t48 -120.5t35 -89t15.5 -39q8 -10 -1.5 18.5t-28.5 81t-49 123t-59 142.5q-68 174 -165 395z" />
<glyph unicode="&#xe5;" horiz-adv-x="1181" d="M-76 -664v2503h1297v-2503h-1297zM223 80q1 -23 17 -25q8 -2 16 -8t18 -6t25 16q18 27 28.5 65t12.5 56q2 4 2 12q0 6 -1 13.5t-1 11.5q0 16 16 16t26.5 -16t33.5 -16t51.5 11t95.5 11q41 0 65.5 -2t43.5 -2q20 0 39 6q23 10 43 24.5t32 14.5q6 0 9 -2q6 -4 15 -19.5 t18.5 -35t17.5 -37.5t10 -31q2 -10 6 -24.5t11.5 -28.5t19.5 -24.5t33 -12.5q4 0 9 -1t9 -1q29 0 40 12.5t15 36.5v10q0 27 -21.5 47.5t-31.5 45.5q-6 12 -26.5 60t-45 107.5t-48 118t-33.5 90.5q-10 33 -32 85.5t-44.5 103.5t-41 93t-20.5 52t-5 35t-8 52.5t-13 52 t-23 34.5q-6 6 -12 6q-10 0 -22.5 -11t-22.5 -26.5t-17.5 -32t-9.5 -28.5q0 -23 7.5 -40t7.5 -29q0 -16 -12.5 -32t-20.5 -36q-10 -23 -12.5 -41t-2.5 -31q0 -6 -11 -29.5t-26.5 -57.5t-33 -72.5t-29.5 -75.5q-25 -74 -30 -100.5t-7 -45.5q-4 -16 -15 -52t-28 -64 q-6 -12 -20.5 -39t-28.5 -56.5t-25.5 -59.5t-11.5 -48zM332 25q18 16 33 36q12 16 23 36.5t11 43.5q-6 -16 -14 -32q-6 -14 -12 -27.5t-13 -20.5q-6 -8 -11 -15t-9 -11q-6 -6 -8 -10zM379 342q0 8 9 23.5t20.5 34t21.5 37t14 32.5q2 18 17.5 59t32 84t30 78t13.5 39t-6.5 10 t-12.5 11q-8 6 -16 8q0 4 13 17t26 28q12 18 16 30.5t14 12.5q4 0 9 -2q4 -2 16 -26.5t29.5 -60.5t37 -79t37 -82t31 -70t19.5 -43q27 -51 26 -102q0 -10 -1 -17.5t-3 -15.5q-4 -18 -29 -18q-23 0 -54.5 10t-53.5 10q-35 0 -51.5 4t-26.5 8q-4 2 -10 3q-10 0 -27.5 -6.5 t-50.5 -16.5q-37 -14 -57 -14q-10 0 -15.5 2t-13.5 6q-4 4 -4 6zM442 1384q0 -12 1 -26.5t3 -30.5q10 -72 43 -95.5t68 -27.5q10 -2 31 -2q29 0 52.5 6t27.5 11q2 2 5 4t3 6q10 16 31.5 49t23.5 68v6q0 25 -6 50t-15.5 49t-18.5 42t-15 29q-14 23 -25.5 28.5t-19.5 5.5 q-4 0 -5 -1t-3 -1h-2q-2 0 -13.5 -1t-25 -2t-26.5 -3t-19 -4q-4 0 -11 -6q-10 -4 -24.5 -13t-27.5 -25.5t-22.5 -44.5t-9.5 -71zM487 1380q0 33 24 60.5t52 44.5q12 12 23 12q2 0 14 -4q27 -8 51.5 -33.5t24.5 -85.5v-16q0 -53 -22.5 -73.5t-53.5 -29.5q-8 -4 -14 -4 q-14 0 -27 9q-6 4 -10 10q0 4 -5 5t-9 5q-6 2 -26 25.5t-22 74.5zM500 455q6 18 14 34q6 14 12 28.5t11 25.5q4 6 8 18t8 25q4 14 6 32q-12 -10 -22.5 -35.5t-18.5 -54.5q-8 -34 -18 -73zM520 1362q0 -14 6 -24.5t15 -20.5q6 -6 12 -11.5t10 -11.5q8 -10 19 -12q4 -2 8 -2v8 q-2 0 -6 2t-9.5 5t-9.5 8q-23 20 -28 67q0 39 18 56.5t25 23.5l4 6h-9q-2 0 -12 -8t-22 -27q-4 -10 -9.5 -20t-9.5 -23q-2 -6 -2 -16zM528 422l72 -41q-2 12 -8 27.5t-21 15.5q-16 -4 -24 -4h-12q-4 0 -7 2zM645 1569q35 -14 62 -37q23 -20 43 -55t20 -91v-20 q-4 -41 -8 -65.5t-9 -39t-11.5 -21.5t-12.5 -13t-18.5 -13.5t-24.5 -14.5t-21.5 -13t-9.5 -8q4 0 22.5 3t41.5 19q18 14 39.5 55t23.5 119v23q0 47 -11 83t-34 58q-29 29 -58.5 34t-33.5 5v-8zM705 1018q80 -209 145 -375q27 -72 54.5 -139.5t49 -121.5t36 -88t18.5 -36 q0 8 -13.5 45t-35 91.5t-48 122t-55.5 136.5q-68 162 -151 365z" />
</font>
</defs>
</svg>
