<?xml version="1.0" standalone="no"?>
<!DOCTYPE svg PUBLIC "-//W3C//DTD SVG 1.1//EN" "http://www.w3.org/Graphics/SVG/1.1/DTD/svg11.dtd" >
<svg xmlns="http://www.w3.org/2000/svg">
<metadata></metadata>
<defs>
<font id="gill_sans_stdregular" horiz-adv-x="1024" >
<font-face units-per-em="2048" ascent="1397" descent="-651" />
<missing-glyph horiz-adv-x="569" />
<glyph unicode="&#xfb01;" d="M27 766v154h137q-4 249 96.5 372t292.5 123q153 0 246 -79.5t98 -213.5h-182q-25 68 -64 98.5t-102 30.5q-224 0 -203 -331h205v-154h-205v-766h-182v766h-137zM715 0v920h182v-920h-182z" />
<glyph unicode="&#xfb02;" d="M18 766v154h142v67q0 127 29 202t90 136q133 133 342 72v-168q-26 22 -80 22q-105 0 -152 -61t-47 -176v-94h205v-154h-205v-766h-182v766h-142zM711 0v1397h182v-1397h-182z" />
<glyph horiz-adv-x="2048" />
<glyph horiz-adv-x="2048" />
<glyph unicode="&#xd;" horiz-adv-x="2048" />
<glyph unicode=" "  horiz-adv-x="569" />
<glyph unicode="&#x09;" horiz-adv-x="569" />
<glyph unicode="&#xa0;" horiz-adv-x="569" />
<glyph unicode="!" horiz-adv-x="555" d="M156 104q0 51 36 87t87 36t86.5 -36t35.5 -87t-35.5 -86.5t-86.5 -35.5t-87 35.5t-36 86.5zM162 1112q0 303 114 303q115 0 115 -303q0 -136 -12 -219l-51 -352q-9 -70 -20.5 -99.5t-31.5 -29.5t-31 29.5t-20 99.5l-51 352q-12 83 -12 219z" />
<glyph unicode="&#x22;" horiz-adv-x="724" d="M98 1227v239h181v-239l-48 -281h-86zM446 1227v239h181v-239l-47 -281h-86z" />
<glyph unicode="#" horiz-adv-x="1196" d="M2 233v142h213l74 348h-287v141h315l84 400h148l-84 -400h397l84 400h148l-84 -400h186v-141h-215l-74 -348h289v-142h-317l-84 -399h-148l84 399h-397l-84 -399h-148l84 399h-184zM362 375h398l74 348h-398z" />
<glyph unicode="$" horiz-adv-x="1110" d="M104 125v248q103 -92 180.5 -134.5t204.5 -72.5v442q-187 50 -285 149.5t-98 209.5q0 149 102 248.5t281 125.5v74h168v-74q72 -6 161.5 -40t144.5 -80v-222q-53 53 -139 98t-167 64v-405q174 -47 272.5 -152.5t98.5 -243.5q0 -49 -14 -98t-44 -96t-73 -85t-105 -64.5 t-135 -34.5v-224h-168v224q-94 5 -183.5 41.5t-201.5 101.5zM307 993q0 -61 44 -105.5t138 -76.5v350q-80 -11 -131 -58t-51 -110zM657 168q174 41 174 176q0 64 -40 109.5t-134 83.5v-369z" />
<glyph unicode="%" horiz-adv-x="1392" d="M51 1100q0 129 92.5 221t221.5 92q128 0 220.5 -92t92.5 -221t-92.5 -221.5t-220.5 -92.5q-129 0 -221.5 92t-92.5 222zM160 -20l919 1435h154l-920 -1435h-153zM203 1100q0 -67 48 -114.5t114 -47.5q67 0 114 47t47 115q0 66 -47 114t-114 48q-66 0 -114 -48t-48 -114z M715 293q0 129 92 221t221 92q128 0 220.5 -92t92.5 -221t-92.5 -221t-220.5 -92q-129 0 -221 91.5t-92 221.5zM866 293q0 -67 48 -114.5t114 -47.5q68 0 115 47.5t47 114.5q0 66 -47.5 114t-114.5 48q-66 0 -114 -48t-48 -114z" />
<glyph unicode="&#x26;" horiz-adv-x="1280" d="M57 313q0 221 330 412q-158 166 -158 324q0 146 98 233.5t261 87.5q146 0 241 -87t95 -216q0 -101 -60.5 -189.5t-195.5 -183.5l196 -225q41 41 83.5 105.5t66.5 119.5h200q-29 -85 -89 -181.5t-138 -184.5l283 -328h-258l-160 190q-229 -208 -442 -208 q-144 0 -248.5 96.5t-104.5 234.5zM258 313q5 -60 55 -103.5t117 -43.5q135 0 299 164l-227 262q-129 -81 -186.5 -142t-57.5 -137zM426 1067q0 -59 38.5 -123.5t90.5 -114.5q106 66 144 117.5t38 110.5q0 62 -45 102.5t-114 40.5q-65 0 -108.5 -38t-43.5 -95z" />
<glyph unicode="'" horiz-adv-x="385" d="M102 1227v239h181v-239l-47 -281h-86z" />
<glyph unicode="(" horiz-adv-x="661" d="M131 475q0 257 106.5 510.5t290.5 435.5h109q-295 -391 -295 -946t295 -946h-109q-184 182 -290.5 435.5t-106.5 510.5z" />
<glyph unicode=")" horiz-adv-x="661" d="M25 -471q294 390 294 946t-294 946h108q184 -182 290.5 -435.5t106.5 -510.5t-106.5 -510.5t-290.5 -435.5h-108z" />
<glyph unicode="*" horiz-adv-x="854" d="M31 801q-23 39 0.5 70t68.5 47l260 90q-8 20 2 43l-262 90q-42 14 -66 47t-1 72q16 26 40.5 31.5t48.5 -4.5t46 -30l205 -178q23 19 41 23l-52 266q-9 44 7 81.5t61 37.5t60 -36t6 -83l-52 -266q25 -6 41 -25l205 178q20 18 44 28t50 4.5t41 -32.5q23 -39 -0.5 -69.5 t-68.5 -46.5l-256 -88q4 -12 0 -47l256 -89q42 -14 66 -46.5t1 -71.5q-16 -26 -41 -31.5t-48.5 4.5t-45.5 29l-205 178q-22 -15 -41 -21l52 -268q9 -44 -7 -81t-61 -38q-45 1 -60 36t-6 83l52 268q-24 11 -39 25l-207 -180q-20 -18 -44 -27.5t-50 -4t-41 31.5z" />
<glyph unicode="+" horiz-adv-x="1196" d="M115 639v168h399v399h168v-399h399v-168h-399v-399h-168v399h-399z" />
<glyph unicode="," horiz-adv-x="448" d="M94 135q0 51 34 84t87 33q66 0 105.5 -54t39.5 -145q0 -95 -62 -179t-177 -116v39q49 32 68.5 98t5.5 125q-45 2 -73 33t-28 82z" />
<glyph unicode="-" horiz-adv-x="661" d="M82 356v191h498v-191h-498z" />
<glyph unicode="." horiz-adv-x="448" d="M100 104q0 51 36 87t87 36t87 -36t36 -87t-36 -86.5t-87 -35.5t-87 35.5t-36 86.5z" />
<glyph unicode="/" horiz-adv-x="575" d="M16 -18l402 1433h143l-401 -1433h-144z" />
<glyph unicode="0" d="M61 698q0 213 56 376t158.5 252t236.5 89t236.5 -89t158.5 -252t56 -376q0 -322 -124 -519t-327 -197t-327 197t-124 519zM262 698q0 -246 66.5 -386t183.5 -140t183.5 140t66.5 386t-66.5 386.5t-183.5 140.5t-183.5 -140.5t-66.5 -386.5z" />
<glyph unicode="1" d="M414 0v1397h200v-1397h-200z" />
<glyph unicode="2" d="M70 0v14q116 140 175.5 213.5t157 204.5t152.5 225q54 93 76 155t22 144q0 115 -68 189t-171 74q-167 0 -316 -189v252q167 133 330 133q189 0 307.5 -121.5t118.5 -314.5q0 -113 -46 -227t-134.5 -239.5t-253.5 -322.5h534v-190h-884z" />
<glyph unicode="3" d="M131 61v218q158 -107 311 -107q103 0 164.5 61t61.5 162q0 108 -78 174.5t-221 59.5v184q136 0 206 53t70 150q0 96 -65.5 152.5t-176.5 56.5q-103 0 -237 -60v191q121 59 268 59q188 0 300 -99t112 -265q0 -117 -41 -189t-137 -125q99 -31 149.5 -123t50.5 -208 q0 -187 -123 -305.5t-317 -118.5q-142 0 -297 79z" />
<glyph unicode="4" d="M23 459v92l706 864h86v-776h150v-180h-150v-459h-201v459h-591zM291 639h323v397h-4z" />
<glyph unicode="5" d="M102 68v206q150 -102 306 -102q118 0 203 74.5t85 177.5q0 91 -58.5 159.5t-167 95.5t-263.5 -9v727h620v-180h-438v-351q230 13 369 -113t139 -325q0 -193 -129.5 -319.5t-327.5 -126.5q-90 0 -168.5 20t-169.5 66z" />
<glyph unicode="6" d="M90 477q0 265 145 511.5t414 426.5l121 -153q-150 -87 -268 -227t-160 -285q108 57 219 57q167 0 279 -117t112 -291q0 -170 -122 -293.5t-289 -123.5q-201 0 -326 137t-125 358zM292 388.5q12 -68.5 47 -116.5t84.5 -74t104.5 -26q100 0 162 63t62 166q0 92 -66 153.5 t-166 61.5q-64 0 -109.5 -15t-111.5 -58q-19 -86 -7 -154.5z" />
<glyph unicode="7" d="M100 1206v191h904l-633 -1415l-178 77l512 1147h-605z" />
<glyph unicode="8" d="M66 379q0 218 198 334q-79 58 -122.5 135.5t-43.5 165.5q0 172 122.5 286.5t305.5 114.5q177 0 294.5 -116t117.5 -289q0 -82 -44 -161.5t-130 -135.5q95 -50 144.5 -139t49.5 -197q0 -167 -127.5 -281t-314.5 -114q-190 0 -320 115t-130 282zM266 393q0 -97 69.5 -159 t176.5 -62q116 0 181 64t65 157q0 96 -68.5 158.5t-173.5 62.5q-113 0 -181.5 -61t-68.5 -160zM299 1018q0 -86 65 -149.5t154 -63.5q90 0 154.5 62t64.5 147q0 91 -61 151t-154 60q-100 0 -161.5 -57t-61.5 -150z" />
<glyph unicode="9" d="M74 1001q0 78 31 152t85 132.5t135 94t175 35.5q193 0 318.5 -145t125.5 -365q0 -254 -157.5 -513t-403.5 -410l-123 147q174 114 285 252t141 272q-97 -59 -217 -59q-166 0 -280.5 118.5t-114.5 288.5zM274 1004q0 -91 70 -155.5t168 -64.5q106 0 215 76q10 49 10 113 q0 102 -68.5 177t-164.5 75q-100 0 -165 -62t-65 -159z" />
<glyph unicode=":" horiz-adv-x="448" d="M100 104q0 51 36 87t87 36t87 -36t36 -87t-36 -86.5t-87 -35.5t-87 35.5t-36 86.5zM100 815q0 51 36 87t87 36t87 -36t36 -87t-36 -87t-87 -36t-87 36t-36 87z" />
<glyph unicode=";" horiz-adv-x="448" d="M98 143q0 60 34.5 92.5t88.5 32.5q61 0 99 -55t38 -135q0 -115 -60 -198t-173 -116v39q57 49 71.5 97.5t10.5 122.5q-50 6 -79.5 38.5t-29.5 81.5zM100 815q0 51 36 87t87 36t87 -36t36 -87t-36 -87t-87 -36t-87 36t-36 87z" />
<glyph unicode="&#x3c;" horiz-adv-x="1196" d="M113 641v168l970 414v-179l-770 -319l770 -319v-179z" />
<glyph unicode="=" horiz-adv-x="1196" d="M115 416v168h966v-168h-966zM115 862v168h966v-168h-966z" />
<glyph unicode="&#x3e;" horiz-adv-x="1196" d="M113 227v179l770 319l-770 319v179l970 -414v-168z" />
<glyph unicode="?" horiz-adv-x="681" d="M164 547q0 60 23.5 121t57 112.5t67.5 101.5t57.5 105.5t23.5 106.5q0 62 -37 99.5t-98 37.5q-21 0 -90 -12l96 196q86 1 153 -27t103.5 -73t55 -95.5t18.5 -101.5q0 -72 -25 -148.5t-61.5 -138.5t-78.5 -129t-76.5 -121.5t-54.5 -114t-13 -108.5q-65 32 -93 76t-28 113z M193 104q0 51 35.5 87t86.5 36t87 -36t36 -87t-36 -86.5t-87 -35.5t-86.5 35.5t-35.5 86.5z" />
<glyph unicode="@" horiz-adv-x="2068" d="M111 469q0 95 16.5 193t53.5 199t91.5 192.5t135.5 172.5t180 140t230.5 93t281.5 34q246 0 442 -100t306 -278t110 -402q0 -134 -51 -265.5t-133 -230.5t-192 -160t-222 -61q-199 0 -199 168q-68 -78 -148 -122t-155 -44q-158 0 -262 128.5t-104 324.5q0 117 45 233 t116.5 203t167 141.5t191.5 54.5q92 0 169.5 -47.5t131.5 -136.5l35 156h180l-168 -772q-12 -57 4 -90t61 -33q27 0 71.5 21.5t99 68t101.5 109t79 157t32 199.5q0 179 -92.5 323.5t-256.5 227t-367 82.5q-177 0 -331.5 -65.5t-264.5 -179.5t-173 -274.5t-63 -343.5 q0 -364 227 -566t637 -202q246 0 425.5 82.5t275.5 218.5h184q-272 -448 -887 -448q-472 0 -741.5 240t-269.5 659zM678 436q0 -130 61.5 -210.5t159.5 -80.5q87 0 170 72.5t134.5 189.5t51.5 240q0 133 -62.5 212t-168.5 79q-86 0 -166.5 -71.5t-130 -188.5t-49.5 -242z " />
<glyph unicode="A" horiz-adv-x="1366" d="M0 0l600 1405h141l625 -1405h-205l-186 412h-594l-176 -412h-205zM459 592h434l-225 506z" />
<glyph unicode="B" horiz-adv-x="1153" d="M154 0v1397h405q109 0 193.5 -30.5t135 -82t76 -114t25.5 -130.5q0 -109 -52 -182t-161 -117v-4q157 -29 246.5 -126t89.5 -238q0 -54 -16 -105t-52.5 -100.5t-90.5 -86t-136.5 -59t-183.5 -22.5h-479zM354 180h252q84 0 145.5 19.5t93.5 52.5t46 70t14 79q0 99 -78 158 t-231 59h-242v-438zM354 799h133q295 0 295 223q0 87 -57 141t-186 54h-185v-418z" />
<glyph unicode="C" horiz-adv-x="1449" d="M98 678q0 210 98.5 378.5t273.5 263.5t394 95q206 0 479 -115v-215q-251 146 -481 146q-239 0 -398 -152.5t-159 -382.5q0 -235 156.5 -382.5t408.5 -147.5q243 0 488 158v-220q-113 -59 -232.5 -90.5t-273.5 -31.5q-151 0 -279 44.5t-213.5 116t-146 164t-88 186.5 t-27.5 185z" />
<glyph unicode="D" horiz-adv-x="1536" d="M156 0v1397h542q150 0 275 -41t210.5 -110t145 -159.5t86.5 -189t27 -199.5q0 -107 -32.5 -209.5t-96.5 -191t-152 -155t-207 -104.5t-254 -38h-544zM356 180h320q94 0 174 20t136 52.5t100.5 77.5t72 92t45 98.5t24.5 94.5t7 83q0 108 -34.5 200t-102.5 164.5 t-179 113.5t-253 41h-310v-1037z" />
<glyph unicode="E" d="M154 0v1397h792v-180h-592v-422h572v-181h-572v-434h611v-180h-811z" />
<glyph unicode="F" horiz-adv-x="960" d="M156 0v1397h745v-180h-545v-388h545v-180h-545v-649h-200z" />
<glyph unicode="G" horiz-adv-x="1515" d="M102 690q0 152 57.5 286.5t157 231t239 152t296.5 55.5q123 0 228.5 -25t269.5 -94v-202q-250 137 -502 137q-149 0 -273 -70t-195 -193t-71 -272q0 -233 158 -381.5t407 -148.5q134 0 304 55v287h-269v180h469v-592q-139 -61 -262 -87.5t-270 -26.5q-211 0 -381.5 91 t-266.5 253t-96 364z" />
<glyph unicode="H" horiz-adv-x="1492" d="M154 0v1397h200v-609h783v609h200v-1397h-200v608h-783v-608h-200z" />
<glyph unicode="I" horiz-adv-x="512" d="M156 0v1397h200v-1397h-200z" />
<glyph unicode="J" horiz-adv-x="512" d="M-127 -281h51q45 0 79.5 7t59.5 19t42 34t27 45t15.5 60t7 72t1.5 87v1354h200v-1413q0 -101 -21 -181.5t-65.5 -143t-120 -96.5t-178.5 -34q-21 0 -61 4z" />
<glyph unicode="K" horiz-adv-x="1343" d="M154 0v1397h200v-639l588 639h250l-608 -662l757 -735h-276l-711 690v-690h-200z" />
<glyph unicode="L" horiz-adv-x="1003" d="M152 0v1397h200v-1217h631v-180h-831z" />
<glyph unicode="M" horiz-adv-x="1599" d="M150 0v1397h188l463 -574l465 574h186v-1397h-201v1087h-4l-430 -540h-33l-430 540h-4v-1087h-200z" />
<glyph unicode="N" horiz-adv-x="1599" d="M152 0v1397h159l946 -1082v1082h189v-1397h-172l-934 1075v-1075h-188z" />
<glyph unicode="O" horiz-adv-x="1685" d="M92 698q0 115 34 222.5t100 197t156 156.5t208.5 104t251.5 37q169 0 311.5 -57.5t238 -155t148.5 -228t53 -276.5q0 -142 -52.5 -271t-147 -228t-239 -158t-316.5 -59q-167 0 -308.5 58.5t-236.5 157.5t-148 228.5t-53 271.5zM299 698q0 -229 155 -380.5t388 -151.5 q116 0 217 40.5t172.5 111t113 169t41.5 211.5q0 230 -154.5 381.5t-389.5 151.5q-154 0 -278 -68.5t-194.5 -191t-70.5 -273.5z" />
<glyph unicode="P" horiz-adv-x="1044" d="M143 0v1397h437q218 0 331 -113t113 -289q0 -84 -28.5 -154t-85 -123.5t-148 -83.5t-209.5 -30h-209v-604h-201zM344 784h227q113 0 179.5 58.5t66.5 161.5q0 41 -12 77t-38 67.5t-74 50t-113 18.5h-236v-433z" />
<glyph unicode="Q" horiz-adv-x="1685" d="M92 698q0 156 57 289.5t158 227.5t244 147t311 53q154 0 290.5 -55.5t234 -151t154 -229.5t56.5 -285q0 -253 -163.5 -448.5t-417.5 -245.5v-2q191 -81 302 -103q50 -10 99 -10q61 0 121 15l6 -6l-180 -179q-187 14 -353.5 88.5t-332.5 196.5q-260 50 -423 243.5 t-163 454.5zM299 696q0 -108 35.5 -202.5t103.5 -168.5t176 -116.5t244 -42.5q152 0 275 72t190.5 192t67.5 262q0 151 -69 274t-192.5 194t-275.5 71q-120 0 -217.5 -35.5t-159 -91.5t-103 -128.5t-58.5 -142.5t-17 -137z" />
<glyph unicode="R" horiz-adv-x="1236" d="M158 0v1397h352q212 0 335.5 -105t123.5 -286q0 -121 -60.5 -209.5t-173.5 -132.5q46 -30 85 -68t81 -95.5t68 -98.5t78 -126q53 -86 190 -276h-240l-184 287q-67 105 -120 170.5t-97.5 97t-77.5 41.5t-76 10h-84v-606h-200zM358 786h129q78 0 133.5 18.5t85.5 52 t44 71.5q13 36 12 80v6q-3 211 -275 211h-129v-439z" />
<glyph unicode="S" horiz-adv-x="937" d="M82 1042q0 170 116 271.5t308 101.5q165 0 311 -98v-227q-153 145 -328 145q-97 0 -159 -46.5t-62 -119.5q0 -54 33.5 -100t86.5 -81t117.5 -70t129 -77.5t117.5 -92t86.5 -124t33.5 -164.5q0 -164 -111 -271t-280 -107q-219 0 -391 129v254q77 -98 171.5 -150.5 t197.5 -52.5q108 0 167.5 54.5t59.5 121.5q0 58 -33.5 109t-86.5 90.5t-117.5 78t-129 80.5t-117.5 89t-86.5 113t-33.5 144z" />
<glyph unicode="T" horiz-adv-x="1236" d="M35 1217v180h1167v-180h-483v-1217h-201v1217h-483z" />
<glyph unicode="U" horiz-adv-x="1449" d="M125 528v869h201v-826q0 -117 18 -177.5t66 -108.5q119 -119 301 -119q214 0 327 113q51 51 69.5 124t18.5 181v813h201v-848q0 -264 -158 -415.5t-462 -151.5q-90 0 -173.5 20t-158.5 63t-130 106t-87.5 154.5t-32.5 202.5z" />
<glyph unicode="V" horiz-adv-x="1236" d="M0 1397h201l420 -981l417 981h199l-592 -1409h-41z" />
<glyph unicode="W" horiz-adv-x="2134" d="M0 1397h201l385 -963l387 963h190l389 -963l381 963h199l-567 -1409h-39l-459 1142l-463 -1142h-39z" />
<glyph unicode="X" horiz-adv-x="1449" d="M4 0l602 723l-559 674h244l438 -533l436 533h242l-557 -674l596 -723h-242l-475 578l-481 -578h-244z" />
<glyph unicode="Y" horiz-adv-x="1236" d="M0 1397h242l374 -482l379 482h242l-518 -660v-737h-201v739z" />
<glyph unicode="Z" horiz-adv-x="1323" d="M33 0l889 1217h-834v180h1204l-889 -1217h889v-180h-1259z" />
<glyph unicode="[" horiz-adv-x="681" d="M176 -453v1850h477v-164h-280v-1522h280v-164h-477z" />
<glyph unicode="\" horiz-adv-x="575" d="M16 1415h144l401 -1433h-143z" />
<glyph unicode="]" horiz-adv-x="681" d="M29 -289h280v1522h-280v164h477v-1850h-477v164z" />
<glyph unicode="^" horiz-adv-x="960" d="M53 596l355 801h145l354 -801h-182l-246 598l-241 -598h-185z" />
<glyph unicode="_" d="M-12 -154h1048v-102h-1048v102z" />
<glyph unicode="`" horiz-adv-x="681" d="M123 1339h205l137 -301h-113z" />
<glyph unicode="a" horiz-adv-x="874" d="M53 207q0 51 20.5 94t42 68t75 53.5t77 38t89.5 33.5q7 3 10 4l161 57v49q0 85 -40.5 123.5t-125.5 38.5q-161 0 -290 -152v199q107 125 305 125q148 0 241 -76.5t93 -226.5v-473q0 -47 34 -47q32 0 97 49v-111q-65 -42 -99.5 -56.5t-76.5 -14.5q-60 0 -94 22.5t-46 71.5 q-119 -94 -247 -94q-99 0 -162.5 66.5t-63.5 158.5zM238 240q0 -57 37 -93t94 -36q81 0 159 75v269q-55 -19 -91 -32.5t-77.5 -34.5t-65.5 -41t-40 -47.5t-16 -59.5z" />
<glyph unicode="b" d="M121 51v1346h182v-543q118 84 254 84q172 0 284.5 -130.5t112.5 -328.5q0 -233 -130.5 -365t-360.5 -132q-91 0 -183 18.5t-159 50.5zM303 182q93 -28 184 -28q123 0 202 84t79 215q0 146 -70 233.5t-186 87.5q-57 0 -104 -21t-105 -73v-498z" />
<glyph unicode="c" horiz-adv-x="897" d="M84 442q0 227 123 361.5t332 134.5q74 0 133 -15.5t133 -48.5v-194q-75 51 -133 70.5t-121 19.5q-125 0 -203 -86t-78 -225q0 -141 85 -223t227 -82q106 0 243 61v-180q-47 -22 -125 -37.5t-149 -15.5q-206 0 -336.5 129t-130.5 331z" />
<glyph unicode="d" horiz-adv-x="1044" d="M90 481q0 200 129 328.5t330 128.5q91 0 192 -37v496h183v-1397h-387q-206 0 -326.5 130t-120.5 351zM276 455q0 -301 281 -301h184v585q-85 35 -170 35q-132 0 -213.5 -87.5t-81.5 -231.5z" />
<glyph unicode="e" horiz-adv-x="980" d="M84 471q0 209 119.5 338t310.5 129q188 0 293.5 -128.5t105.5 -377.5h-647q44 -276 309 -276q155 0 322 110v-176q-86 -57 -169.5 -82.5t-197.5 -25.5q-138 0 -241.5 70t-154 179.5t-50.5 239.5zM270 553h463q-5 105 -62 166t-153 61q-103 0 -166 -58.5t-82 -168.5z" />
<glyph unicode="f" horiz-adv-x="512" d="M18 756v164h129v67q0 128 28.5 204t88.5 136q89 89 216 89q59 0 126 -19v-178q-41 16 -82 16q-105 0 -149.5 -57.5t-44.5 -169.5v-88h166v-164h-166v-756h-183v756h-129z" />
<glyph unicode="g" horiz-adv-x="874" d="M0 -193q0 102 55.5 163.5t175.5 90.5q-92 57 -92 117q0 44 40 80t106 51v4q-101 43 -154 117q-49 70 -49 172q0 148 107.5 233t293.5 85h379v-142h-188q54 -54 75 -98t21 -102q0 -54 -26 -113.5t-60 -93.5q-41 -43 -109.5 -66.5t-124 -29t-97.5 -23.5t-42 -55 q0 -36 66.5 -62.5t214.5 -56.5q266 -53 266 -256q0 -137 -115 -215t-319 -78q-186 0 -305 78t-119 200zM172 -184q0 -69 66 -105.5t190 -36.5q120 0 187 35t67 98q0 41 -30.5 72t-78.5 46.5t-96.5 22.5t-95.5 7q-92 0 -150.5 -39t-58.5 -100zM246 596q0 -75 50.5 -121.5 t133.5 -46.5q77 0 126.5 48.5t49.5 123.5q0 66 -53 114t-125 48q-75 0 -128.5 -49t-53.5 -117z" />
<glyph unicode="h" d="M125 0v1397h182v-598h4q52 66 125 102.5t150 36.5q141 0 227 -96t86 -279v-563h-182v569q0 102 -48.5 163t-131.5 61q-60 0 -112.5 -31t-117.5 -103v-659h-182z" />
<glyph unicode="i" horiz-adv-x="448" d="M117 1198q0 44 32 76.5t76 32.5t76.5 -32.5t32.5 -76.5t-32.5 -76t-76.5 -32t-76 32t-32 76zM133 0v920h182v-920h-182z" />
<glyph unicode="j" horiz-adv-x="448" d="M-12 -336q137 57 137 201v1055h182v-1041q0 -142 -43.5 -220t-138.5 -130zM109 1198q0 44 32 76.5t76 32.5t76.5 -32.5t32.5 -76.5t-32.5 -76t-76.5 -32t-76 32t-32 76z" />
<glyph unicode="k" horiz-adv-x="980" d="M127 0v1397h182v-1397h-182zM317 469l408 451h217l-393 -451l475 -469h-246z" />
<glyph unicode="l" horiz-adv-x="448" d="M133 0v1397h182v-1397h-182z" />
<glyph unicode="m" horiz-adv-x="1579" d="M121 0v920h182v-121q139 139 268 139q182 0 275 -166q69 77 142.5 121.5t164.5 44.5q139 0 222 -98.5t83 -261.5v-578h-182v569q0 100 -54.5 157.5t-136.5 57.5h-3q-42 0 -94 -31q-54 -32 -107 -85v-668h-183v571q0 107 -46.5 160t-119.5 53q-70 0 -121.5 -25.5 t-107.5 -90.5v-668h-182z" />
<glyph unicode="n" d="M125 0v920h182v-121h4q52 66 125 102.5t150 36.5q138 0 225.5 -95t87.5 -276v-567h-182v569q0 102 -48.5 163t-131.5 61q-60 0 -112.5 -31t-117.5 -103v-659h-182z" />
<glyph unicode="o" horiz-adv-x="1130" d="M74 469q0 198 140 333.5t345 135.5q217 0 357.5 -132.5t140.5 -336.5q0 -218 -138 -352.5t-360 -134.5q-212 0 -348.5 137.5t-136.5 349.5zM260 469q0 -146 82.5 -235t214.5 -89q145 0 229 86.5t84 235.5q0 134 -88.5 220.5t-224.5 86.5q-129 0 -213 -86.5t-84 -218.5z " />
<glyph unicode="p" d="M117 -471v1391h315q252 0 385 -120t133 -347q0 -207 -131.5 -339t-335.5 -132q-85 0 -184 41v-494h-182zM299 186q84 -41 172 -41q127 0 210 88t83 222q0 144 -76 222.5t-223 78.5h-166v-570z" />
<glyph unicode="q" d="M74 453q0 35 5 72.5t19.5 84.5t37.5 89t62 83.5t89 71t123 48t161 18.5h336v-1391h-182v485q-109 -32 -184 -32q-204 0 -335.5 132t-131.5 339zM260 455q0 -135 83.5 -227.5t209.5 -92.5q88 0 172 41v580h-166q-56 0 -108 -18t-95.5 -53.5t-69.5 -95t-26 -134.5z" />
<glyph unicode="r" horiz-adv-x="811" d="M141 0v920h183v-211h4q130 229 266 229q106 0 219 -107l-96 -157q-41 39 -89 64.5t-81 25.5q-94 0 -158.5 -82t-64.5 -201v-481h-183z" />
<glyph unicode="s" horiz-adv-x="788" d="M84 66v196q176 -121 301 -121q59 3 97 30.5t38 74.5q0 25 -23.5 51t-61.5 49.5t-84 48.5t-92 55t-84 63.5t-61.5 79t-23.5 95.5q0 116 82 183t221 67q128 0 271 -76v-180q-144 96 -267 96q-55 0 -88 -23.5t-33 -60.5q0 -30 50.5 -71.5t173.5 -112.5q116 -76 161.5 -132 t45.5 -126q0 -120 -86 -195t-218 -75q-85 0 -157.5 19t-161.5 65z" />
<glyph unicode="t" horiz-adv-x="681" d="M0 756v20l342 334v-190h291v-164h-291v-471q0 -51 22.5 -84t50.5 -44.5t58 -11.5q95 0 207 68v-170q-46 -26 -111 -43.5t-110 -17.5q-145 0 -222 79.5t-77 208.5v486h-160z" />
<glyph unicode="u" d="M123 348v572h182v-584q0 -98 48 -150.5t141 -52.5q128 0 219 129v658h182v-920h-182v117q-57 -62 -131.5 -98.5t-141.5 -36.5q-142 0 -229.5 97t-87.5 269z" />
<glyph unicode="v" horiz-adv-x="897" d="M6 920h199l248 -566l241 566h195l-406 -938h-61z" />
<glyph unicode="w" horiz-adv-x="1472" d="M0 920h195l241 -558l234 558h135l233 -558l240 558h195l-406 -938h-57l-273 643l-270 -643h-57z" />
<glyph unicode="x" d="M0 0l387 467l-387 453h229l273 -316l262 316h233l-379 -453l406 -467h-233l-289 330l-273 -330h-229z" />
<glyph unicode="y" horiz-adv-x="897" d="M0 920h207l248 -519l237 519h205l-651 -1391h-203l313 668z" />
<glyph unicode="z" horiz-adv-x="854" d="M23 0l487 756h-467v164h784l-489 -756h491v-164h-806z" />
<glyph unicode="{" horiz-adv-x="681" d="M57 449v163q119 0 163 82t44 252v180q0 186 66 275.5t225 89.5h80v-156h-31q-107 0 -139.5 -39.5t-32.5 -167.5v-147q0 -205 -46 -303t-163 -148q117 -50 163 -147.5t46 -302.5v-148q0 -128 32.5 -167t139.5 -39h31v-156h-80q-159 0 -225 89t-66 275v181q0 170 -44 252 t-163 82z" />
<glyph unicode="|" horiz-adv-x="532" d="M188 -512v2048h156v-2048h-156z" />
<glyph unicode="}" horiz-adv-x="681" d="M47 -274h31q107 0 139.5 39t32.5 167v148q0 205 46 302.5t163 147.5q-117 50 -163 148t-46 303v147q0 128 -32.5 167.5t-139.5 39.5h-31v156h80q159 0 225 -89.5t66 -275.5v-180q0 -170 44 -252t163 -82v-163q-119 0 -163 -82t-44 -252v-181q0 -186 -66 -275t-225 -89 h-80v156z" />
<glyph unicode="~" horiz-adv-x="1196" d="M51 406v169q157 132 305 132q39 0 87.5 -13t81.5 -26.5t89 -38.5q60 -27 89 -39t75.5 -25.5t81.5 -13.5q120 0 287 137v-170q-153 -131 -299 -131q-84 0 -256 78q-61 27 -90.5 39t-77 25.5t-82.5 13.5q-69 0 -137 -35t-154 -102z" />
<glyph unicode="&#xa1;" horiz-adv-x="555" d="M154 918q0 51 35.5 86.5t86.5 35.5t87 -35.5t36 -86.5t-36 -87t-87 -36t-86.5 36t-35.5 87zM164 -90q0 136 12 219l51 352q9 70 20.5 99.5t31.5 29.5t31 -29.5t20 -99.5l51 -352q12 -83 12 -219q0 -303 -114 -303q-115 0 -115 303z" />
<glyph unicode="&#xa2;" horiz-adv-x="897" d="M78 442q0 241 145.5 381t397.5 109l120 338h95l-129 -359q81 -32 92 -39v-192q-67 54 -150 74l-209 -576q99 -35 197.5 -22t181.5 59v-176q-123 -44 -222.5 -54t-217.5 15l-141 -389h-97l158 428q-101 57 -161 166t-60 237zM264 453q0 -143 101 -230l196 545 q-134 10 -215.5 -85.5t-81.5 -229.5z" />
<glyph unicode="&#xa3;" horiz-adv-x="1087" d="M121 -18l162 604h-148v180h195q33 116 69.5 210t89.5 186.5t113.5 150.5t142.5 85.5t175 8.5l106 -201h-22q-51 19 -109 19q-126 0 -213 -107.5t-156 -351.5h156v-180h-209l-102 -387q31 4 82 4q106 0 202 -15q106 -16 154 -16q138 0 207 41v-195q-49 -17 -103 -26 q-58 -10 -112 -10q-44 0 -166 16q-103 14 -182 14q-176 0 -332 -30z" />
<glyph unicode="&#xa4;" horiz-adv-x="1130" d="M76 326l137 137q-72 102 -72 235q0 129 72 236l-137 137l117 117l137 -137q41 30 105 50.5t130 20.5q127 0 236 -71l137 137l117 -117l-137 -137q34 -47 52.5 -115t18.5 -121q0 -61 -20 -126.5t-51 -108.5l137 -137l-117 -117l-137 137q-104 -72 -236 -72q-130 0 -235 72 l-137 -137zM305 698q0 -107 76.5 -183.5t183.5 -76.5t183.5 76.5t76.5 183.5t-76.5 183.5t-183.5 76.5t-183.5 -76.5t-76.5 -183.5z" />
<glyph unicode="&#xa5;" horiz-adv-x="1130" d="M-2 1466h201l368 -659l355 659h211l-402 -710h338v-150h-410v-143h410v-137h-410v-326h-182v326h-416v137h416v143h-416v150h342z" />
<glyph unicode="&#xa6;" horiz-adv-x="532" d="M188 -358v716h156v-716h-156zM188 666v716h156v-716h-156z" />
<glyph unicode="&#xa7;" horiz-adv-x="831" d="M66 606q0 90 32 160t103 135q-58 98 -58 201q0 34 9 72.5t32 82t57.5 78t90.5 57.5t125 23q104 0 171.5 -49.5t67.5 -124.5q0 -49 -30 -81t-76 -32q-36 0 -59 25.5t-23 54.5q0 22 -1 32.5t-6 22.5t-18 16.5t-34 4.5q-66 0 -104 -37t-38 -102q0 -54 25.5 -106.5t66 -97 t89.5 -90.5t97.5 -96t89 -104.5t66 -125.5t25.5 -150q0 -84 -36 -156.5t-116 -152.5q72 -107 72 -232q0 -129 -94 -217t-232 -88q-98 0 -164.5 53.5t-66.5 132.5q0 51 34 87t81 36q42 0 69 -28.5t27 -67.5q0 -6 -4.5 -23t-5.5 -28t10.5 -21t38.5 -10q59 0 103 43.5t44 101.5 q0 52 -25.5 104.5t-66 100t-89.5 97t-98 104.5t-89.5 113t-66 131t-25.5 151zM221 639q0 -50 16.5 -96.5t52 -93.5t68 -82.5t86.5 -91t86 -91.5q76 76 76 174q0 51 -19 97.5t-55.5 89t-73 77t-88 82t-83.5 82.5q-29 -29 -47.5 -70.5t-18.5 -76.5z" />
<glyph unicode="&#xa8;" horiz-adv-x="681" d="M55 1192q0 39 28.5 66.5t68.5 27.5t67 -27t27 -67t-27 -68t-67 -28t-68.5 28t-28.5 68zM436 1192q0 40 28 67t68 27t67.5 -27t27.5 -67t-27.5 -68t-67.5 -28t-68 28t-28 68z" />
<glyph unicode="&#xa9;" horiz-adv-x="1515" d="M2 737q0 154 59.5 293.5t160.5 240.5t240.5 160.5t293.5 59.5t294 -59.5t241 -160.5t160.5 -240.5t59.5 -293.5q0 -206 -101 -379.5t-274.5 -274.5t-379.5 -101q-154 0 -293.5 59.5t-240.5 160.5t-160.5 241t-59.5 294zM127 737q0 -128 49.5 -245t134 -201.5t201 -134.5 t244.5 -50q171 0 316 84.5t229.5 230t84.5 316.5t-84.5 316t-229.5 229t-316 84q-128 0 -244.5 -49.5t-201 -134t-134 -201t-49.5 -244.5zM362 748q0 187 110.5 299t293.5 112q131 0 219.5 -60.5t122.5 -174.5l-119 -29q-62 154 -233 154q-117 0 -186.5 -88t-69.5 -234 q0 -143 68.5 -224t189.5 -81q88 0 153.5 52t87.5 140l123 -36q-31 -130 -128.5 -201.5t-243.5 -71.5q-179 0 -283.5 119.5t-104.5 323.5z" />
<glyph unicode="&#xaa;" horiz-adv-x="575" d="M31 979q0 42 21.5 73.5t66.5 55.5t92.5 40.5t122.5 35.5q0 67 -17.5 91.5t-74.5 24.5q-52 0 -97 -23.5t-104 -82.5v141q74 80 211 80q94 0 157.5 -45t63.5 -137v-258q0 -29 2 -37t8 -8q16 0 76 41v-86q-44 -28 -70.5 -37.5t-58.5 -9.5q-78 0 -96 47q-70 -47 -150 -47 q-65 0 -109 40.5t-44 100.5zM172 997q0 -32 19 -50.5t53 -18.5q43 0 90 37v147q-92 -31 -127 -53t-35 -62z" />
<glyph unicode="&#xab;" horiz-adv-x="1003" d="M61 461l301 461h181l-303 -461l303 -461h-181zM477 461l301 461h180l-303 -461l303 -461h-180z" />
<glyph unicode="&#xac;" horiz-adv-x="1196" d="M113 694v168h968v-604h-168v436h-800z" />
<glyph unicode="&#xad;" horiz-adv-x="661" d="M82 356v191h498v-191h-498z" />
<glyph unicode="&#xae;" horiz-adv-x="1515" d="M2 737q0 154 59.5 293.5t160.5 240.5t240.5 160.5t293.5 59.5t294 -59.5t241 -160.5t160.5 -240.5t59.5 -293.5q0 -206 -101 -379.5t-274.5 -274.5t-379.5 -101q-154 0 -293.5 59.5t-240.5 160.5t-160.5 241t-59.5 294zM127 737q0 -128 49.5 -245t134 -201.5t201 -134.5 t244.5 -50q171 0 316 84.5t229.5 230t84.5 316.5t-84.5 316t-229.5 229t-316 84q-128 0 -244.5 -49.5t-201 -134t-134 -201t-49.5 -244.5zM426 319v811h358q72 0 126.5 -20.5t84 -53t44 -67.5t14.5 -71q0 -98 -64.5 -163t-167.5 -71v-4q49 -17 90.5 -64.5t98.5 -138.5 l98 -158h-160l-71 127q-76 136 -121.5 177t-120.5 41h-78v-345h-131zM557 776h188q78 0 123 31t45 92q0 55 -40 88t-105 33h-211v-244z" />
<glyph unicode="&#xaf;" horiz-adv-x="681" d="M2 1110v150h678v-150h-678z" />
<glyph unicode="&#xb0;" horiz-adv-x="811" d="M127 1214q0 116 80.5 196.5t195.5 80.5t196 -80.5t81 -196.5q0 -115 -80.5 -195.5t-196.5 -80.5q-115 0 -195.5 80t-80.5 196zM236 1214q0 -71 48.5 -120.5t118.5 -49.5q71 0 120.5 50t49.5 120t-49.5 119t-120.5 49q-70 0 -118.5 -48.5t-48.5 -119.5z" />
<glyph unicode="&#xb1;" horiz-adv-x="1196" d="M115 0v168h966v-168h-966zM115 639v168h399v399h168v-399h399v-168h-399v-399h-168v399h-399z" />
<glyph unicode="&#xb2;" horiz-adv-x="661" d="M57 680v14q183 188 263.5 296t80.5 188q0 55 -36 88.5t-95 33.5q-54 0 -106 -32t-88 -86v159q102 74 205 74q117 0 190.5 -64t73.5 -165q0 -80 -61 -174t-189 -221h309v-111h-547z" />
<glyph unicode="&#xb3;" horiz-adv-x="661" d="M94 715v129q103 -60 193 -60q55 0 87 28.5t32 76.5q0 61 -42.5 88t-130.5 24v107q88 -8 127 22t39 76q0 48 -35 75.5t-96 27.5q-60 0 -153 -41v112q77 35 170 35q116 0 185 -52t69 -140q0 -57 -23 -95.5t-74 -64.5q111 -42 111 -170q0 -98 -76 -160.5t-196 -62.5 q-91 0 -187 45z" />
<glyph unicode="&#xb4;" horiz-adv-x="681" d="M227 1038l138 301h204l-229 -301h-113z" />
<glyph unicode="&#xb5;" horiz-adv-x="1130" d="M178 -352v1272h182v-508q0 -144 55 -218.5t148 -74.5q101 0 158 76.5t57 212.5v512h183v-920h-168v109h-5q-38 -68 -88.5 -97.5t-126.5 -29.5q-69 0 -118 25.5t-90 84.5h-5v-444h-182z" />
<glyph unicode="&#xb6;" horiz-adv-x="1110" d="M2 1053q0 198 122.5 305.5t348.5 107.5h633v-163h-143v-1711h-170v1711h-224v-1711h-163v1045q-189 10 -296.5 121.5t-107.5 294.5z" />
<glyph unicode="&#xb7;" horiz-adv-x="532" d="M143 707q0 51 36 86.5t87 35.5t87 -35.5t36 -86.5t-36 -87t-87 -36t-87 36t-36 87z" />
<glyph unicode="&#xb8;" horiz-adv-x="681" d="M207 -231q73 -11 122.5 3.5t49.5 49.5q0 27 -31.5 42t-87.5 9l51 143h117l-14 -49q51 -14 80.5 -48t29.5 -81q0 -111 -88 -157t-229 -25v113z" />
<glyph unicode="&#xb9;" horiz-adv-x="661" d="M260 680v727h141v-727h-141z" />
<glyph unicode="&#xba;" horiz-adv-x="747" d="M47 1126q0 124 93 206.5t233 82.5q141 0 234 -82t93 -207q0 -124 -93 -206t-234 -82q-140 0 -233 82t-93 206zM188 1126q0 -80 51.5 -129t135.5 -49q83 0 133.5 49t50.5 129t-50.5 129.5t-133.5 49.5q-84 0 -135.5 -49.5t-51.5 -129.5z" />
<glyph unicode="&#xbb;" horiz-adv-x="1003" d="M45 0l303 461l-303 461h180l301 -461l-301 -461h-180zM461 0l303 461l-303 461h180l301 -461l-301 -461h-180z" />
<glyph unicode="&#xbc;" horiz-adv-x="1728" d="M170 -55l932 1470h137l-932 -1470h-137zM258 680v727h141v-727h-141zM813 236v51l420 450h67v-401h93v-100h-93v-236h-139v236h-348zM1001 336h160v172z" />
<glyph unicode="&#xbd;" horiz-adv-x="1728" d="M170 -55l932 1470h137l-932 -1470h-137zM258 680v727h141v-727h-141zM952 0v14q183 188 263.5 296t80.5 188q0 55 -36 89t-95 34q-54 0 -106 -32.5t-88 -86.5v160q100 73 205 73q117 0 190.5 -64t73.5 -165q0 -80 -61 -174t-189 -221h309v-111h-547z" />
<glyph unicode="&#xbe;" horiz-adv-x="1728" d="M133 715v129q103 -60 193 -60q55 0 86.5 28.5t31.5 76.5q0 61 -42 88t-130 24v107q88 -8 127 22t39 76q0 48 -35 75.5t-96 27.5q-60 0 -153 -41v112q77 35 170 35q116 0 185 -52t69 -140q0 -57 -23 -95.5t-74 -64.5q111 -42 111 -170q0 -98 -76.5 -160.5t-196.5 -62.5 q-90 0 -186 45zM268 -55l932 1470h137l-931 -1470h-138zM911 236v51l420 450h68v-401h92v-100h-92v-236h-139v236h-349zM1100 336h160v172z" />
<glyph unicode="&#xbf;" horiz-adv-x="681" d="M88 -98q0 72 25 148.5t61.5 138.5t78.5 129t76.5 121.5t54.5 114t13 108.5q65 -32 93 -76t28 -113q0 -60 -23.5 -121t-57 -112.5t-67.5 -101.5t-57.5 -105.5t-23.5 -106.5q0 -62 37 -99.5t98 -37.5q21 0 90 12l-96 -196q-86 -1 -153 27t-103.5 73t-55 95.5t-18.5 101.5z M244 915q0 51 36 87t87 36t86.5 -36t35.5 -87t-35.5 -86.5t-86.5 -35.5t-87 35.5t-36 86.5z" />
<glyph unicode="&#xc0;" horiz-adv-x="1366" d="M0 0l600 1405h141l625 -1405h-205l-186 412h-594l-176 -412h-205zM459 592h434l-225 506zM465 1790h205l137 -301h-113z" />
<glyph unicode="&#xc1;" horiz-adv-x="1366" d="M0 0l600 1405h141l625 -1405h-205l-186 412h-594l-176 -412h-205zM459 592h434l-225 506zM569 1489l138 301h204l-229 -301h-113z" />
<glyph unicode="&#xc2;" horiz-adv-x="1366" d="M0 0l600 1405h141l625 -1405h-205l-186 412h-594l-176 -412h-205zM399 1487l187 309h190l193 -309h-113l-178 178l-170 -178h-109zM459 592h434l-225 506z" />
<glyph unicode="&#xc3;" horiz-adv-x="1366" d="M0 0l600 1405h141l625 -1405h-205l-186 412h-594l-176 -412h-205zM383 1526q8 113 49 174t111 61q56 0 160 -35.5t128 -35.5q63 0 74 77h78q0 -108 -45.5 -174.5t-116.5 -66.5q-59 0 -148.5 35.5t-135.5 35.5q-61 0 -70 -71h-84zM459 592h434l-225 506z" />
<glyph unicode="&#xc4;" horiz-adv-x="1366" d="M0 0l600 1405h141l625 -1405h-205l-186 412h-594l-176 -412h-205zM397 1642q0 40 28.5 67.5t68.5 27.5t67 -27.5t27 -67.5t-27 -68t-67 -28t-68.5 28t-28.5 68zM459 592h434l-225 506zM778 1642q0 40 28 67.5t68 27.5t67.5 -27.5t27.5 -67.5t-27.5 -68t-67.5 -28t-68 28 t-28 68z" />
<glyph unicode="&#xc5;" horiz-adv-x="1366" d="M0 0l600 1405h141l625 -1405h-205l-186 412h-594l-176 -412h-205zM459 592h434l-225 506zM494 1675q0 78 56 134.5t134 56.5t134 -56.5t56 -134.5t-56 -134t-134 -56t-134 56t-56 134zM571 1675q0 -46 33.5 -79t79.5 -33t79.5 33t33.5 79t-33.5 79.5t-79.5 33.5 t-79.5 -33.5t-33.5 -79.5z" />
<glyph unicode="&#xc6;" horiz-adv-x="1835" d="M4 0l827 1397h912v-180h-574v-420h555v-181h-555v-436h596v-180h-796v616h-391l-367 -616h-207zM680 797h289v477h-4z" />
<glyph unicode="&#xc7;" horiz-adv-x="1449" d="M98 678q0 210 98.5 378.5t273.5 263.5t394 95q206 0 479 -115v-215q-251 146 -481 146q-239 0 -398 -152.5t-159 -382.5q0 -235 156.5 -382.5t408.5 -147.5q243 0 488 158v-220q-118 -62 -237 -92t-310 -30l-8 -29q51 -14 80.5 -48t29.5 -81q0 -111 -88 -157t-229 -25 v112q73 -11 122.5 3.5t49.5 49.5q0 28 -31.5 43t-87.5 9l49 137q-120 20 -221.5 72.5t-170 122.5t-116.5 154t-70 168t-22 165z" />
<glyph unicode="&#xc8;" d="M154 0v1397h792v-180h-592v-422h572v-181h-572v-434h611v-180h-811zM295 1790h205l137 -301h-113z" />
<glyph unicode="&#xc9;" d="M154 0v1397h792v-180h-592v-422h572v-181h-572v-434h611v-180h-811zM399 1489l138 301h204l-229 -301h-113z" />
<glyph unicode="&#xca;" d="M154 0v1397h792v-180h-592v-422h572v-181h-572v-434h611v-180h-811zM229 1487l187 309h190l193 -309h-113l-178 178l-170 -178h-109z" />
<glyph unicode="&#xcb;" d="M154 0v1397h792v-180h-592v-422h572v-181h-572v-434h611v-180h-811zM227 1642q0 40 28.5 67.5t68.5 27.5t67 -27.5t27 -67.5t-27 -68t-67 -28t-68.5 28t-28.5 68zM608 1642q0 40 28.5 67.5t68.5 27.5t67 -27.5t27 -67.5t-27 -68t-67 -28t-68.5 28t-28.5 68z" />
<glyph unicode="&#xcc;" horiz-adv-x="512" d="M39 1790h205l137 -301h-113zM156 0v1397h200v-1397h-200z" />
<glyph unicode="&#xcd;" horiz-adv-x="512" d="M143 1489l138 301h204l-229 -301h-113zM156 0v1397h200v-1397h-200z" />
<glyph unicode="&#xce;" horiz-adv-x="512" d="M-27 1487l187 309h190l193 -309h-113l-178 178l-170 -178h-109zM156 0v1397h200v-1397h-200z" />
<glyph unicode="&#xcf;" horiz-adv-x="512" d="M-29 1642q0 40 28.5 67.5t68.5 27.5t67 -27.5t27 -67.5t-27 -68t-67 -28t-68.5 28t-28.5 68zM156 0v1397h200v-1397h-200zM352 1642q0 40 28.5 67.5t68.5 27.5t67 -27.5t27 -67.5t-27 -68t-67 -28t-68.5 28t-28.5 68z" />
<glyph unicode="&#xd0;" horiz-adv-x="1536" d="M-8 608v180h164v609h542q169 0 312 -59.5t236 -157.5t144.5 -223t51.5 -259q0 -136 -52 -261.5t-145.5 -223t-235 -155.5t-309.5 -58h-544v608h-164zM356 180h324q157 0 281.5 59t199 178t74.5 281q0 108 -34.5 200t-102.5 164.5t-179 113.5t-253 41h-310v-429h396v-180 h-396v-428z" />
<glyph unicode="&#xd1;" horiz-adv-x="1599" d="M152 0v1397h159l946 -1082v1082h189v-1397h-172l-934 1075v-1075h-188zM500 1526q8 113 48.5 174t110.5 61q56 0 160.5 -35.5t128.5 -35.5q63 0 74 77h78q0 -108 -45.5 -174.5t-116.5 -66.5q-59 0 -149 35.5t-136 35.5q-60 0 -69 -71h-84z" />
<glyph unicode="&#xd2;" horiz-adv-x="1685" d="M92 698q0 115 34 222.5t100 197t156 156.5t208.5 104t251.5 37q169 0 311.5 -57.5t238 -155t148.5 -228t53 -276.5q0 -142 -52.5 -271t-147 -228t-239 -158t-316.5 -59q-167 0 -308.5 58.5t-236.5 157.5t-148 228.5t-53 271.5zM299 698q0 -229 155 -380.5t388 -151.5 q116 0 217 40.5t172.5 111t113 169t41.5 211.5q0 230 -154.5 381.5t-389.5 151.5q-154 0 -278 -68.5t-194.5 -191t-70.5 -273.5zM625 1790h204l138 -301h-113z" />
<glyph unicode="&#xd3;" horiz-adv-x="1685" d="M92 698q0 115 34 222.5t100 197t156 156.5t208.5 104t251.5 37q169 0 311.5 -57.5t238 -155t148.5 -228t53 -276.5q0 -142 -52.5 -271t-147 -228t-239 -158t-316.5 -59q-167 0 -308.5 58.5t-236.5 157.5t-148 228.5t-53 271.5zM299 698q0 -229 155 -380.5t388 -151.5 q116 0 217 40.5t172.5 111t113 169t41.5 211.5q0 230 -154.5 381.5t-389.5 151.5q-154 0 -278 -68.5t-194.5 -191t-70.5 -273.5zM729 1489l137 301h205l-229 -301h-113z" />
<glyph unicode="&#xd4;" horiz-adv-x="1685" d="M92 698q0 115 34 222.5t100 197t156 156.5t208.5 104t251.5 37q169 0 311.5 -57.5t238 -155t148.5 -228t53 -276.5q0 -142 -52.5 -271t-147 -228t-239 -158t-316.5 -59q-167 0 -308.5 58.5t-236.5 157.5t-148 228.5t-53 271.5zM299 698q0 -229 155 -380.5t388 -151.5 q116 0 217 40.5t172.5 111t113 169t41.5 211.5q0 230 -154.5 381.5t-389.5 151.5q-154 0 -278 -68.5t-194.5 -191t-70.5 -273.5zM559 1487l186 309h191l192 -309h-112l-178 178l-170 -178h-109z" />
<glyph unicode="&#xd5;" horiz-adv-x="1685" d="M92 698q0 115 34 222.5t100 197t156 156.5t208.5 104t251.5 37q169 0 311.5 -57.5t238 -155t148.5 -228t53 -276.5q0 -142 -52.5 -271t-147 -228t-239 -158t-316.5 -59q-167 0 -308.5 58.5t-236.5 157.5t-148 228.5t-53 271.5zM299 698q0 -229 155 -380.5t388 -151.5 q116 0 217 40.5t172.5 111t113 169t41.5 211.5q0 230 -154.5 381.5t-389.5 151.5q-154 0 -278 -68.5t-194.5 -191t-70.5 -273.5zM543 1526q8 113 48.5 174t110.5 61q56 0 160.5 -35.5t128.5 -35.5q63 0 74 77h78q0 -108 -45.5 -174.5t-116.5 -66.5q-59 0 -149 35.5 t-136 35.5q-60 0 -69 -71h-84z" />
<glyph unicode="&#xd6;" horiz-adv-x="1685" d="M92 698q0 115 34 222.5t100 197t156 156.5t208.5 104t251.5 37q169 0 311.5 -57.5t238 -155t148.5 -228t53 -276.5q0 -142 -52.5 -271t-147 -228t-239 -158t-316.5 -59q-167 0 -308.5 58.5t-236.5 157.5t-148 228.5t-53 271.5zM299 698q0 -229 155 -380.5t388 -151.5 q116 0 217 40.5t172.5 111t113 169t41.5 211.5q0 230 -154.5 381.5t-389.5 151.5q-154 0 -278 -68.5t-194.5 -191t-70.5 -273.5zM557 1642q0 40 28 67.5t68 27.5t67.5 -27.5t27.5 -67.5t-27.5 -68t-67.5 -28t-68 28t-28 68zM938 1642q0 40 28 67.5t68 27.5t67 -27.5 t27 -67.5t-27 -68t-67 -28t-68 28t-28 68z" />
<glyph unicode="&#xd7;" horiz-adv-x="1196" d="M162 410l315 315l-315 315l121 121l315 -315l313 313l121 -121l-313 -313l313 -313l-121 -121l-313 313l-315 -315z" />
<glyph unicode="&#xd8;" horiz-adv-x="1685" d="M92 698q0 115 34 222.5t100 197t156 156.5t208.5 104t251.5 37q246 0 428 -117l104 121l94 -82l-98 -114q105 -94 164 -235t59 -290q0 -142 -52.5 -271t-147 -228t-239 -158t-316.5 -59q-249 0 -432 122l-97 -112l-96 67l100 117q-221 221 -221 522zM299 698 q0 -208 143 -370l701 821q-145 82 -301 82q-154 0 -278 -68.5t-194.5 -191t-70.5 -273.5zM535 254q145 -88 307 -88q116 0 217 40.5t172.5 111t113 169t41.5 211.5q0 223 -147 373z" />
<glyph unicode="&#xd9;" horiz-adv-x="1449" d="M125 528v869h201v-826q0 -117 18 -177.5t66 -108.5q119 -119 301 -119q214 0 327 113q51 51 69.5 124t18.5 181v813h201v-848q0 -264 -158 -415.5t-462 -151.5q-90 0 -173.5 20t-158.5 63t-130 106t-87.5 154.5t-32.5 202.5zM508 1790h205l137 -301h-113z" />
<glyph unicode="&#xda;" horiz-adv-x="1449" d="M125 528v869h201v-826q0 -117 18 -177.5t66 -108.5q119 -119 301 -119q214 0 327 113q51 51 69.5 124t18.5 181v813h201v-848q0 -264 -158 -415.5t-462 -151.5q-90 0 -173.5 20t-158.5 63t-130 106t-87.5 154.5t-32.5 202.5zM612 1489l138 301h204l-229 -301h-113z" />
<glyph unicode="&#xdb;" horiz-adv-x="1449" d="M125 528v869h201v-826q0 -117 18 -177.5t66 -108.5q119 -119 301 -119q214 0 327 113q51 51 69.5 124t18.5 181v813h201v-848q0 -264 -158 -415.5t-462 -151.5q-90 0 -173.5 20t-158.5 63t-130 106t-87.5 154.5t-32.5 202.5zM442 1487l187 309h190l193 -309h-113 l-178 178l-170 -178h-109z" />
<glyph unicode="&#xdc;" horiz-adv-x="1449" d="M125 528v869h201v-826q0 -117 18 -177.5t66 -108.5q119 -119 301 -119q214 0 327 113q51 51 69.5 124t18.5 181v813h201v-848q0 -264 -158 -415.5t-462 -151.5q-90 0 -173.5 20t-158.5 63t-130 106t-87.5 154.5t-32.5 202.5zM440 1642q0 40 28.5 67.5t68.5 27.5t67 -27.5 t27 -67.5t-27 -68t-67 -28t-68.5 28t-28.5 68zM821 1642q0 40 28.5 67.5t68.5 27.5t67 -27.5t27 -67.5t-27 -68t-67 -28t-68.5 28t-28.5 68z" />
<glyph unicode="&#xdd;" horiz-adv-x="1236" d="M0 1397h242l374 -482l379 482h242l-518 -660v-737h-201v739zM506 1489l137 301h205l-230 -301h-112z" />
<glyph unicode="&#xde;" horiz-adv-x="1044" d="M143 0v1397h201v-303h236q218 0 331 -113t113 -289q0 -84 -28.5 -154t-85 -123.5t-148 -83.5t-209.5 -30h-209v-301h-201zM344 481h227q114 0 180 58t66 161q0 41 -12 77t-38 67.5t-74 50t-113 18.5h-236v-432z" />
<glyph unicode="&#xdf;" d="M121 0v1059q0 168 106.5 262t282.5 94q182 0 285.5 -90t103.5 -248q0 -104 -54.5 -185.5t-148.5 -119.5v-4q123 -31 191.5 -127.5t68.5 -239.5q0 -189 -101 -304t-267 -115q-50 0 -131 18v178q50 -22 98 -22q97 0 156 69t59 181q0 57 -13.5 103.5t-45 87.5t-92 63 t-146.5 20v164q117 -3 178.5 52.5t61.5 160.5q0 92 -57.5 154.5t-143.5 62.5q-209 0 -209 -238v-1036h-182z" />
<glyph unicode="&#xe0;" horiz-adv-x="874" d="M53 207q0 51 20.5 94t42 68t75 53.5t77 38t89.5 33.5q7 3 10 4l161 57v49q0 85 -40.5 123.5t-125.5 38.5q-161 0 -290 -152v199q107 125 305 125q148 0 241 -76.5t93 -226.5v-473q0 -47 34 -47q32 0 97 49v-111q-65 -42 -99.5 -56.5t-76.5 -14.5q-60 0 -94 22.5t-46 71.5 q-119 -94 -247 -94q-99 0 -162.5 66.5t-63.5 158.5zM178 1339h205l137 -301h-112zM238 240q0 -57 37 -93t94 -36q81 0 159 75v269q-55 -19 -91 -32.5t-77.5 -34.5t-65.5 -41t-40 -47.5t-16 -59.5z" />
<glyph unicode="&#xe1;" horiz-adv-x="874" d="M53 207q0 51 20.5 94t42 68t75 53.5t77 38t89.5 33.5q7 3 10 4l161 57v49q0 85 -40.5 123.5t-125.5 38.5q-161 0 -290 -152v199q107 125 305 125q148 0 241 -76.5t93 -226.5v-473q0 -47 34 -47q32 0 97 49v-111q-65 -42 -99.5 -56.5t-76.5 -14.5q-60 0 -94 22.5t-46 71.5 q-119 -94 -247 -94q-99 0 -162.5 66.5t-63.5 158.5zM238 240q0 -57 37 -93t94 -36q81 0 159 75v269q-55 -19 -91 -32.5t-77.5 -34.5t-65.5 -41t-40 -47.5t-16 -59.5zM324 1038l137 301h205l-230 -301h-112z" />
<glyph unicode="&#xe2;" horiz-adv-x="874" d="M53 207q0 51 20.5 94t42 68t75 53.5t77 38t89.5 33.5q7 3 10 4l161 57v49q0 85 -40.5 123.5t-125.5 38.5q-161 0 -290 -152v199q107 125 305 125q148 0 241 -76.5t93 -226.5v-473q0 -47 34 -47q32 0 97 49v-111q-65 -42 -99.5 -56.5t-76.5 -14.5q-60 0 -94 22.5t-46 71.5 q-119 -94 -247 -94q-99 0 -162.5 66.5t-63.5 158.5zM113 1036l186 310h190l193 -310h-113l-178 178l-170 -178h-108zM238 240q0 -57 37 -93t94 -36q81 0 159 75v269q-55 -19 -91 -32.5t-77.5 -34.5t-65.5 -41t-40 -47.5t-16 -59.5z" />
<glyph unicode="&#xe3;" horiz-adv-x="874" d="M53 207q0 51 20.5 94t42 68t75 53.5t77 38t89.5 33.5q7 3 10 4l161 57v49q0 85 -40.5 123.5t-125.5 38.5q-161 0 -290 -152v199q107 125 305 125q148 0 241 -76.5t93 -226.5v-473q0 -47 34 -47q32 0 97 49v-111q-65 -42 -99.5 -56.5t-76.5 -14.5q-60 0 -94 22.5t-46 71.5 q-119 -94 -247 -94q-99 0 -162.5 66.5t-63.5 158.5zM96 1075q8 113 49 174.5t111 61.5q56 0 160.5 -36t128.5 -36q62 0 73 78h78q0 -108 -45 -175t-116 -67q-59 0 -149 36t-136 36q-61 0 -70 -72h-84zM238 240q0 -57 37 -93t94 -36q81 0 159 75v269q-55 -19 -91 -32.5 t-77.5 -34.5t-65.5 -41t-40 -47.5t-16 -59.5z" />
<glyph unicode="&#xe4;" horiz-adv-x="874" d="M53 207q0 51 20.5 94t42 68t75 53.5t77 38t89.5 33.5q7 3 10 4l161 57v49q0 85 -40.5 123.5t-125.5 38.5q-161 0 -290 -152v199q107 125 305 125q148 0 241 -76.5t93 -226.5v-473q0 -47 34 -47q32 0 97 49v-111q-65 -42 -99.5 -56.5t-76.5 -14.5q-60 0 -94 22.5t-46 71.5 q-119 -94 -247 -94q-99 0 -162.5 66.5t-63.5 158.5zM111 1192q0 40 28 67t68 27t67 -27t27 -67t-27 -68t-67 -28t-68 28t-28 68zM238 240q0 -57 37 -93t94 -36q81 0 159 75v269q-55 -19 -91 -32.5t-77.5 -34.5t-65.5 -41t-40 -47.5t-16 -59.5zM492 1192q0 40 28 67t68 27 t67 -27t27 -67t-27 -68t-67 -28t-68 28t-28 68z" />
<glyph unicode="&#xe5;" horiz-adv-x="874" d="M53 207q0 51 20.5 94t42 68t75 53.5t77 38t89.5 33.5q7 3 10 4l161 57v49q0 85 -40.5 123.5t-125.5 38.5q-161 0 -290 -152v199q107 125 305 125q148 0 241 -76.5t93 -226.5v-473q0 -47 34 -47q32 0 97 49v-111q-65 -42 -99.5 -56.5t-76.5 -14.5q-60 0 -94 22.5t-46 71.5 q-119 -94 -247 -94q-99 0 -162.5 66.5t-63.5 158.5zM207 1225q0 78 56 134t134 56t134.5 -56t56.5 -134t-56.5 -134.5t-134.5 -56.5t-134 56.5t-56 134.5zM238 240q0 -57 37 -93t94 -36q81 0 159 75v269q-55 -19 -91 -32.5t-77.5 -34.5t-65.5 -41t-40 -47.5t-16 -59.5z M285 1225q0 -46 33 -79.5t79 -33.5t79.5 33.5t33.5 79.5t-33.5 79t-79.5 33t-79 -33t-33 -79z" />
<glyph unicode="&#xe6;" horiz-adv-x="1366" d="M72 217q0 124 107 194.5t358 137.5q16 225 -146 225q-88 0 -158 -37.5t-141 -120.5v220q121 102 297 102q85 0 158 -31.5t117 -87.5q55 53 128.5 86t141.5 33q163 0 261 -119t89 -321h-565q0 -170 81.5 -261.5t203.5 -91.5q69 0 136 28t148 89v-182q-136 -98 -309 -98 q-100 0 -186 39t-129 104q-177 -143 -353 -143q-104 0 -171.5 66t-67.5 169zM258 254q0 -62 36.5 -105t88.5 -43q36 0 64 10t90 46v297q-150 -56 -214.5 -99.5t-64.5 -105.5zM741 618h363q-11 81 -52.5 118.5t-125.5 37.5q-62 0 -111 -41.5t-74 -114.5z" />
<glyph unicode="&#xe7;" horiz-adv-x="897" d="M84 442q0 227 123 361.5t332 134.5q74 0 133 -15.5t133 -48.5v-194q-75 51 -133 70.5t-121 19.5q-125 0 -203 -86t-78 -225q0 -141 85 -223t227 -82q106 0 243 61v-180q-47 -23 -127.5 -38t-162.5 -15l-9 -29q51 -14 81 -48t30 -81q0 -111 -88.5 -157t-229.5 -25v112 q73 -11 123 3.5t50 49.5q0 28 -31.5 43t-87.5 9l49 139q-153 37 -245.5 157t-92.5 287z" />
<glyph unicode="&#xe8;" horiz-adv-x="980" d="M84 471q0 209 119.5 338t310.5 129q188 0 293.5 -128.5t105.5 -377.5h-647q44 -276 309 -276q155 0 322 110v-176q-86 -57 -169.5 -82.5t-197.5 -25.5q-138 0 -241.5 70t-154 179.5t-50.5 239.5zM270 553h463q-5 105 -62 166t-153 61q-103 0 -166 -58.5t-82 -168.5z M272 1339h205l137 -301h-112z" />
<glyph unicode="&#xe9;" horiz-adv-x="980" d="M84 471q0 209 119.5 338t310.5 129q188 0 293.5 -128.5t105.5 -377.5h-647q44 -276 309 -276q155 0 322 110v-176q-86 -57 -169.5 -82.5t-197.5 -25.5q-138 0 -241.5 70t-154 179.5t-50.5 239.5zM270 553h463q-5 105 -62 166t-153 61q-103 0 -166 -58.5t-82 -168.5z M377 1038l137 301h205l-230 -301h-112z" />
<glyph unicode="&#xea;" horiz-adv-x="980" d="M84 471q0 209 119.5 338t310.5 129q188 0 293.5 -128.5t105.5 -377.5h-647q44 -276 309 -276q155 0 322 110v-176q-86 -57 -169.5 -82.5t-197.5 -25.5q-138 0 -241.5 70t-154 179.5t-50.5 239.5zM207 1036l186 310h191l192 -310h-112l-179 178l-170 -178h-108zM270 553 h463q-5 105 -62 166t-153 61q-103 0 -166 -58.5t-82 -168.5z" />
<glyph unicode="&#xeb;" horiz-adv-x="980" d="M84 471q0 209 119.5 338t310.5 129q188 0 293.5 -128.5t105.5 -377.5h-647q44 -276 309 -276q155 0 322 110v-176q-86 -57 -169.5 -82.5t-197.5 -25.5q-138 0 -241.5 70t-154 179.5t-50.5 239.5zM205 1192q0 40 28 67t68 27t67 -27t27 -67t-27 -68t-67 -28t-68 28t-28 68 zM270 553h463q-5 105 -62 166t-153 61q-103 0 -166 -58.5t-82 -168.5zM586 1192q0 40 28 67t68 27t67 -27t27 -67t-27 -68t-67 -28t-68 28t-28 68z" />
<glyph unicode="&#xec;" horiz-adv-x="448" d="M6 1339h205l137 -301h-112zM133 0v920h182v-920h-182z" />
<glyph unicode="&#xed;" horiz-adv-x="448" d="M111 1038l137 301h205l-230 -301h-112zM133 0v920h182v-920h-182z" />
<glyph unicode="&#xee;" horiz-adv-x="448" d="M-59 1036l186 310h190l193 -310h-113l-178 178l-170 -178h-108zM133 0v920h182v-920h-182z" />
<glyph unicode="&#xef;" horiz-adv-x="448" d="M-61 1192q0 40 28 67t68 27t67 -27t27 -67t-27 -68t-67 -28t-68 28t-28 68zM133 0v920h182v-920h-182zM319 1192q0 39 28.5 66.5t68.5 27.5t67 -27t27 -67t-27 -68t-67 -28t-68.5 28t-28.5 68z" />
<glyph unicode="&#xf0;" horiz-adv-x="1153" d="M74 469q0 198 140 333.5t345 135.5q162 0 262 -86l4 4q-51 134 -180 266l-272 -129l-58 109l232 108q-59 46 -137 82l125 121q98 -42 188 -119l248 119l57 -108l-211 -101q118 -134 179 -302.5t61 -323.5q0 -291 -130 -443.5t-368 -152.5q-212 0 -348.5 137.5 t-136.5 349.5zM260 469q0 -146 82.5 -235t214.5 -89q145 0 229 86.5t84 235.5q0 134 -88.5 220.5t-224.5 86.5q-129 0 -213 -86.5t-84 -218.5z" />
<glyph unicode="&#xf1;" d="M125 0v920h182v-121h4q52 66 125 102.5t150 36.5q138 0 225.5 -95t87.5 -276v-567h-182v569q0 102 -48.5 163t-131.5 61q-60 0 -112.5 -31t-117.5 -103v-659h-182zM213 1075q8 113 49 174.5t111 61.5q56 0 160.5 -36t128.5 -36q62 0 73 78h78q0 -108 -45.5 -175 t-116.5 -67q-59 0 -148.5 36t-135.5 36q-61 0 -70 -72h-84z" />
<glyph unicode="&#xf2;" horiz-adv-x="1130" d="M74 469q0 198 140 333.5t345 135.5q217 0 357.5 -132.5t140.5 -336.5q0 -218 -138 -352.5t-360 -134.5q-212 0 -348.5 137.5t-136.5 349.5zM260 469q0 -146 82.5 -235t214.5 -89q145 0 229 86.5t84 235.5q0 134 -88.5 220.5t-224.5 86.5q-129 0 -213 -86.5t-84 -218.5z M348 1339h205l137 -301h-112z" />
<glyph unicode="&#xf3;" horiz-adv-x="1130" d="M74 469q0 198 140 333.5t345 135.5q217 0 357.5 -132.5t140.5 -336.5q0 -218 -138 -352.5t-360 -134.5q-212 0 -348.5 137.5t-136.5 349.5zM260 469q0 -146 82.5 -235t214.5 -89q145 0 229 86.5t84 235.5q0 134 -88.5 220.5t-224.5 86.5q-129 0 -213 -86.5t-84 -218.5z M453 1038l137 301h205l-230 -301h-112z" />
<glyph unicode="&#xf4;" horiz-adv-x="1130" d="M74 469q0 198 140 333.5t345 135.5q217 0 357.5 -132.5t140.5 -336.5q0 -218 -138 -352.5t-360 -134.5q-212 0 -348.5 137.5t-136.5 349.5zM260 469q0 -146 82.5 -235t214.5 -89q145 0 229 86.5t84 235.5q0 134 -88.5 220.5t-224.5 86.5q-129 0 -213 -86.5t-84 -218.5z M283 1036l186 310h190l193 -310h-113l-178 178l-170 -178h-108z" />
<glyph unicode="&#xf5;" horiz-adv-x="1130" d="M74 469q0 198 140 333.5t345 135.5q217 0 357.5 -132.5t140.5 -336.5q0 -218 -138 -352.5t-360 -134.5q-212 0 -348.5 137.5t-136.5 349.5zM260 469q0 -146 82.5 -235t214.5 -89q145 0 229 86.5t84 235.5q0 134 -88.5 220.5t-224.5 86.5q-129 0 -213 -86.5t-84 -218.5z M266 1075q8 113 49 174.5t111 61.5q56 0 160.5 -36t128.5 -36q62 0 73 78h78q0 -108 -45 -175t-116 -67q-59 0 -149 36t-136 36q-61 0 -70 -72h-84z" />
<glyph unicode="&#xf6;" horiz-adv-x="1130" d="M74 469q0 198 140 333.5t345 135.5q217 0 357.5 -132.5t140.5 -336.5q0 -218 -138 -352.5t-360 -134.5q-212 0 -348.5 137.5t-136.5 349.5zM260 469q0 -146 82.5 -235t214.5 -89q145 0 229 86.5t84 235.5q0 134 -88.5 220.5t-224.5 86.5q-129 0 -213 -86.5t-84 -218.5z M281 1192q0 40 28 67t68 27t67 -27t27 -67t-27 -68t-67 -28t-68 28t-28 68zM662 1192q0 40 28 67t68 27t67 -27t27 -67t-27 -68t-67 -28t-68 28t-28 68z" />
<glyph unicode="&#xf7;" horiz-adv-x="1196" d="M115 639v168h966v-168h-966zM489 422q0 44 32.5 76t76.5 32t76.5 -32t32.5 -76t-32.5 -76.5t-76.5 -32.5t-76.5 32.5t-32.5 76.5zM489 1024q0 44 32.5 76.5t76.5 32.5t76.5 -32.5t32.5 -76.5t-32.5 -76.5t-76.5 -32.5t-76.5 32.5t-32.5 76.5z" />
<glyph unicode="&#xf8;" horiz-adv-x="1130" d="M74 469q0 198 140 333.5t345 135.5q173 0 287 -80l96 111l68 -62l-90 -104q137 -137 137 -334q0 -218 -138 -352.5t-360 -134.5q-153 0 -276 77l-115 -135l-68 62l113 131q-66 66 -102.5 157t-36.5 195zM260 469q0 -58 17.5 -117t50.5 -100l407 475q-80 47 -178 47 q-129 0 -213 -86.5t-84 -218.5zM395 190q70 -45 162 -45q145 0 229 86.5t84 235.5q0 49 -17 104t-50 95z" />
<glyph unicode="&#xf9;" d="M123 348v572h182v-584q0 -98 48 -150.5t141 -52.5q128 0 219 129v658h182v-920h-182v117q-57 -62 -131.5 -98.5t-141.5 -36.5q-142 0 -229.5 97t-87.5 269zM295 1339h205l137 -301h-113z" />
<glyph unicode="&#xfa;" d="M123 348v572h182v-584q0 -98 48 -150.5t141 -52.5q128 0 219 129v658h182v-920h-182v117q-57 -62 -131.5 -98.5t-141.5 -36.5q-142 0 -229.5 97t-87.5 269zM399 1038l138 301h204l-229 -301h-113z" />
<glyph unicode="&#xfb;" d="M123 348v572h182v-584q0 -98 48 -150.5t141 -52.5q128 0 219 129v658h182v-920h-182v117q-57 -62 -131.5 -98.5t-141.5 -36.5q-142 0 -229.5 97t-87.5 269zM229 1036l187 310h190l193 -310h-113l-178 178l-170 -178h-109z" />
<glyph unicode="&#xfc;" d="M123 348v572h182v-584q0 -98 48 -150.5t141 -52.5q128 0 219 129v658h182v-920h-182v117q-57 -62 -131.5 -98.5t-141.5 -36.5q-142 0 -229.5 97t-87.5 269zM227 1192q0 39 28.5 66.5t68.5 27.5t67 -27t27 -67t-27 -68t-67 -28t-68.5 28t-28.5 68zM608 1192 q0 39 28.5 66.5t68.5 27.5t67 -27t27 -67t-27 -68t-67 -28t-68.5 28t-28.5 68z" />
<glyph unicode="&#xfd;" horiz-adv-x="897" d="M0 920h207l248 -519l237 519h205l-651 -1391h-203l313 668zM336 1038l137 301h205l-229 -301h-113z" />
<glyph unicode="&#xfe;" d="M117 -471v1868h182v-477h133q252 0 385 -120t133 -347q0 -207 -131.5 -339t-335.5 -132q-85 0 -184 41v-494h-182zM299 186q84 -41 172 -41q127 0 210 88t83 222q0 144 -76 222.5t-223 78.5h-166v-570z" />
<glyph unicode="&#xff;" horiz-adv-x="897" d="M0 920h207l248 -519l237 519h205l-651 -1391h-203l313 668zM164 1192q0 40 28 67t68 27t67 -27t27 -67t-27 -68t-67 -28t-68 28t-28 68zM545 1192q0 40 28 67t68 27t67 -27t27 -67t-27 -68t-67 -28t-68 28t-28 68z" />
<glyph unicode="&#x152;" horiz-adv-x="1878" d="M96 696q0 205 100 364.5t280 248t411 88.5h905v-180h-571v-420h551v-181h-551v-436h594v-180h-910q-169 0 -317.5 49.5t-257 138.5t-171.5 220.5t-63 287.5zM303 698q0 -146 75.5 -266.5t208 -189t294.5 -68.5h139v1049h-117q-144 0 -260.5 -44t-189.5 -118t-111.5 -167 t-38.5 -196z" />
<glyph unicode="&#x153;" horiz-adv-x="1705" d="M72 438q0 222 139 361t362 139q125 0 219 -46t169 -144q55 93 140 141.5t189 48.5q70 0 132.5 -28t111 -81.5t75 -139t21.5 -191.5h-573q-12 -158 69.5 -255.5t214.5 -97.5q76 0 144.5 28t148.5 91v-184q-50 -32 -84.5 -49t-101 -33t-145.5 -16q-112 0 -200 47t-142 135 q-147 -182 -400 -182q-201 0 -345 134.5t-144 321.5zM258 446q0 -122 89 -211.5t216 -89.5q137 0 220 89.5t83 230.5q0 126 -86 217.5t-211 91.5q-135 0 -223 -94.5t-88 -233.5zM1075 618h375q-19 156 -170 156q-155 0 -205 -156z" />
<glyph unicode="&#x178;" horiz-adv-x="1236" d="M0 1397h242l374 -482l379 482h242l-518 -660v-737h-201v739zM334 1642q0 40 28 67.5t68 27.5t67 -27.5t27 -67.5t-27 -68t-67 -28t-68 28t-28 68zM715 1642q0 40 28 67.5t68 27.5t67 -27.5t27 -67.5t-27 -68t-67 -28t-68 28t-28 68z" />
<glyph unicode="&#x2c6;" horiz-adv-x="681" d="M57 1036l187 310h190l193 -310h-113l-178 178l-170 -178h-109z" />
<glyph unicode="&#x2dc;" horiz-adv-x="681" d="M41 1075q8 113 49 174.5t111 61.5q56 0 160 -36t128 -36q63 0 74 78h78q0 -108 -45.5 -175t-116.5 -67q-59 0 -148.5 36t-135.5 36q-61 0 -70 -72h-84z" />
<glyph unicode="&#x2000;" horiz-adv-x="933" />
<glyph unicode="&#x2001;" horiz-adv-x="1866" />
<glyph unicode="&#x2002;" horiz-adv-x="933" />
<glyph unicode="&#x2003;" horiz-adv-x="1866" />
<glyph unicode="&#x2004;" horiz-adv-x="622" />
<glyph unicode="&#x2005;" horiz-adv-x="466" />
<glyph unicode="&#x2006;" horiz-adv-x="311" />
<glyph unicode="&#x2007;" horiz-adv-x="311" />
<glyph unicode="&#x2008;" horiz-adv-x="233" />
<glyph unicode="&#x2009;" horiz-adv-x="373" />
<glyph unicode="&#x200a;" horiz-adv-x="103" />
<glyph unicode="&#x2010;" horiz-adv-x="661" d="M82 356v191h498v-191h-498z" />
<glyph unicode="&#x2011;" horiz-adv-x="661" d="M82 356v191h498v-191h-498z" />
<glyph unicode="&#x2012;" horiz-adv-x="661" d="M82 356v191h498v-191h-498z" />
<glyph unicode="&#x2013;" d="M-18 453v131h1060v-131h-1060z" />
<glyph unicode="&#x2014;" horiz-adv-x="2048" d="M-18 453v131h2084v-131h-2084z" />
<glyph unicode="&#x2018;" horiz-adv-x="448" d="M94 1102q0 115 60.5 197.5t173.5 115.5v-39q-57 -49 -71.5 -97t-10.5 -122q50 -6 79 -39t29 -82q0 -60 -34.5 -92.5t-88.5 -32.5q-61 0 -99 55.5t-38 135.5z" />
<glyph unicode="&#x2019;" horiz-adv-x="448" d="M94 1290q0 60 34.5 92.5t88.5 32.5q61 0 99 -55t38 -135q0 -115 -60 -198t-173 -116v39q57 49 71.5 97t10.5 122q-50 6 -79.5 39t-29.5 82z" />
<glyph unicode="&#x201a;" horiz-adv-x="448" d="M94 143q0 60 34.5 92.5t88.5 32.5q61 0 99 -55t38 -135q0 -115 -60 -198t-173 -116v39q57 49 71.5 97.5t10.5 122.5q-50 6 -79.5 38.5t-29.5 81.5z" />
<glyph unicode="&#x201c;" horiz-adv-x="874" d="M84 1102q0 115 60 197.5t173 115.5v-39q-57 -49 -71 -96.5t-10 -122.5q50 -6 79 -39t29 -82q0 -60 -34.5 -92.5t-88.5 -32.5q-61 0 -99 55.5t-38 135.5zM530 1102q0 115 60.5 197.5t173.5 115.5v-39q-57 -49 -71.5 -97t-10.5 -122q50 -6 79.5 -39t29.5 -82 q0 -60 -34.5 -92.5t-88.5 -32.5q-61 0 -99.5 55.5t-38.5 135.5z" />
<glyph unicode="&#x201d;" horiz-adv-x="874" d="M84 1290q0 60 34.5 92.5t88.5 32.5q61 0 99 -55t38 -135q0 -115 -60 -198t-173 -116v39q57 49 71.5 97t10.5 122q-50 6 -79.5 39t-29.5 82zM530 1290q0 60 34.5 92.5t88.5 32.5q62 0 100 -55t38 -135q0 -115 -60.5 -198t-173.5 -116v39q57 49 71.5 97t10.5 122 q-50 6 -79.5 39t-29.5 82z" />
<glyph unicode="&#x201e;" horiz-adv-x="874" d="M104 143q0 60 34.5 92.5t88.5 32.5q62 0 100 -55t38 -135q0 -115 -60.5 -198t-173.5 -116v39q57 49 71.5 97.5t10.5 122.5q-50 6 -79.5 38.5t-29.5 81.5zM553 143q0 60 34.5 92.5t88.5 32.5q61 0 99 -55t38 -135q0 -115 -60 -198t-173 -116v39q57 49 71.5 97.5 t10.5 122.5q-50 6 -79.5 38.5t-29.5 81.5z" />
<glyph unicode="&#x2022;" horiz-adv-x="724" d="M109 698q0 104 74.5 179t178.5 75t179 -75t75 -179t-75 -179t-179 -75t-178.5 75t-74.5 179z" />
<glyph unicode="&#x2026;" horiz-adv-x="2048" d="M217 104q0 51 36 87t87 36t87 -36t36 -87t-36 -86.5t-87 -35.5t-87 35.5t-36 86.5zM901 104q0 51 36 87t87 36t87 -36t36 -87t-36 -86.5t-87 -35.5t-87 35.5t-36 86.5zM1585 104q0 51 36 87t87 36t87 -36t36 -87t-36 -86.5t-87 -35.5t-87 35.5t-36 86.5z" />
<glyph unicode="&#x202f;" horiz-adv-x="373" />
<glyph unicode="&#x2039;" horiz-adv-x="641" d="M74 461l301 461h180l-303 -461l303 -461h-180z" />
<glyph unicode="&#x203a;" horiz-adv-x="641" d="M86 0l303 461l-303 461h180l301 -461l-301 -461h-180z" />
<glyph unicode="&#x205f;" horiz-adv-x="466" />
<glyph unicode="&#x20ac;" horiz-adv-x="1249" d="M57 487l27 156h117v41q0 43 2 70h-146l27 155h141q51 229 209 367.5t369 138.5q167 0 354 -67l-39 -193q-103 43 -172 59.5t-145 16.5q-282 0 -375 -322h594l-29 -155h-590q-2 -18 -2 -58v-53h572l-29 -156h-516q41 -156 138.5 -238.5t238.5 -82.5q94 0 176 32.5 t170 104.5v-219q-82 -54 -164.5 -78t-187.5 -24q-225 0 -376.5 132.5t-201.5 372.5h-162z" />
<glyph unicode="&#x2122;" horiz-adv-x="2048" d="M225 1346v120h666v-120h-266v-695h-136v695h-264zM983 651v815h201l202 -651h5l196 651h197v-815h-125v684h-4l-205 -684h-123l-215 695h-4v-695h-125z" />
<glyph unicode="&#xe000;" horiz-adv-x="921" d="M0 0v922h922v-922h-922z" />
</font>
</defs>
</svg>
